osu file format v14

[General]
AudioFilename: audio.mp3
AudioLeadIn: 0
PreviewTime: 49380
Countdown: 0
SampleSet: Soft
StackLeniency: 0.7
Mode: 0
LetterboxInBreaks: 0
WidescreenStoryboard: 1

[Editor]
DistanceSpacing: 1
BeatDivisor: 2
GridSize: 4
TimelineZoom: 1.2

[Metadata]
Title:Glorious Days (TV Size)
TitleUnicode:Glorious Days (TV Size)
Artist:9-tie
ArtistUnicode:9-tie
Creator:Soue
Version:Normal
Source:SELECTION PROJECT
Tags:セレクションプロジェクト Japanese TV Anime Opening OP Intro One 1 First 1st Female Idol Idols Vocals 美山 鈴音 Suzune Miyama 花野井 玲那 Rena Hananoi 今鵜 凪咲 Nagisa Imau 小泉 詩 Uta Koizumi 当麻 まこ Mako Toma 八木 野土香 Nodoka Yagi 山鹿 栞 Shiori Yamaga 濱栗 広海 Hiromi Hamaguri 淀川 逢生 Ao Yadogawa j pop jpop j-pop
BeatmapID:3372105
BeatmapSetID:1651373

[Difficulty]
HPDrainRate:4
CircleSize:3.2
OverallDifficulty:4.4
ApproachRate:5
SliderMultiplier:0.94
SliderTickRate:1

[Events]
//Background and Video events
0,0,"background.jpg",0,0
Video,179,"video.mp4"
//Break Periods
//Storyboard Layer 0 (Background)
//Storyboard Layer 1 (Fail)
//Storyboard Layer 2 (Pass)
//Storyboard Layer 3 (Foreground)
//Storyboard Layer 4 (Overlay)
//Storyboard Sound Samples

[TimingPoints]
355,259.74025974026,4,2,1,60,1,0
355,-111.111111111111,4,2,1,60,0,0
16978,-111.111111111111,4,2,1,50,0,0
24510,-111.111111111111,4,2,2,50,0,0
24900,-111.111111111111,4,2,1,50,0,0
32562,-125,4,2,1,50,0,0
33601,-117.647058823529,4,2,1,50,0,0
41913,-111.111111111111,4,2,1,50,0,0
46069,-111.111111111111,4,2,1,60,0,0
49186,-111.111111111111,4,2,1,40,0,0
49705,-111.111111111111,4,2,2,60,0,0
49770,-111.111111111111,4,2,1,60,0,0
50225,-99.9999999999999,4,2,1,80,0,1
66783,-100,4,2,1,80,0,0
66848,-100,4,2,1,80,0,1
83471,-111.111111111111,4,2,1,60,0,0
84770,-111.111111111111,4,2,2,60,0,0
85095,-111.111111111111,4,2,1,50,0,0
89445,-111.111111111111,4,2,1,5,0,0

[Colours]
Combo1 : 128,255,214
Combo2 : 40,148,255
Combo3 : 255,179,255
Combo4 : 128,255,201
Combo5 : 201,119,255
Combo6 : 255,128,128
Combo7 : 255,255,128
Combo8 : 255,179,198

[HitObjects]
128,98,355,6,0,B|143:64|97:19|97:19|17:78|76:166,1,253.799992254639,4|2,1:2|0:0,0:0:0:0:
132,221,1393,2,0,P|190:254|289:210,1,169.199994836426,2|0,0:0|0:0,0:0:0:0:
410,112,2432,2,0,B|469:70|497:136|497:136|446:272,1,253.799992254639,2|0,0:0|0:0,0:0:0:0:
412,347,3471,2,0,P|368:362|325:346,1,84.599997418213,2|2,0:0|0:0,0:0:0:0:
263,302,3991,2,0,P|222:291|183:306,1,84.599997418213,2|2,0:0|0:0,0:0:0:0:
101,285,4510,6,0,P|71:233|88:165,1,126.899996127319,0|0,1:2|1:2,0:0:0:0:
191,101,5290,1,2,0:0:0:0:
269,132,5549,2,0,L|290:299,1,169.199994836426,2|2,0:0|0:0,0:0:0:0:
363,343,6329,1,2,0:0:0:0:
437,303,6588,2,0,L|455:164,1,126.899996127319,2|2,0:0|0:0,0:0:0:0:
509,112,7238,1,2,0:0:0:0:
406,37,7627,2,0,P|355:22|317:35,1,84.599997418213,2|2,0:0|0:0,0:0:0:0:
252,70,8147,2,0,P|210:77|171:62,1,84.599997418213,2|2,0:0|0:0,0:0:0:0:
111,2,8666,6,0,B|100:30|79:60|79:60|102:104|121:156,1,169.199994836426,0|0,1:2|1:2,0:0:0:0:
67,220,9445,1,2,0:0:0:0:
105,295,9705,2,0,P|159:321|254:257,1,169.199994836426,2|0,1:2|1:2,0:0:0:0:
281,194,10484,1,2,3:2:0:0:
304,112,10744,6,0,P|369:63|447:89,1,169.199994836426,2|0,1:2|1:2,0:0:0:0:
491,251,11783,2,0,L|478:340,1,84.599997418213,2|2,1:2|0:0,0:0:0:0:
396,356,12303,2,0,L|383:272,1,84.599997418213,2|2,1:2|3:2,0:0:0:0:
325,209,12822,5,0,1:2:0:0:
240,203,13082,1,0,1:2:0:0:
190,271,13342,1,0,1:2:0:0:
115,310,13601,1,2,1:2:0:0:
37,275,13861,2,0,P|23:232|36:188,1,84.599997418213,2|2,1:2|1:2,0:0:0:0:
88,131,14380,1,0,1:2:0:0:
45,58,14640,1,2,1:2:0:0:
116,13,14900,6,0,L|166:20,1,42.2999987091065,2|0,1:2|1:2,0:0:0:0:
178,56,15160,2,0,L|228:49,1,42.2999987091065,2|2,1:2|1:2,0:0:0:0:
253,24,15419,2,0,B|272:34|272:34|292:28|292:28|311:38|311:38|332:32|332:32|351:42|351:42|372:36|372:36|391:46|391:46|416:41,1,169.199994836426,0|2,1:2|1:2,0:0:0:0:
497,134,16329,1,8,0:3:0:0:
437,246,16718,2,0,P|431:269|435:293,1,42.2999987091065,4|4,0:3|0:3,0:0:0:0:
453,324,16978,6,0,B|401:334|401:334|385:355|385:355|329:365,1,126.899996127319,4|0,1:2|1:2,0:0:0:0:
296,372,17497,1,8,0:1:0:0:
243,305,17757,1,10,1:0:0:0:
296,239,18017,2,0,L|304:147,1,84.599997418213,10|10,0:1|0:1,0:0:0:0:
244,94,18536,1,10,0:1:0:0:
161,114,18796,2,0,L|118:110,1,42.2999987091065,10|0,1:0|1:2,0:0:0:0:
76,108,19056,6,0,P|48:156|67:224,1,126.899996127319,8|0,1:0|1:2,0:0:0:0:
99,246,19575,1,8,0:1:0:0:
60,321,19835,1,10,1:0:0:0:
124,376,20095,2,0,L|208:368,1,84.599997418213,10|10,0:1|0:1,0:0:0:0:
281,326,20614,1,10,0:1:0:0:
359,358,20874,2,0,L|406:353,1,42.2999987091065,10|0,1:0|1:2,0:0:0:0:
443,348,21134,6,0,P|467:296|436:230,1,126.899996127319,8|0,1:0|1:2,0:0:0:0:
404,214,21653,1,8,0:1:0:0:
322,236,21913,2,0,P|294:242|275:236,1,42.2999987091065,10|2,1:0|0:0,0:0:0:0:
245,215,22173,2,0,L|264:84,1,126.899996127319,10|2,0:1|0:0,0:0:0:0:
157,18,22952,2,0,P|129:12|110:18,1,42.2999987091065,10|2,1:0|1:2,0:0:0:0:
80,39,23212,2,0,L|99:170,1,126.899996127319,10|2,1:0|1:2,0:0:0:0:
29,271,23991,5,10,1:0:0:0:
91,327,24251,2,0,L|173:339,1,84.599997418213,10|10,3:1|3:2,0:0:0:0:
200,258,24770,2,0,L|117:245,1,84.599997418213,2|2,3:1|3:1,0:0:0:0:
52,190,25290,6,0,B|46:153|27:129|27:129|46:106|52:74,1,126.899996127319,4|0,1:2|1:2,0:0:0:0:
62,33,25809,1,8,0:1:0:0:
143,9,26069,1,10,1:0:0:0:
212,57,26329,2,0,P|256:67|303:51,1,84.599997418213,10|10,0:1|0:1,0:0:0:0:
358,3,26848,1,10,0:1:0:0:
425,54,27108,2,0,L|417:99,1,42.2999987091065,10|0,1:0|1:2,0:0:0:0:
384,121,27367,6,0,P|364:171|388:244,1,126.899996127319,8|0,1:0|1:2,0:0:0:0:
419,262,27887,1,8,0:1:0:0:
391,342,28147,1,10,1:0:0:0:
311,313,28406,2,0,L|225:328,1,84.599997418213,10|10,0:1|0:1,0:0:0:0:
153,369,28926,1,10,0:1:0:0:
74,336,29186,2,0,P|69:316|71:291,1,42.2999987091065,10|0,1:1|1:2,0:0:0:0:
95,260,29445,6,0,P|116:209|89:131,1,126.899996127319,10|0,1:0|1:2,0:0:0:0:
69,109,29965,1,10,0:1:0:0:
115,39,30225,1,8,1:0:0:0:
115,39,30355,2,0,L|201:23,1,84.599997418213,2|0,0:0|1:2,0:0:0:0:
239,15,30744,1,8,0:1:0:0:
310,61,31004,2,0,L|353:69,1,42.2999987091065,8|0,0:1|1:2,0:0:0:0:
382,39,31264,2,0,L|425:31,1,42.2999987091065,10|0,1:0|1:2,0:0:0:0:
460,51,31523,6,0,P|478:91|468:133,1,84.599997418213,10|10,1:0|3:1,0:0:0:0:
406,186,32043,2,0,L|322:170,1,84.599997418213,10|10,3:1|1:0,0:0:0:0:
240,150,32562,6,0,B|234:127|234:127|237:120|237:120|232:99,2,50.1333333333333,2|2|2,3:2|3:2|3:2,0:0:0:0:
183,206,33082,2,0,B|177:228|177:228|180:234|180:234|175:256,2,50.1333333333333,10|8|4,0:3|0:3|0:3,0:0:0:0:
129,147,33601,5,4,1:2:0:0:
13,270,34121,1,8,0:1:0:0:
56,342,34380,2,0,L|105:352,1,39.9500007619858,2|2,0:0|0:0,0:0:0:0:
125,382,34640,2,0,L|207:365,1,79.9000015239716,2|2,0:0|0:0,0:0:0:0:
263,313,35160,1,10,0:1:0:0:
341,326,35419,1,2,0:0:0:0:
405,278,35679,6,0,P|420:243|411:200,2,79.9000015239716,0|0|8,0:0|0:0|0:1,0:0:0:0:
341,326,36458,1,2,0:0:0:0:
281,272,36718,2,0,L|198:255,1,79.9000015239716,2|2,0:0|0:0,0:0:0:0:
167,252,37108,1,2,0:0:0:0:
167,252,37238,1,10,0:1:0:0:
99,202,37497,1,2,0:0:0:0:
24,231,37757,6,0,P|7:265|13:309,2,79.9000015239716,0|0|8,0:0|0:0|0:1,0:0:0:0:
99,202,38536,2,0,L|107:160,1,39.9500007619858,2|2,0:0|0:0,0:0:0:0:
85,128,38796,2,0,P|76:90|96:52,1,79.9000015239716,2|2,0:0|0:0,0:0:0:0:
164,18,39316,1,10,0:1:0:0:
230,62,39575,1,2,0:0:0:0:
308,47,39835,6,0,L|390:30,1,79.9000015239716,2|0,0:0|0:0,0:0:0:0:
418,104,40355,2,0,L|335:120,1,79.9000015239716,10|0,0:1|0:0,0:0:0:0:
367,194,40874,2,0,L|449:177,1,79.9000015239716,2|0,0:0|0:0,0:0:0:0:
478,250,41393,2,0,L|395:266,1,79.9000015239716,10|0,0:1|0:0,0:0:0:0:
361,335,41913,6,0,P|324:356|281:350,1,84.599997418213,4|8,1:2|0:0,0:0:0:0:
244,334,42303,1,8,0:0:0:0:
244,334,42432,2,0,L|228:251,1,84.599997418213,0|10,1:2|0:0,0:0:0:0:
172,186,42952,2,0,L|188:103,1,84.599997418213,2|10,1:2|0:0,0:0:0:0:
203,63,43342,1,10,0:0:0:0:
203,63,43471,2,0,P|240:42|283:48,1,84.599997418213,2|10,1:2|0:0,0:0:0:0:
356,85,43991,6,0,B|370:122|370:122|357:166,1,84.599997418213,0|8,1:2|0:0,0:0:0:0:
343,205,44380,1,8,0:0:0:0:
343,205,44510,2,0,L|357:293,1,84.599997418213,0|10,1:2|0:0,0:0:0:0:
312,361,45030,2,0,P|263:382|230:372,1,84.599997418213,2|10,1:2|0:0,0:0:0:0:
196,355,45419,1,10,0:0:0:0:
196,355,45549,2,0,P|149:340|116:353,1,84.599997418213,2|10,1:2|0:0,0:0:0:0:
38,320,46069,5,6,1:2:0:0:
3,242,46329,1,2,1:2:0:0:
53,174,46588,1,2,1:2:0:0:
137,177,46848,1,2,1:2:0:0:
173,253,47108,1,4,1:2:0:0:
254,276,47367,1,0,1:2:0:0:
313,215,47627,1,6,1:2:0:0:
287,134,47887,1,2,1:2:0:0:
321,56,48147,6,0,P|343:43|365:44,1,42.2999987091065,6|0,1:2|1:2,0:0:0:0:
395,64,48406,2,0,P|417:77|439:76,1,42.2999987091065,4|0,1:2|1:2,0:0:0:0:
473,64,48666,2,0,B|476:85|476:85|464:102|464:102|468:123|468:123|456:141|456:141|459:162|459:162|447:180|447:180|451:202|451:202|438:224,1,169.199994836426,0|2,1:2|1:2,0:0:0:0:
475,296,49445,5,2,0:0:0:0:
421,361,49705,2,0,P|400:366|377:363,1,42.2999987091065,10|4,0:0|0:3,0:0:0:0:
344,339,49965,1,6,1:2:0:0:
275,288,50225,6,0,P|229:273|187:289,1,94,6|10,1:0|0:0,0:0:0:0:
102,249,50744,2,0,L|87:155,1,94,2|10,1:2|0:0,0:0:0:0:
109,114,51134,2,0,P|146:90|195:97,1,94,2|2,0:0|0:0,0:0:0:0:
229,127,51523,1,10,0:0:0:0:
306,180,51783,1,2,1:2:0:0:
384,231,52043,2,0,L|429:223,1,47,8|0,0:0|0:0,0:0:0:0:
475,209,52303,6,0,P|492:167|477:120,1,94,2|10,1:2|0:0,0:0:0:0:
421,47,52822,2,0,L|327:31,1,94,2|10,1:2|0:0,0:0:0:0:
297,67,53212,2,0,L|199:82,1,94,2|2,0:0|0:0,0:0:0:0:
170,48,53601,1,10,0:0:0:0:
82,13,53861,1,2,1:2:0:0:
11,74,54121,2,0,P|5:94|10:122,1,47,8|0,0:0|0:0,0:0:0:0:
44,150,54380,6,0,L|58:244,1,94,2|10,1:2|0:0,0:0:0:0:
41,335,54900,2,0,P|83:349|125:328,1,94,2|10,1:2|0:0,0:0:0:0:
159,295,55290,2,0,P|201:273|246:281,1,94,2|2,0:0|0:0,0:0:0:0:
268,321,55679,1,10,0:0:0:0:
346,373,55939,1,2,1:2:0:0:
412,306,56199,1,10,0:0:0:0:
353,232,56458,6,0,L|341:138,1,94,2|8,1:2|0:0,0:0:0:0:
297,119,56848,2,0,P|280:73|292:31,1,94,2|0,0:0|1:2,0:0:0:0:
335,11,57238,1,10,0:0:0:0:
335,11,57367,2,0,L|429:23,1,94,0|0,1:2|1:2,0:0:0:0:
472,6,57757,1,10,0:0:0:0:
499,96,58017,2,0,L|486:189,1,94,2|10,1:2|0:0,0:0:0:0:
452,220,58406,5,2,0:0:0:0:
452,220,58536,2,0,L|463:315,1,94,0|8,1:2|0:0,0:0:0:0:
384,365,59056,2,0,P|340:379|294:360,1,94,2|10,1:2|0:0,0:0:0:0:
266,326,59445,2,0,P|221:307|176:321,1,94,2|0,0:0|0:0,0:0:0:0:
148,355,59835,1,8,0:0:0:0:
64,310,60095,2,0,L|56:262,1,47,2|0,1:2|1:2,0:0:0:0:
86,227,60355,1,10,0:0:0:0:
22,158,60614,6,0,P|5:118|16:70,1,94,2|8,1:2|0:0,0:0:0:0:
44,32,61004,2,0,P|84:15|132:26,1,94,2|0,0:0|1:2,0:0:0:0:
164,60,61393,1,10,0:0:0:0:
164,60,61523,2,0,P|210:66|253:47,1,94,0|0,1:2|1:2,0:0:0:0:
288,17,61913,1,10,0:0:0:0:
360,77,62173,2,0,L|369:126,1,47,0|0,1:2|1:2,0:0:0:0:
349,166,62432,1,10,0:0:0:0:
271,218,62692,6,0,P|257:260|274:309,1,94,2|8,1:2|0:0,0:0:0:0:
349,359,63212,1,0,1:2:0:0:
431,314,63471,2,0,L|477:304,1,47,10|2,0:0|0:0,0:0:0:0:
498,262,63731,2,0,P|508:215|489:171,1,94,2|10,1:2|0:0,0:0:0:0:
437,95,64251,2,0,L|419:-1,1,94,2|10,1:2|0:0,0:0:0:0:
325,5,64770,6,0,B|317:44|317:44|319:55|319:55|314:97,1,94,6|8,1:2|0:0,0:0:0:0:
326,143,65160,1,2,0:0:0:0:
326,143,65290,2,0,B|281:155|281:155|238:137,1,94,6|8,1:2|0:0,0:0:0:0:
194,117,65679,1,4,1:2:0:0:
116,168,65939,1,0,1:2:0:0:
116,168,66069,2,0,B|97:208|97:208|118:254,1,94,10|10,0:0|0:0,0:0:0:0:
191,311,66588,2,0,L|180:359,1,47,10|8,0:0|0:0,0:0:0:0:
134,368,66848,6,0,P|90:380|48:353,1,94,6|10,1:0|0:0,0:0:0:0:
10,271,67367,2,0,L|21:177,1,94,2|10,1:2|0:0,0:0:0:0:
49,140,67757,2,0,L|38:46,1,94,2|2,0:0|0:0,0:0:0:0:
67,9,68147,1,10,0:0:0:0:
160,12,68406,1,2,1:2:0:0:
160,106,68666,2,0,L|206:100,1,47,8|0,0:0|0:0,0:0:0:0:
239,133,68926,6,0,P|282:145|326:126,1,94,2|10,1:2|0:0,0:0:0:0:
387,56,69445,2,0,P|427:38|475:51,1,94,2|10,1:2|0:0,0:0:0:0:
501,89,69835,2,0,L|490:184,1,94,2|2,0:0|0:0,0:0:0:0:
452,210,70225,1,10,0:0:0:0:
493,293,70484,1,2,1:2:0:0:
438,358,70744,2,0,P|414:364|391:355,1,47,8|0,0:0|0:0,0:0:0:0:
362,320,71004,6,0,L|268:309,1,94,2|10,1:2|0:0,0:0:0:0:
244,218,71523,2,0,L|338:206,1,94,2|10,1:2|0:0,0:0:0:0:
376,179,71913,2,0,P|394:141|373:84,1,94,2|2,0:0|0:0,0:0:0:0:
346,60,72303,1,10,0:0:0:0:
260,20,72562,1,2,1:2:0:0:
182,73,72822,1,10,0:0:0:0:
102,22,73082,6,0,P|63:4|10:27,1,94,2|8,1:2|0:0,0:0:0:0:
6,65,73471,2,0,L|25:167,1,94,2|0,0:0|1:2,0:0:0:0:
4,201,73861,1,10,0:0:0:0:
4,201,73991,2,0,P|-3:243|23:288,1,94,0|0,1:2|1:2,0:0:0:0:
64,305,74380,1,10,0:0:0:0:
143,255,74640,1,2,1:2:0:0:
218,311,74900,2,0,L|265:319,1,47,10|2,0:0|0:0,0:0:0:0:
301,289,75160,6,0,P|320:251|306:198,1,94,0|8,1:2|0:0,0:0:0:0:
253,126,75679,2,0,P|240:81|261:32,1,94,2|10,1:2|0:0,0:0:0:0:
298,16,76069,2,0,L|396:35,1,94,2|0,0:0|0:0,0:0:0:0:
436,26,76458,1,8,0:0:0:0:
484,106,76718,1,2,1:2:0:0:
423,177,76978,1,10,0:0:0:0:
467,259,77238,6,0,L|449:352,1,94,2|8,1:2|0:0,0:0:0:0:
407,372,77627,2,0,P|365:383|320:358,1,94,2|0,0:0|1:2,0:0:0:0:
288,327,78017,1,10,0:0:0:0:
288,327,78147,2,0,P|249:310|198:326,1,94,0|0,1:2|1:2,0:0:0:0:
167,356,78536,1,10,0:0:0:0:
90,301,78796,1,2,1:2:0:0:
142,222,79056,1,10,0:0:0:0:
68,162,79316,6,0,L|50:69,1,94,2|10,1:2|0:0,0:0:0:0:
139,38,79835,2,0,L|155:131,1,94,0|8,1:2|0:0,0:0:0:0:
194,158,80225,2,0,P|240:167|280:146,1,94,0|0,1:2|1:2,0:0:0:0:
308,107,80614,1,10,0:0:0:0:
352,24,80874,1,2,1:2:0:0:
446,26,81134,1,10,0:0:0:0:
495,105,81393,6,0,B|498:126|510:146|510:146|498:163|492:190,1,94,6|0,1:2|0:0,0:0:0:0:
467,231,81783,2,0,B|446:240|432:258|432:258|411:251|384:255,1,94,4|0,1:2|0:0,0:0:0:0:
343,230,82173,2,0,B|327:214|304:205|304:205|305:184|294:158,1,94,4|2,1:2|0:0,0:0:0:0:
298,112,82562,2,0,B|307:92|308:68|308:68|328:62|349:43,1,94,4|0,1:2|0:0,0:0:0:0:
392,23,82952,1,14,1:2:0:0:
496,156,83471,6,0,L|481:245,1,84.599997418213,2|2,1:2|0:0,0:0:0:0:
418,294,83991,1,2,0:0:0:0:
418,294,84121,2,0,P|374:304|333:288,1,84.599997418213,2|2,0:0|0:0,0:0:0:0:
300,270,84510,2,0,B|275:267|258:256|258:256|239:265|215:267,1,84.599997418213,6|8,1:2|0:0,0:0:0:0:
142,301,85030,1,12,3:2:0:0:
25,178,85549,6,0,P|0:109|29:59,1,126.899996127319,4|0,1:2|1:2,0:0:0:0:
58,42,86069,2,0,L|148:60,1,84.599997418213,8|8,1:0|1:0,0:0:0:0:
227,159,86718,1,0,1:2:0:0:
227,159,86848,2,0,L|137:177,1,84.599997418213,8|8,1:0|1:0,0:0:0:0:
103,250,87367,1,8,1:0:0:0:
140,325,87627,6,0,P|184:355|271:313,1,126.899996127319,10|2,1:0|1:2,0:0:0:0:
284,310,88147,1,8,1:0:0:0:
335,242,88406,2,0,L|308:108,1,126.899996127319,10|2,1:0|1:2,0:0:0:0:
299,76,88926,1,8,1:0:0:0:
223,36,89186,2,0,B|213:12|191:12|191:12|195:35|217:41,1,84.599997418213,10|0,1:0|0:0,0:0:0:0:
