osu file format v14

[General]
AudioFilename: audio.mp3
AudioLeadIn: 0
PreviewTime: 49380
Countdown: 0
SampleSet: Soft
StackLeniency: 0.7
Mode: 0
LetterboxInBreaks: 0
WidescreenStoryboard: 1

[Editor]
DistanceSpacing: 4.8
BeatDivisor: 4
GridSize: 32
TimelineZoom: 2.4

[Metadata]
Title:Glorious Days (TV Size)
TitleUnicode:Glorious Days (TV Size)
Artist:9-tie
ArtistUnicode:9-tie
Creator:Soue
Version:Insane
Source:SELECTION PROJECT
Tags:セレクションプロジェクト Japanese TV Anime Opening OP Intro One 1 First 1st Female Idol Idols Vocals 美山 鈴音 Suzune Miyama 花野井 玲那 Rena Hananoi 今鵜 凪咲 Nagisa Imau 小泉 詩 Uta Koizumi 当麻 まこ Mako Toma 八木 野土香 Nodoka Yagi 山鹿 栞 Shiori Yamaga 濱栗 広海 Hiromi Hamaguri 淀川 逢生 Ao Yadogawa j pop jpop j-pop
BeatmapID:3372305
BeatmapSetID:1651373

[Difficulty]
HPDrainRate:5.4
CircleSize:3.8
OverallDifficulty:8
ApproachRate:8.8
SliderMultiplier:1.44
SliderTickRate:1

[Events]
//Background and Video events
0,0,"background.jpg",0,0
Video,179,"video.mp4"
//Break Periods
//Storyboard Layer 0 (Background)
//Storyboard Layer 1 (Fail)
//Storyboard Layer 2 (Pass)
//Storyboard Layer 3 (Foreground)
//Storyboard Layer 4 (Overlay)
//Storyboard Sound Samples

[TimingPoints]
355,259.74025974026,4,2,1,60,1,0
355,-166.666666666667,4,2,1,60,0,0
12822,-142.857142857143,4,2,1,60,0,0
15939,-200,4,2,1,60,0,0
16329,-250.000000000001,4,2,1,60,0,0
16718,-285.714285714286,4,2,1,60,0,0
16848,-333.333333333333,4,2,1,60,0,0
16978,-166.666666666666,4,2,1,50,0,0
24251,-153.846153846154,4,2,1,50,0,0
24510,-153.846153846154,4,2,2,50,0,0
24770,-181.818181818182,4,2,2,50,0,0
24900,-181.818181818182,4,2,1,50,0,0
25290,-166.666666666666,4,2,1,50,0,0
31523,-181.818181818182,4,2,1,50,0,0
31783,-200,4,2,1,50,0,0
32043,-222.222222222222,4,2,1,50,0,0
32303,-250,4,2,1,50,0,0
32562,-333.333333333333,4,2,1,50,0,0
33082,-500,4,2,1,50,0,0
33601,-249.999999999999,4,2,1,50,0,0
41913,-166.666666666667,4,2,1,50,0,0
46069,-142.857142857143,4,2,1,60,0,0
48147,-125,4,2,1,60,0,0
49186,-250.000000000001,4,2,1,40,0,0
49705,-100,4,2,2,60,0,0
49770,-100,4,2,1,60,0,0
49965,-250.000000000001,4,2,1,60,0,0
50160,-250.000000000001,4,2,1,5,0,0
50225,-83.3333333333333,4,2,1,80,0,1
50419,-83.3333333333333,4,2,1,5,0,1
50484,-83.3333333333333,4,2,1,80,0,1
50939,-83.3333333333333,4,2,1,5,0,1
51004,-83.3333333333333,4,2,1,80,0,1
51978,-83.3333333333333,4,2,1,5,0,1
52043,-83.3333333333333,4,2,1,80,0,1
52497,-83.3333333333333,4,2,1,5,0,1
52562,-83.3333333333333,4,2,1,80,0,1
53017,-83.3333333333333,4,2,1,5,0,1
53082,-83.3333333333333,4,2,1,80,0,1
54056,-83.3333333333333,4,2,1,5,0,1
54121,-83.3333333333333,4,2,1,80,0,1
54575,-83.3333333333333,4,2,1,5,0,1
54640,-83.3333333333333,4,2,1,80,0,1
58731,-83.3333333333333,4,2,1,5,0,1
58796,-83.3333333333333,4,2,1,80,0,1
59251,-83.3333333333333,4,2,1,5,0,1
59316,-83.3333333333333,4,2,1,80,0,1
60549,-83.3333333333333,4,2,1,5,0,1
60614,-83.3333333333333,4,2,1,80,0,1
62627,-83.3333333333333,4,2,1,5,0,1
62692,-83.3333333333333,4,2,1,80,0,1
64770,-80,4,2,1,80,0,1
65290,-76.9230769230769,4,2,1,80,0,1
65679,-90.9090909090909,4,2,1,80,0,1
66069,-99.9999999999999,4,2,1,80,0,1
66329,-111.111111111111,4,2,1,80,0,1
66588,-125,4,2,1,80,0,1
66783,-125,4,2,1,80,0,0
66848,-83.3333333333333,4,2,1,80,0,1
67043,-83.3333333333333,4,2,1,5,0,1
67108,-83.3333333333333,4,2,1,80,0,1
67562,-83.3333333333333,4,2,1,5,0,1
67627,-83.3333333333333,4,2,1,80,0,1
68601,-83.3333333333333,4,2,1,5,0,1
68666,-83.3333333333333,4,2,1,80,0,1
69121,-83.3333333333333,4,2,1,5,0,1
69186,-83.3333333333333,4,2,1,80,0,1
70030,-83.3333333333333,4,2,1,5,0,1
70095,-83.3333333333333,4,2,1,80,0,1
70679,-83.3333333333333,4,2,1,5,0,1
70744,-83.3333333333333,4,2,1,80,0,1
71199,-83.3333333333333,4,2,1,5,0,1
71264,-83.3333333333333,4,2,1,80,0,1
71718,-83.3333333333333,4,2,1,5,0,1
71783,-83.3333333333333,4,2,1,80,0,1
75355,-83.3333333333333,4,2,1,5,0,1
75419,-83.3333333333333,4,2,1,80,0,1
75874,-83.3333333333333,4,2,1,5,0,1
75939,-83.3333333333333,4,2,1,80,0,1
77173,-83.3333333333333,4,2,1,5,0,1
77238,-83.3333333333333,4,2,1,80,0,1
81393,-76.9230769230769,4,2,1,80,0,1
81653,-99.9999999999999,4,2,1,80,0,1
81783,-76.9230769230769,4,2,1,80,0,1
82043,-99.9999999999999,4,2,1,80,0,1
82173,-76.9230769230769,4,2,1,80,0,1
82432,-99.9999999999999,4,2,1,80,0,1
82562,-76.9230769230769,4,2,1,80,0,1
82822,-99.9999999999999,4,2,1,80,0,1
82952,-90.9090909090909,4,2,1,80,0,1
83212,-95.2380952380952,4,2,1,80,0,1
83342,-100,4,2,1,80,0,1
83471,-125,4,2,1,60,0,0
84510,-166.666666666667,4,2,1,60,0,0
84705,-166.666666666667,4,2,1,5,0,0
84770,-166.666666666667,4,2,2,60,0,0
85030,-250,4,2,2,60,0,0
85095,-250,4,2,1,50,0,0
85484,-250,4,2,1,50,0,0
85549,-166.666666666667,4,2,1,50,0,0
89445,-166.666666666666,4,2,1,5,0,0

[Colours]
Combo1 : 128,255,214
Combo2 : 40,148,255
Combo3 : 255,179,255
Combo4 : 128,255,201
Combo5 : 201,119,255
Combo6 : 255,128,128
Combo7 : 255,255,128
Combo8 : 255,179,198

[HitObjects]
438,348,355,6,0,P|462:298|428:232,1,129.599996044922,4|0,1:2|3:2,0:0:0:0:
360,198,874,1,0,3:2:0:0:
347,192,1134,6,0,L|335:139,1,43.1999986816407,2|0,0:0|0:0,0:0:0:0:
248,124,1393,2,0,L|269:221,1,86.3999973632813,2|2,0:0|0:0,0:0:0:0:
193,256,1783,2,0,L|173:171,1,86.3999973632813,2|0,0:0|0:0,0:0:0:0:
79,66,2173,1,2,0:0:0:0:
79,66,2303,1,2,0:0:0:0:
13,120,2432,6,0,P|52:147|93:147,1,86.3999973632813,2|2,0:0|0:0,0:0:0:0:
185,73,2822,2,0,P|224:46|265:46,1,86.3999973632813,2|2,0:0|0:0,0:0:0:0:
442,152,3342,5,2,0:0:0:0:
432,73,3471,2,0,P|409:77|391:91,1,43.1999986816407,2|0,0:0|0:0,0:0:0:0:
319,112,3731,2,0,P|310:133|314:156,1,43.1999986816407,2|0,0:0|0:0,0:0:0:0:
281,226,3991,2,0,P|295:243|317:252,1,43.1999986816407,2|0,0:0|0:0,0:0:0:0:
369,315,4251,2,0,P|392:311|410:297,1,43.1999986816407,2|0,0:0|0:0,0:0:0:0:
480,241,4510,6,0,L|510:376,1,129.599996044922,0|0,1:2|1:2,0:0:0:0:
508,367,5290,6,0,L|458:356,1,43.1999986816407,2|0,0:0|0:0,0:0:0:0:
407,299,5549,2,0,L|322:317,1,86.3999973632813,2|2,0:0|0:0,0:0:0:0:
255,372,5939,2,0,P|217:384|170:365,1,86.3999973632813,2|0,0:0|0:0,0:0:0:0:
126,232,6329,1,2,0:0:0:0:
126,232,6458,1,2,0:0:0:0:
220,185,6588,6,0,L|201:269,1,86.3999973632813,2|2,0:0|0:0,0:0:0:0:
111,315,6978,2,0,L|68:324,1,43.1999986816407,2|0,0:0|0:0,0:0:0:0:
1,210,7238,2,0,L|43:219,1,43.1999986816407,2|0,0:0|0:0,0:0:0:0:
137,147,7497,1,2,0:0:0:0:
31,73,7627,6,0,P|61:85|84:83,1,43.1999986816407,2|0,0:0|0:0,0:0:0:0:
138,32,7887,2,0,P|168:20|191:22,1,43.1999986816407,2|0,0:0|0:0,0:0:0:0:
241,83,8147,2,0,P|271:95|294:93,1,43.1999986816407,2|0,0:0|0:0,0:0:0:0:
373,28,8406,1,2,0:0:0:0:
373,28,8536,1,0,0:0:0:0:
479,109,8666,6,0,B|504:153|504:153|477:240,1,129.599996044922,0|0,1:2|0:0,0:0:0:0:
446,311,9186,1,0,1:2:0:0:
439,328,9445,6,0,P|420:337|400:331,1,43.1999986816407,2|0,0:0|0:0,0:0:0:0:
342,262,9705,2,0,L|365:178,1,86.3999973632813,2|2,1:2|0:0,0:0:0:0:
271,180,10095,2,0,L|247:263,1,86.3999973632813,2|0,0:0|3:2,0:0:0:0:
235,272,10419,1,0,3:2:0:0:
223,281,10484,2,0,P|198:291|180:286,1,43.1999986816407,2|2,3:2|0:0,0:0:0:0:
109,319,10744,6,0,P|85:283|94:234,1,86.3999973632813,2|2,1:2|0:0,0:0:0:0:
125,169,11134,2,0,L|101:85,1,86.3999973632813,2|2,0:0|0:0,0:0:0:0:
12,233,11653,5,2,0:0:0:0:
67,307,11783,2,0,L|108:318,1,43.1999986816407,2|0,1:2|0:0,0:0:0:0:
186,377,12043,2,0,L|227:366,1,43.1999986816407,2|0,0:0|0:0,0:0:0:0:
301,301,12303,2,0,L|342:312,1,43.1999986816407,2|0,1:2|3:2,0:0:0:0:
356,325,12497,1,0,3:2:0:0:
367,337,12562,2,0,P|391:346|410:342,1,43.1999986816407,2|0,3:2|0:0,0:0:0:0:
476,257,12822,6,0,L|462:206,1,50.3999984619141,0|0,1:2|0:0,0:0:0:0:
441,135,13082,2,0,L|427:84,1,50.3999984619141,0|0,1:2|0:0,0:0:0:0:
310,15,13342,6,0,L|296:65,1,50.3999984619141,0|0,1:2|0:0,0:0:0:0:
275,137,13602,2,0,L|261:187,1,50.3999984619141,2|0,1:2|0:0,0:0:0:0:
189,274,13861,6,0,P|145:284|100:247,1,100.799996923828,2|2,1:2|1:2,0:0:0:0:
78,163,14251,2,0,L|175:189,1,100.799996923828,2|0,0:0|0:0,0:0:0:0:
237,70,14640,2,0,L|188:83,1,50.3999984619141,2|0,1:2|0:0,0:0:0:0:
63,6,14900,5,2,1:2:0:0:
94,81,15030,1,0,1:2:0:0:
54,174,15160,5,2,1:2:0:0:
23,249,15290,1,2,1:2:0:0:
63,343,15419,6,0,L|87:349,3,25.1999992309571,0|0|2|0,1:2|1:2|1:2|1:2,0:0:0:0:
113,330,15679,2,0,L|137:323,3,25.1999992309571,0|0|2|0,1:2|1:2|1:2|1:2,0:0:0:0:
158,340,15939,6,0,B|201:348|201:348|213:362|213:362|260:372,1,108,2|8,1:2|0:3,0:0:0:0:
257,371,16718,5,4,0:3:0:0:
257,371,16848,1,4,0:3:0:0:
383,327,16978,6,0,P|406:280|375:215,1,129.599996044922,4|0,1:2|1:2,0:0:0:0:
302,176,17497,1,8,0:1:0:0:
289,165,17757,6,0,L|297:115,1,43.1999986816407,10|2,1:0|0:0,0:0:0:0:
215,66,18017,2,0,L|200:153,1,86.3999973632813,10|10,0:1|0:1,0:0:0:0:
114,206,18406,1,2,0:0:0:0:
164,289,18536,2,0,L|214:297,1,43.1999986816407,10|0,0:1|1:2,0:0:0:0:
86,355,18796,1,10,1:0:0:0:
86,355,18926,1,0,1:2:0:0:
16,298,19056,2,0,P|7:262|32:215,1,86.3999973632813,8|8,1:0|0:1,0:0:0:0:
101,175,19445,1,0,1:2:0:0:
230,224,19575,1,8,0:1:0:0:
242,235,19835,6,0,L|292:227,1,43.1999986816407,10|2,1:0|0:0,0:0:0:0:
340,295,20095,2,0,L|431:309,1,86.3999973632813,10|10,0:1|0:1,0:0:0:0:
491,248,20484,1,2,0:0:0:0:
491,248,20614,2,0,P|498:224|494:202,1,43.1999986816407,10|0,0:1|1:2,0:0:0:0:
394,105,20874,1,10,1:0:0:0:
394,105,21004,1,0,1:2:0:0:
344,169,21134,6,0,B|362:188|384:194|384:194|405:183|430:186,1,86.3999973632813,8|8,1:0|0:1,0:0:0:0:
478,123,21523,1,0,1:2:0:0:
422,20,21653,1,8,0:1:0:0:
411,6,21913,6,0,L|368:12,1,43.1999986816407,10|2,1:0|0:0,0:0:0:0:
302,66,22173,2,0,L|216:52,1,86.3999973632813,10|8,0:1|0:1,0:0:0:0:
150,3,22562,2,0,L|64:16,1,86.3999973632813,2|0,0:0|1:2,0:0:0:0:
8,151,22952,6,0,L|50:157,1,43.1999986816407,10|2,1:0|1:2,0:0:0:0:
117,211,23212,2,0,L|202:197,1,86.3999973632813,10|8,1:0|0:1,0:0:0:0:
269,148,23601,2,0,L|354:161,1,86.3999973632813,2|0,1:2|0:0,0:0:0:0:
421,234,23991,1,10,1:0:0:0:
433,248,24251,6,0,P|442:240|442:228,2,23.3999989288331,10|0|0,3:1|3:2|1:2,0:0:0:0:
377,334,24510,1,10,3:2:0:0:
377,334,24640,1,8,1:2:0:0:
293,284,24770,2,0,B|288:274|273:278|273:278|281:291|293:290,1,39.6000012084961,2|0,3:1|3:1,0:0:0:0:
221,364,25030,2,0,B|216:374|201:370|201:370|209:357|221:358,1,39.6000012084961,2|0,3:1|3:1,0:0:0:0:
84,304,25290,6,0,P|58:256|83:189,1,129.599996044922,4|0,1:2|1:2,0:0:0:0:
154,146,25809,1,8,0:1:0:0:
167,140,26069,6,0,L|211:150,1,43.1999986816407,10|2,1:0|0:0,0:0:0:0:
291,201,26329,2,0,L|379:180,1,86.3999973632813,10|10,0:1|0:1,0:0:0:0:
455,221,26718,1,2,0:0:0:0:
509,118,26848,2,0,L|464:107,1,43.1999986816407,10|0,0:1|1:2,0:0:0:0:
313,66,27108,1,10,1:0:0:0:
313,66,27238,1,0,1:2:0:0:
376,14,27367,6,0,B|395:32|401:54|401:54|390:75|393:100,1,86.3999973632813,8|8,1:0|0:1,0:0:0:0:
357,167,27757,1,0,1:2:0:0:
236,85,27887,1,8,0:1:0:0:
223,74,28147,6,0,L|178:84,1,43.1999986816407,10|0,1:0|0:0,0:0:0:0:
104,36,28406,2,0,P|65:49|45:91,1,86.3999973632813,10|10,0:1|0:1,0:0:0:0:
85,167,28796,1,2,0:0:0:0:
85,167,28926,2,0,L|94:209,1,43.1999986816407,10|0,0:1|1:2,0:0:0:0:
64,370,29186,1,10,1:1:0:0:
64,370,29315,1,0,1:2:0:0:
9,304,29445,6,0,B|27:285|49:279|49:279|70:290|95:287,1,86.3999973632813,10|10,1:0|0:1,0:0:0:0:
153,341,29835,1,0,1:2:0:0:
298,259,29965,2,0,L|256:250,1,43.1999986816407,10|0,0:1|0:0,0:0:0:0:
170,227,30225,1,8,1:0:0:0:
272,342,30355,2,0,P|316:351|362:322,1,86.3999973632813,2|0,0:0|1:2,0:0:0:0:
391,249,30744,2,0,L|372:162,1,86.3999973632813,8|8,0:1|0:1,0:0:0:0:
424,89,31134,1,0,1:2:0:0:
424,89,31264,2,0,L|467:79,1,43.1999986816407,10|0,1:0|1:2,0:0:0:0:
342,23,31523,6,0,L|322:18,2,19.8000006042481,10|0|0,1:0|3:0|3:0,0:0:0:0:
241,88,31783,2,0,L|223:91,2,18,10|0|0,3:1|3:0|1:0,0:0:0:0:
160,27,32043,2,0,L|144:23,2,16.1999995056152,10|0|0,3:1|3:0|3:0,0:0:0:0:
89,79,32303,2,0,L|74:82,2,14.4,10|0|0,1:0|3:0|3:0,0:0:0:0:
14,158,32562,5,2,3:2:0:0:
14,158,32692,2,0,P|6:169|10:194,1,35.9999989013672,0|2,3:2|3:2,0:0:0:0:
56,259,33082,6,0,L|49:277,2,19.2,10|8|4,0:3|0:3|0:3,0:0:0:0:
139,200,33601,6,0,P|182:197|221:253,1,115.2,4|8,1:2|0:1,0:0:0:0:
316,328,34380,6,0,L|355:320,1,28.8,2|2,0:0|0:0,0:0:0:0:
422,305,34640,2,0,P|430:276|420:242,1,57.6,2|2,0:0|0:0,0:0:0:0:
365,192,35030,1,2,0:0:0:0:
365,192,35160,2,0,L|353:135,1,57.6,10|2,0:1|0:0,0:0:0:0:
376,180,35679,6,0,L|364:123,2,57.6,0|0|8,0:0|0:0|0:1,0:0:0:0:
387,138,36458,6,0,L|381:109,1,28.8,2|0,0:0|0:0,0:0:0:0:
318,62,36718,2,0,P|287:52|254:66,1,57.6,2|2,0:0|0:0,0:0:0:0:
202,111,37108,1,2,0:0:0:0:
202,111,37238,2,0,P|171:121|138:107,1,57.6,10|2,0:1|0:0,0:0:0:0:
148,141,37757,6,0,P|123:119|119:83,2,57.6,0|0|8,0:0|0:0|0:1,0:0:0:0:
94,97,38536,6,0,P|97:81|111:70,1,28.8,2|2,0:0|0:0,0:0:0:0:
168,22,38796,1,2,0:0:0:0:
283,83,39056,1,2,0:0:0:0:
397,14,39316,1,10,0:1:0:0:
512,69,39575,1,2,0:0:0:0:
406,203,39835,6,0,P|376:212|346:203,1,57.6,2|0,0:0|0:0,0:0:0:0:
286,138,40355,2,0,P|277:108|286:78,1,57.6,10|0,0:1|0:0,0:0:0:0:
343,17,40874,2,0,P|373:8|403:17,1,57.6,2|0,0:0|0:0,0:0:0:0:
468,83,41393,2,0,P|477:113|468:143,1,57.6,10|0,0:1|0:0,0:0:0:0:
406,203,41913,6,0,L|424:295,1,86.3999973632813,4|8,1:2|0:0,0:0:0:0:
439,368,42303,1,8,0:0:0:0:
320,199,42432,6,0,L|338:291,1,86.3999973632813,0|10,1:2|0:0,0:0:0:0:
353,364,42822,1,10,0:0:0:0:
234,193,42952,6,0,L|252:285,1,86.3999973632813,2|10,1:2|0:0,0:0:0:0:
267,358,43342,1,10,0:0:0:0:
149,188,43471,6,0,L|157:230,1,43.1999986816407,2|0,1:2|0:0,0:0:0:0:
182,353,43731,2,0,L|170:293,1,43.1999986816407,10|8,0:0|0:0,0:0:0:0:
63,184,43991,6,0,L|45:92,1,86.3999973632813,0|8,1:2|0:0,0:0:0:0:
30,19,44381,1,8,0:0:0:0:
149,188,44510,6,0,L|131:96,1,86.3999973632813,0|10,1:2|0:0,0:0:0:0:
116,23,44900,1,10,0:0:0:0:
235,194,45030,6,0,L|217:102,1,86.3999973632813,2|10,1:2|0:0,0:0:0:0:
202,29,45420,1,10,0:0:0:0:
320,199,45549,6,0,L|311:153,1,43.1999986816407,2|0,1:2|0:0,0:0:0:0:
287,34,45809,2,0,L|298:93,1,43.1999986816407,10|8,0:0|0:0,0:0:0:0:
407,225,46069,6,0,P|393:255|376:270,1,50.3999984619141,6|0,1:2|0:0,0:0:0:0:
316,328,46329,2,0,P|297:300|292:278,1,50.3999984619141,2|0,1:2|0:0,0:0:0:0:
270,197,46588,2,0,P|302:194|324:201,1,50.3999984619141,2|0,1:2|0:0,0:0:0:0:
176,335,46848,5,2,1:2:0:0:
176,335,46978,2,0,L|123:349,1,50.3999984619141,2|4,0:0|1:2,0:0:0:0:
96,274,47238,2,0,L|148:259,1,50.3999984619141,2|0,0:0|1:2,0:0:0:0:
222,124,47497,5,2,0:0:0:0:
222,124,47627,2,0,B|231:100|231:100|218:74,1,50.3999984619141,6|0,1:2|0:0,0:0:0:0:
139,86,47887,2,0,B|130:110|130:110|143:136,1,50.3999984619141,2|0,1:2|0:0,0:0:0:0:
220,256,48147,5,6,1:2:0:0:
297,287,48277,1,0,1:2:0:0:
378,208,48406,5,4,1:2:0:0:
455,177,48536,1,0,1:2:0:0:
496,59,48666,6,0,L|463:49,3,28.8,0|0|0|0,1:2|1:2|1:2|1:2,0:0:0:0:
444,25,48926,2,0,L|411:35,3,28.8,0|0|0|0,1:2|1:2|1:2|1:2,0:0:0:0:
395,58,49186,1,2,1:2:0:0:
296,165,49445,5,2,0:0:0:0:
286,174,49705,5,10,0:0:0:0:
259,172,49769,1,8,0:3:0:0:
237,157,49834,1,4,0:3:0:0:
227,132,49899,1,4,0:3:0:0:
233,106,49965,2,0,P|253:93|275:98,1,43.2,6|0,1:2|0:0,0:0:0:0:
364,131,50225,6,0,B|322:136|313:169|331:172|321:213|279:215,1,129.599996044922,6|0,1:0|0:0,0:0:0:0:
261,247,50484,2,0,P|215:248|184:220,1,86.3999973632813,10|0,0:0|0:0,0:0:0:0:
5,171,50744,2,0,B|61:156|61:156|73:133|73:133|123:118,1,129.599996044922,2|0,1:2|0:0,0:0:0:0:
144,135,51004,1,10,0:0:0:0:
280,12,51134,6,0,B|258:-15|258:-15|189:36|234:108,1,172.799994726563,2|2,0:0|0:0,0:0:0:0:
413,157,51523,2,0,P|356:119|326:122,1,86.3999973632813,10|0,0:0|0:0,0:0:0:0:
192,289,51783,2,0,P|270:250|281:213,1,129.599996044922,2|0,1:2|0:0,0:0:0:0:
306,201,52043,6,0,B|332:198|346:220|346:220|351:242|380:257,1,86.3999973632813,8|0,0:0|0:0,0:0:0:0:
144,135,52303,6,0,B|102:128|84:157|100:165|80:201|39:192,1,129.599996044922,2|0,1:2|0:0,0:0:0:0:
15,179,52562,2,0,P|-2:136|23:102,1,86.3999973632813,10|0,0:0|0:0,0:0:0:0:
169,281,52822,2,0,B|220:299|220:299|233:322|233:322|283:339,1,129.599996044922,2|0,1:2|0:0,0:0:0:0:
310,326,53082,1,10,0:0:0:0:
445,241,53212,6,0,P|471:190|407:95,1,172.799994726563,2|2,0:0|0:0,0:0:0:0:
219,189,53601,2,0,L|308:221,1,86.3999973632813,10|0,0:0|0:0,0:0:0:0:
511,301,53861,2,0,L|382:347,1,129.599996044922,2|0,1:2|0:0,0:0:0:0:
373,375,54121,6,0,B|347:378|333:356|333:356|328:334|299:319,1,86.3999973632813,8|0,0:0|0:0,0:0:0:0:
115,369,54380,6,0,P|162:325|151:261,1,129.599996044922,2|0,1:2|0:0,0:0:0:0:
132,242,54640,2,0,L|44:264,1,86.3999973632813,10|0,0:0|0:0,0:0:0:0:
183,105,54900,2,0,B|189:80|158:55|158:55|95:103|143:163,1,172.799994726563,2|10,1:2|0:0,0:0:0:0:
242,291,55290,6,0,L|325:311,1,86.3999973632813,2|0,0:0|1:2,0:0:0:0:
453,192,55549,1,2,0:0:0:0:
384,141,55679,2,0,P|363:186|372:226,1,86.3999973632813,10|0,0:0|0:0,0:0:0:0:
497,337,55939,2,0,P|518:292|509:252,1,86.3999973632813,2|0,1:2|1:2,0:0:0:0:
373,373,56199,1,10,0:0:0:0:
358,380,56458,6,0,B|295:364|295:364|278:332|278:332|196:310,1,172.799994726563,2|8,1:2|0:0,0:0:0:0:
54,213,56848,2,0,B|123:194|123:194|140:162|140:162|203:146,1,172.799994726563,2|0,0:0|1:2,0:0:0:0:
398,36,57238,1,10,0:0:0:0:
317,5,57367,2,0,B|290:53|319:97|335:76|361:123|334:175,1,172.799994726563,0|0,1:2|1:2,0:0:0:0:
202,241,57757,1,10,0:0:0:0:
192,229,58017,6,0,P|230:223|270:250,1,86.3999973632813,2|0,1:2|1:2,0:0:0:0:
470,152,58277,1,10,0:0:0:0:
396,106,58406,1,2,0:0:0:0:
339,166,58536,6,0,L|369:302,1,129.599996044922,0|0,1:2|0:0,0:0:0:0:
392,314,58796,2,0,P|430:320|470:293,1,86.3999973632813,8|0,0:0|0:0,0:0:0:0:
325,148,59056,2,0,B|285:145|266:178|284:181|268:214|226:215,1,129.599996044922,2|0,1:2|0:0,0:0:0:0:
195,200,59316,1,10,0:0:0:0:
40,368,59445,6,0,B|0:327|38:260|38:260|71:270|77:300,1,172.799994726563,2|0,0:0|0:0,0:0:0:0:
173,348,59835,2,0,P|215:346|253:319,1,86.3999973632813,8|0,0:0|0:0,0:0:0:0:
241,135,60095,2,0,P|221:172|226:218,1,86.3999973632813,2|0,1:2|1:2,0:0:0:0:
427,299,60355,2,0,P|404:263|321:245,1,129.599996044922,10|0,0:0|0:0,0:0:0:0:
305,264,60614,6,0,B|348:293|368:249|368:249|330:151,1,172.799994726563,2|8,1:2|0:0,0:0:0:0:
427,20,61004,2,0,B|470:-9|490:35|490:35|452:133,1,172.799994726563,2|0,0:0|1:2,0:0:0:0:
220,33,61393,1,10,0:0:0:0:
339,79,61523,2,0,B|278:99|278:99|261:132|261:132|194:156,1,172.799994726563,0|0,1:2|1:2,0:0:0:0:
37,124,61913,6,0,B|-10:74|34:13|34:13|67:24|77:56,1,172.799994726563,10|0,0:0|1:2,0:0:0:0:
3,221,62303,1,0,1:2:0:0:
101,264,62432,2,0,B|147:248|147:248|160:223|160:223|211:205,1,129.599996044922,10|0,0:0|0:0,0:0:0:0:
244,199,62692,6,0,P|264:236|250:283,1,86.3999973632813,2|0,1:2|0:0,0:0:0:0:
142,354,62952,2,0,L|226:375,1,86.3999973632813,8|0,0:0|0:0,0:0:0:0:
352,278,63212,2,0,L|436:257,1,86.3999973632813,0|0,1:2|1:2,0:0:0:0:
351,93,63471,5,10,0:0:0:0:
267,114,63601,1,2,0:0:0:0:
244,199,63731,2,0,L|265:283,1,86.3999973632813,2|0,1:2|0:0,0:0:0:0:
92,182,63991,2,0,L|113:98,1,86.3999973632813,10|0,0:0|0:0,0:0:0:0:
248,10,64251,2,0,L|269:94,1,86.3999973632813,2|0,1:2|1:2,0:0:0:0:
427,169,64510,1,10,0:0:0:0:
415,154,64770,6,0,B|359:149|340:205|368:205|348:258|290:263,1,180,6|8,1:2|0:0,0:0:0:0:
92,182,65160,1,2,0:0:0:0:
171,262,65290,2,0,L|193:353,1,93.5999957153322,6|0,1:2|1:2,0:0:0:0:
244,199,65549,1,8,0:0:0:0:
88,334,65679,1,4,1:2:0:0:
74,348,65939,5,0,1:2:0:0:
150,282,66069,2,0,P|189:279|213:304,1,72,10|0,0:0|0:0,0:0:0:0:
332,367,66329,5,10,0:0:0:0:
364,285,66458,1,8,0:0:0:0:
278,202,66588,5,10,0:0:0:0:
246,120,66717,1,8,0:0:0:0:
356,31,66848,6,0,B|396:27|410:66|394:69|406:103|445:108,1,129.599996044922,6|0,1:0|0:0,0:0:0:0:
480,102,67108,2,0,P|502:61|489:27,1,86.3999973632813,10|0,0:0|0:0,0:0:0:0:
332,138,67367,2,0,B|283:155|283:155|271:178|271:178|222:197,1,129.599996044922,2|0,1:2|0:0,0:0:0:0:
190,181,67627,1,10,0:0:0:0:
78,77,67757,6,0,B|69:52|108:24|108:24|161:69|129:129,1,172.799994726563,2|2,0:0|0:0,0:0:0:0:
30,264,68147,2,0,P|69:214|112:210,1,86.3999973632813,10|0,0:0|0:0,0:0:0:0:
284,273,68406,2,0,P|221:264|185:203,1,129.599996044922,2|0,1:2|0:0,0:0:0:0:
190,181,68666,6,0,B|196:155|221:149|221:149|243:152|267:130,1,86.3999973632813,8|0,0:0|0:0,0:0:0:0:
386,12,68926,6,0,L|409:144,1,129.599996044922,2|0,1:2|0:0,0:0:0:0:
428,166,69186,2,0,P|470:158|494:124,1,86.3999973632813,10|0,0:0|0:0,0:0:0:0:
291,10,69445,2,0,B|224:33|224:33|208:64|208:64|142:88,1,172.799994726563,2|10,1:2|0:0,0:0:0:0:
69,204,69835,6,0,B|122:222|122:222|135:247|135:247|188:266,1,129.599996044922,2|0,0:0|0:0,0:0:0:0:
196,286,70095,1,2,0:0:0:0:
66,373,70225,2,0,P|46:332|58:295,1,86.3999973632813,10|0,0:0|0:0,0:0:0:0:
238,185,70484,2,0,L|215:312,1,129.599996044922,2|0,1:2|0:0,0:0:0:0:
233,335,70744,6,0,B|257:328|274:349|274:349|281:370|312:381,1,86.3999973632813,8|0,0:0|0:0,0:0:0:0:
427,198,71004,6,0,B|386:202|371:162|388:159|375:124|335:119,1,129.599996044922,2|0,1:2|0:0,0:0:0:0:
303,128,71264,2,0,P|283:85|300:49,1,86.3999973632813,10|0,0:0|0:0,0:0:0:0:
486,138,71523,2,0,L|457:269,1,129.599996044922,2|0,1:2|0:0,0:0:0:0:
482,295,71783,1,10,0:0:0:0:
378,370,71913,6,0,B|313:350|313:350|300:318|300:318|220:291,1,172.799994726563,2|2,0:0|0:0,0:0:0:0:
123,130,72303,2,0,L|211:112,1,86.3999973632813,10|0,0:0|0:0,0:0:0:0:
87,246,72562,2,0,L|2:228,1,86.3999973632813,2|0,1:2|1:2,0:0:0:0:
144,356,72822,1,10,0:0:0:0:
155,367,73082,6,0,B|201:399|224:346|224:346|186:252,1,172.799994726563,2|8,1:2|0:0,0:0:0:0:
38,192,73471,2,0,B|11:189|-12:219|-12:219|31:278|94:241,1,172.799994726563,2|0,0:0|1:2,0:0:0:0:
207,112,73861,1,10,0:0:0:0:
146,38,73991,6,0,B|202:27|229:75|205:83|230:130|290:123,1,172.799994726563,0|0,1:2|1:2,0:0:0:0:
414,97,74380,2,0,P|428:54|411:18,1,86.3999973632813,10|0,0:0|0:0,0:0:0:0:
354,196,74640,2,0,L|377:289,1,86.3999973632813,2|0,1:2|1:2,0:0:0:0:
249,380,74900,1,10,0:0:0:0:
194,317,75030,1,2,0:0:0:0:
248,249,75160,6,0,L|280:117,1,129.599996044922,0|0,1:2|0:0,0:0:0:0:
289,93,75419,2,0,P|253:69|212:73,1,86.3999973632813,8|0,0:0|0:0,0:0:0:0:
60,12,75679,2,0,L|91:138,1,129.599996044922,2|0,1:2|0:0,0:0:0:0:
70,165,75939,1,10,0:0:0:0:
18,302,76069,6,0,B|88:287|88:287|108:254|108:254|177:240,1,172.799994726563,2|0,0:0|0:0,0:0:0:0:
341,345,76458,2,0,P|319:303|327:260,1,86.3999973632813,8|0,0:0|0:0,0:0:0:0:
233,134,76718,2,0,P|280:135|313:164,1,86.3999973632813,2|0,1:2|1:2,0:0:0:0:
490,131,76978,2,0,P|461:193|396:207,1,129.599996044922,10|0,0:0|0:0,0:0:0:0:
383,183,77238,6,0,B|399:115|399:115|389:82|389:82|405:13,1,172.799994726563,2|8,1:2|0:0,0:0:0:0:
260,113,77627,2,0,B|275:179|275:179|265:212|265:212|281:280,1,172.799994726563,2|0,0:0|1:2,0:0:0:0:
443,370,78017,1,10,0:0:0:0:
422,280,78147,2,0,B|370:276|345:322|367:323|342:372|280:365,1,172.799994726563,0|0,1:2|1:2,0:0:0:0:
193,271,78536,6,0,P|175:234|187:186,1,86.3999973632813,10|0,0:0|0:0,0:0:0:0:
325,65,78796,2,0,P|301:99|254:112,1,86.3999973632813,2|0,1:2|1:2,0:0:0:0:
84,59,79056,2,0,P|125:61|160:96,1,86.3999973632813,10|0,0:0|0:0,0:0:0:0:
37,237,79316,6,0,B|108:216|108:216|127:189|127:189|191:168,1,172.799994726563,2|10,1:2|0:0,0:0:0:0:
325,220,79705,1,2,0:0:0:0:
325,220,79835,2,0,P|278:283|187:265,1,172.799994726563,0|8,1:2|0:0,0:0:0:0:
319,81,80225,1,0,1:2:0:0:
330,65,80484,5,0,1:2:0:0:
205,6,80614,2,0,L|224:96,1,86.3999973632813,10|0,0:0|0:0,0:0:0:0:
401,173,80874,2,0,L|418:88,1,86.3999973632813,2|0,1:2|1:2,0:0:0:0:
222,263,81134,2,0,L|306:280,1,86.3999973632813,10|0,0:0|0:0,0:0:0:0:
36,89,81393,6,0,B|54:170|54:170|62:181|62:181|85:279,1,187.199991430664,6|0,1:2|0:0,0:0:0:0:
177,355,81783,6,0,B|197:266|197:266|205:255|205:255|223:174,1,187.199991430664,4|0,1:2|0:0,0:0:0:0:
323,80,82173,6,0,B|341:161|341:161|349:172|349:172|369:260,1,187.199991430664,4|2,1:2|0:0,0:0:0:0:
466,354,82562,6,0,B|484:273|484:273|492:262|492:262|512:173,1,187.199991430664,4|0,1:2|0:0,0:0:0:0:
489,44,82952,6,0,P|459:33|414:50,1,79.2000024169923,14|8,1:2|0:0,0:0:0:0:
342,112,83212,2,0,P|312:123|267:106,1,75.5999976928712,8|8,0:0|0:0,0:0:0:0:
156,20,83471,6,0,P|86:38|79:90,1,115.2,2|2,1:2|0:0,0:0:0:0:
203,194,83991,5,2,0:0:0:0:
203,194,84121,2,0,L|182:315,1,115.2,2|2,0:0|0:0,0:0:0:0:
97,370,84510,2,0,P|55:370|35:350,1,64.799998022461,6|0,1:2|0:0,0:0:0:0:
20,332,84770,2,0,L|16:310,3,21.5999993408203,8|8|8|8,0:0|0:0|0:0|0:0,0:0:0:0:
29,285,85030,1,12,3:2:0:0:
276,366,85549,6,0,L|377:347,1,86.3999973632813,4|8,1:2|0:1,0:0:0:0:
392,264,85939,1,0,1:2:0:0:
392,264,86069,2,0,L|349:256,1,43.1999986816407,8|0,1:0|0:0,0:0:0:0:
274,172,86329,2,0,P|256:130|269:92,1,86.3999973632813,8|8,1:0|0:1,0:0:0:0:
343,45,86718,1,0,1:2:0:0:
343,45,86848,2,0,L|385:52,1,43.1999986816407,8|0,1:0|0:0,0:0:0:0:
437,128,87108,2,0,L|349:142,1,86.3999973632813,8|8,1:0|1:0,0:0:0:0:
159,28,87627,6,0,P|121:12|76:26,1,86.3999973632813,10|8,1:0|0:1,0:0:0:0:
77,106,88017,2,0,P|116:122|157:110,1,86.3999973632813,2|0,1:2|0:0,0:0:0:0:
274,172,88406,2,0,L|257:87,1,86.3999973632813,10|8,1:0|0:1,0:0:0:0:
335,57,88796,2,0,L|351:141,1,86.3999973632813,2|0,1:2|0:0,0:0:0:0:
421,217,89186,2,0,B|443:229|444:249|444:249|422:246|417:220,1,86.3999973632813,10|0,1:0|0:0,0:0:0:0:
