osu file format v14

[General]
AudioFilename: audio.mp3
AudioLeadIn: 0
PreviewTime: 49380
Countdown: 0
SampleSet: Soft
StackLeniency: 0.7
Mode: 0
LetterboxInBreaks: 0
WidescreenStoryboard: 1

[Editor]
DistanceSpacing: 2.1
BeatDivisor: 4
GridSize: 32
TimelineZoom: 2.4

[Metadata]
Title:Glorious Days (TV Size)
TitleUnicode:Glorious Days (TV Size)
Artist:9-tie
ArtistUnicode:9-tie
Creator:Soue
Version:Hard
Source:SELECTION PROJECT
Tags:セレクションプロジェクト Japanese TV Anime Opening OP Intro One 1 First 1st Female Idol Idols Vocals 美山 鈴音 Suzune Miyama 花野井 玲那 Rena Hananoi 今鵜 凪咲 Nagisa Imau 小泉 詩 Uta Koizumi 当麻 まこ Mako Toma 八木 野土香 Nodoka Yagi 山鹿 栞 Shiori Yamaga 濱栗 広海 Hiromi Hamaguri 淀川 逢生 Ao Yadogawa j pop jpop j-pop
BeatmapID:3372580
BeatmapSetID:1651373

[Difficulty]
HPDrainRate:4.8
CircleSize:3.5
OverallDifficulty:6.5
ApproachRate:7.8
SliderMultiplier:1.24
SliderTickRate:1

[Events]
//Background and Video events
0,0,"background.jpg",0,0
Video,179,"video.mp4"
//Break Periods
//Storyboard Layer 0 (Background)
//Storyboard Layer 1 (Fail)
//Storyboard Layer 2 (Pass)
//Storyboard Layer 3 (Foreground)
//Storyboard Layer 4 (Overlay)
//Storyboard Sound Samples

[TimingPoints]
355,259.74025974026,4,2,1,60,1,0
355,-166.666666666667,4,2,1,60,0,0
12822,-142.857142857143,4,2,1,60,0,0
15939,-200,4,2,1,60,0,0
16329,-250.000000000001,4,2,1,60,0,0
16978,-166.666666666666,4,2,1,50,0,0
24510,-166.666666666666,4,2,2,50,0,0
24900,-166.666666666666,4,2,1,50,0,0
32562,-200,4,2,1,50,0,0
33601,-199.999999999999,4,2,1,50,0,0
41913,-166.666666666667,4,2,1,50,0,0
46069,-142.857142857143,4,2,1,60,0,0
48147,-125,4,2,1,60,0,0
49186,-166.666666666667,4,2,1,40,0,0
49705,-125,4,2,2,60,0,0
49770,-125,4,2,1,60,0,0
50225,-90.9090909090909,4,2,1,80,0,1
50419,-90.9090909090909,4,2,1,5,0,1
50484,-90.9090909090909,4,2,1,80,0,1
52497,-90.9090909090909,4,2,1,5,0,1
52562,-90.9090909090909,4,2,1,80,0,1
54575,-90.9090909090909,4,2,1,5,0,1
54640,-90.9090909090909,4,2,1,80,0,1
66329,-100,4,2,1,80,0,1
66588,-111.111111111111,4,2,1,80,0,1
66783,-111.111111111111,4,2,1,80,0,0
66848,-90.9090909090909,4,2,1,80,0,1
67043,-90.9090909090909,4,2,1,5,0,1
67108,-90.9090909090909,4,2,1,80,0,1
69121,-90.9090909090909,4,2,1,5,0,1
69186,-90.9090909090909,4,2,1,80,0,1
71199,-90.9090909090909,4,2,1,5,0,1
71264,-90.9090909090909,4,2,1,80,0,1
81393,-83.3333333333333,4,2,1,80,0,1
81653,-111.111111111111,4,2,1,80,0,1
81783,-83.3333333333333,4,2,1,80,0,1
82043,-111.111111111111,4,2,1,80,0,1
82173,-83.3333333333333,4,2,1,80,0,1
82432,-111.111111111111,4,2,1,80,0,1
82562,-83.3333333333333,4,2,1,80,0,1
82822,-111.111111111111,4,2,1,80,0,1
82952,-100,4,2,1,80,0,1
83212,-111.111111111111,4,2,1,80,0,1
83342,-111.111111111111,4,2,1,80,0,1
83471,-125,4,2,1,60,0,0
84510,-166.666666666667,4,2,1,60,0,0
84705,-166.666666666667,4,2,1,5,0,0
84770,-166.666666666667,4,2,2,60,0,0
85030,-250,4,2,2,60,0,0
85095,-250,4,2,1,50,0,0
85484,-250,4,2,1,50,0,0
85549,-166.666666666667,4,2,1,50,0,0
89445,-166.666666666666,4,2,1,5,0,0

[Colours]
Combo1 : 128,255,214
Combo2 : 40,148,255
Combo3 : 255,179,255
Combo4 : 128,255,201
Combo5 : 201,119,255
Combo6 : 255,128,128
Combo7 : 255,255,128
Combo8 : 255,179,198

[HitObjects]
51,345,355,6,0,P|22:300|56:217,1,148.799995458985,4|0,1:2|3:2,0:0:0:0:
185,132,1134,1,2,0:0:0:0:
269,262,1393,2,0,L|256:345,1,74.3999977294923,2|2,0:0|0:0,0:0:0:0:
332,360,1783,2,0,L|343:286,1,74.3999977294923,2|0,0:0|0:0,0:0:0:0:
414,253,2173,1,2,0:0:0:0:
403,97,2432,6,0,L|329:85,1,74.3999977294923,2|2,0:0|0:0,0:0:0:0:
268,35,2822,2,0,L|194:46,1,74.3999977294923,2|2,0:0|0:0,0:0:0:0:
127,189,3342,1,2,0:0:0:0:
127,189,3471,2,0,P|98:165|96:116,1,74.3999977294923,2|2,0:0|0:0,0:0:0:0:
248,125,3991,2,0,P|241:162|200:188,1,74.3999977294923,2|2,0:0|0:0,0:0:0:0:
127,55,4510,6,0,P|176:26|231:50,1,111.599996594238,0|0,1:2|1:2,0:0:0:0:
378,220,5290,1,2,0:0:0:0:
338,370,5549,2,0,L|264:360,1,74.3999977294923,2|2,0:0|0:0,0:0:0:0:
258,281,5939,2,0,L|332:291,1,74.3999977294923,2|0,0:0|0:0,0:0:0:0:
395,244,6329,1,2,0:0:0:0:
330,102,6588,6,0,P|320:66|330:26,1,74.3999977294923,2|2,0:0|0:0,0:0:0:0:
406,26,6978,2,0,P|416:62|406:102,1,74.3999977294923,2|2,0:0|0:0,0:0:0:0:
288,197,7497,1,2,0:0:0:0:
288,197,7627,2,0,L|214:187,1,74.3999977294923,2|2,0:0|0:0,0:0:0:0:
220,30,8147,2,0,L|248:98,1,74.3999977294923,2|2,0:0|0:0,0:0:0:0:
102,156,8666,6,0,P|67:119|83:52,1,111.599996594238,0|0,1:2|0:0,0:0:0:0:
140,19,9186,1,0,1:2:0:0:
248,98,9445,2,0,L|284:102,1,37.1999988647461,2|0,0:0|0:0,0:0:0:0:
352,62,9705,2,0,P|363:96|357:135,1,74.3999977294923,2|2,1:2|0:0,0:0:0:0:
316,201,10095,2,0,P|305:235|311:274,1,74.3999977294923,2|0,0:0|3:2,0:0:0:0:
286,346,10484,2,0,L|249:350,1,37.1999988647461,2|2,3:2|0:0,0:0:0:0:
189,300,10744,6,0,L|115:290,1,74.3999977294923,2|2,1:2|0:0,0:0:0:0:
49,333,11134,2,0,P|36:295|41:261,1,74.3999977294923,2|2,0:0|0:0,0:0:0:0:
117,127,11653,1,2,0:0:0:0:
117,127,11783,2,0,P|130:89|125:55,1,74.3999977294923,2|2,1:2|0:0,0:0:0:0:
244,157,12303,2,0,P|204:164|177:186,1,74.3999977294923,2|2,1:2|3:2,0:0:0:0:
265,24,12822,6,0,P|281:42|301:50,1,43.3999986755371,0|0,1:2|0:0,0:0:0:0:
356,108,13082,2,0,P|336:117|322:134,1,43.3999986755371,0|0,1:2|0:0,0:0:0:0:
301,214,13342,2,0,P|314:230|334:240,1,43.3999986755371,0|0,1:2|0:0,0:0:0:0:
340,322,13601,2,0,P|320:331|306:348,1,43.3999986755371,2|0,1:2|0:0,0:0:0:0:
230,379,13861,6,0,L|142:359,1,86.7999973510743,2|2,1:2|1:2,0:0:0:0:
71,321,14251,2,0,P|60:291|77:235,1,86.7999973510743,2|0,0:0|0:0,0:0:0:0:
134,183,14640,1,2,1:2:0:0:
44,44,14900,6,0,P|65:52|92:53,1,43.3999986755371,2|0,1:2|1:2,0:0:0:0:
162,21,15160,2,0,P|183:13|210:12,1,43.3999986755371,2|2,1:2|1:2,0:0:0:0:
271,58,15419,2,0,L|265:97,2,21.6999993377686,0|0|2,1:2|1:2|1:2,0:0:0:0:
214,140,15679,2,0,L|220:179,2,21.6999993377686,0|0|2,1:2|1:2|1:2,0:0:0:0:
281,211,15939,2,0,P|320:229|366:213,1,93,2|8,1:2|0:3,0:0:0:0:
442,94,16718,1,4,0:3:0:0:
442,94,16848,1,4,0:3:0:0:
375,24,16978,6,0,B|331:31|331:31|317:47|317:47|270:56,1,111.599996594238,4|0,1:2|1:2,0:0:0:0:
197,77,17497,1,8,0:1:0:0:
52,18,17757,6,0,P|41:49|44:69,1,37.1999988647461,10|2,1:0|0:0,0:0:0:0:
78,122,18017,2,0,P|85:150|73:198,1,74.3999977294923,10|10,0:1|0:1,0:0:0:0:
23,252,18406,1,2,0:0:0:0:
72,312,18536,2,0,L|118:324,1,37.1999988647461,10|0,0:1|1:2,0:0:0:0:
166,268,18796,2,0,L|212:256,1,37.1999988647461,10|0,1:0|1:2,0:0:0:0:
263,307,19056,1,8,1:0:0:0:
383,207,19316,2,0,L|419:216,2,37.1999988647461,8|0|8,0:1|1:2|0:1,0:0:0:0:
323,62,19835,6,0,L|287:71,1,37.1999988647461,10|2,1:0|0:0,0:0:0:0:
214,40,20095,2,0,P|208:76|219:113,1,74.3999977294923,10|10,0:1|0:1,0:0:0:0:
275,173,20484,1,2,0:0:0:0:
275,173,20614,2,0,L|310:163,1,37.1999988647461,10|0,0:1|1:2,0:0:0:0:
339,236,20874,2,0,L|303:245,1,37.1999988647461,10|0,1:0|1:2,0:0:0:0:
240,292,21134,5,8,1:0:0:0:
109,206,21393,2,0,L|74:215,2,37.1999988647461,8|0|8,0:1|1:2|0:1,0:0:0:0:
157,56,21913,6,0,L|166:91,1,37.1999988647461,10|2,1:0|0:0,0:0:0:0:
227,141,22173,2,0,L|208:212,1,74.3999977294923,10|8,0:1|0:1,0:0:0:0:
154,269,22562,1,2,0:0:0:0:
378,337,22952,6,0,L|387:301,1,37.1999988647461,10|2,1:0|1:2,0:0:0:0:
448,252,23212,2,0,L|429:180,1,74.3999977294923,10|8,1:0|0:1,0:0:0:0:
373,124,23601,1,2,1:2:0:0:
233,312,23991,6,0,L|197:321,1,37.1999988647461,10|0,1:0|0:0,0:0:0:0:
136,270,24251,2,0,L|118:265,2,18.5999994323731,10|0|0,3:1|3:2|1:2,0:0:0:0:
193,216,24510,2,0,P|200:192|194:165,1,37.1999988647461,10|8,3:2|1:2,0:0:0:0:
147,120,24770,2,0,P|140:96|146:69,1,37.1999988647461,2|0,3:1|3:1,0:0:0:0:
197,28,25030,1,2,3:1:0:0:
332,105,25290,6,0,B|377:97|377:97|391:81|391:81|441:73,1,111.599996594238,4|0,1:2|1:2,0:0:0:0:
495,123,25809,1,8,0:1:0:0:
462,276,26069,6,0,L|472:319,1,37.1999988647461,10|2,1:0|0:0,0:0:0:0:
415,368,26329,2,0,P|380:377|344:356,1,74.3999977294923,10|10,0:1|0:1,0:0:0:0:
296,303,26718,1,2,0:0:0:0:
296,303,26848,2,0,P|279:301|260:309,1,37.1999988647461,10|0,0:1|1:2,0:0:0:0:
203,362,27108,6,0,L|162:355,1,37.1999988647461,10|0,1:0|1:2,0:0:0:0:
90,336,27367,1,8,1:0:0:0:
41,187,27627,2,0,L|5:193,2,37.1999988647461,8|0|8,0:1|1:2|0:1,0:0:0:0:
123,53,28147,6,0,L|129:89,1,37.1999988647461,10|0,1:0|0:0,0:0:0:0:
184,145,28406,2,0,P|217:153|255:139,1,74.3999977294923,10|10,0:1|0:1,0:0:0:0:
308,83,28796,1,2,0:0:0:0:
308,83,28926,2,0,P|325:78|346:86,1,37.1999988647461,10|0,0:1|1:2,0:0:0:0:
411,123,29186,2,0,P|415:140|407:161,1,37.1999988647461,10|0,1:1|1:2,0:0:0:0:
370,226,29445,6,0,L|382:307,1,74.3999977294923,10|10,1:0|0:1,0:0:0:0:
223,304,29965,2,0,L|212:230,1,74.3999977294923,10|8,0:1|1:0,0:0:0:0:
251,162,30355,2,0,P|262:125|245:86,1,74.3999977294923,2|0,0:0|1:2,0:0:0:0:
182,53,30744,1,8,0:1:0:0:
61,152,31004,2,0,L|67:188,1,37.1999988647461,8|0,0:1|1:2,0:0:0:0:
21,252,31264,2,0,L|16:288,1,37.1999988647461,10|0,1:0|1:2,0:0:0:0:
62,351,31523,6,0,P|101:357|135:340,1,74.3999977294923,10|10,1:0|3:1,0:0:0:0:
212,230,32043,2,0,P|248:223|281:238,1,74.3999977294923,10|10,3:1|1:0,0:0:0:0:
409,302,32562,6,0,B|388:305|388:305|384:310|384:310|361:313,2,41.3333333333333,2|2|2,3:2|3:2|3:2,0:0:0:0:
463,234,33082,2,0,B|483:237|483:237|487:242|487:242|510:245,2,41.3333333333333,10|8|4,0:3|0:3|0:3,0:0:0:0:
409,164,33601,6,0,P|380:108|411:53,1,124,4|8,1:2|0:1,0:0:0:0:
256,120,34380,6,0,L|217:114,1,31,2|2,0:0|0:0,0:0:0:0:
175,50,34640,2,0,L|112:58,1,62,2|2,0:0|0:0,0:0:0:0:
59,119,35030,1,2,0:0:0:0:
59,119,35160,2,0,P|51:148|62:184,1,62,10|2,0:1|0:0,0:0:0:0:
149,311,35679,2,0,P|156:340|148:370,2,62,0|0|8,0:0|0:0|0:1,0:0:0:0:
58,178,36458,6,0,L|26:182,1,31,2|0,0:0|0:0,0:0:0:0:
21,262,36718,2,0,L|86:253,1,62,2|2,0:0|0:0,0:0:0:0:
141,198,37108,1,2,0:0:0:0:
141,198,37238,2,0,P|168:186|204:195,1,62,10|2,0:1|0:0,0:0:0:0:
340,268,37757,2,0,P|369:274|398:261,2,62,0|0|8,0:0|0:0|0:1,0:0:0:0:
198,192,38536,6,0,L|202:160,1,31,2|2,0:0|0:0,0:0:0:0:
217,81,38796,1,2,0:0:0:0:
371,34,39056,1,2,0:0:0:0:
509,116,39316,1,10,0:1:0:0:
354,159,39575,1,2,0:0:0:0:
217,81,39835,6,0,P|195:74|151:83,1,62,2|0,0:0|0:0,0:0:0:0:
48,200,40355,2,0,P|41:222|50:266,1,62,10|0,0:1|0:0,0:0:0:0:
176,355,40874,2,0,P|198:362|242:353,1,62,2|0,0:0|0:0,0:0:0:0:
352,244,41393,2,0,P|359:222|350:178,1,62,10|0,0:1|0:0,0:0:0:0:
218,83,41913,6,0,L|233:165,1,74.3999977294923,4|8,1:2|0:0,0:0:0:0:
187,223,42303,1,8,0:0:0:0:
187,223,42432,2,0,L|113:236,1,74.3999977294923,0|10,1:2|0:0,0:0:0:0:
92,315,42823,1,10,0:0:0:0:
92,315,42952,2,0,L|165:328,1,74.3999977294923,2|10,1:2|0:0,0:0:0:0:
239,366,43342,1,10,0:0:0:0:
239,366,43471,2,0,P|271:375|309:361,1,74.3999977294923,2|10,1:2|0:0,0:0:0:0:
375,219,43991,2,0,L|358:143,2,74.3999977294923,0|8|0,1:2|0:0|1:2,0:0:0:0:
438,75,44770,6,0,P|400:69|390:72,1,37.1999988647461,10|10,0:0|0:0,0:0:0:0:
342,120,45030,2,0,P|300:132|267:120,1,74.3999977294923,2|10,1:2|0:0,0:0:0:0:
206,79,45419,1,10,0:0:0:0:
206,79,45549,2,0,P|170:70|135:82,1,74.3999977294923,2|10,1:2|0:0,0:0:0:0:
48,243,46069,6,0,L|56:287,1,43.3999986755371,6|0,1:2|0:0,0:0:0:0:
108,344,46329,2,0,L|150:336,1,43.3999986755371,2|0,1:2|0:0,0:0:0:0:
206,281,46588,2,0,L|248:288,1,43.3999986755371,2|0,1:2|0:0,0:0:0:0:
306,350,46848,1,2,1:2:0:0:
306,350,46978,2,0,P|332:358|361:355,1,43.3999986755371,2|4,0:0|1:2,0:0:0:0:
408,306,47238,2,0,L|392:216,1,86.7999973510743,2|2,0:0|0:0,0:0:0:0:
422,148,47627,2,0,P|399:139|378:141,1,43.3999986755371,6|0,1:2|0:0,0:0:0:0:
334,76,47887,2,0,P|314:91|305:110,1,43.3999986755371,2|0,1:2|0:0,0:0:0:0:
257,175,48147,6,0,L|205:184,1,49.6,6|0,1:2|1:2,0:0:0:0:
147,242,48406,2,0,L|95:232,1,49.6,4|0,1:2|1:2,0:0:0:0:
39,171,48666,2,0,L|13:175,2,24.8,0|0|0,1:2|1:2|1:2,0:0:0:0:
95,107,48926,2,0,L|120:111,2,24.8,0|0|0,1:2|1:2|1:2,0:0:0:0:
39,46,49186,5,2,1:2:0:0:
231,271,49705,2,0,L|233:307,2,24.8,10|8|4,0:0|0:3|0:3,0:0:0:0:
291,209,49965,2,0,P|298:177|293:156,1,49.6,6|0,1:2|0:0,0:0:0:0:
226,97,50225,6,0,L|126:116,1,102.300003121948,6|0,1:0|0:0,0:0:0:0:
95,107,50484,2,0,P|82:140|92:175,1,68.2000020812989,10|0,0:0|0:0,0:0:0:0:
147,238,50744,2,0,P|174:286|148:365,1,136.400004162598,2|10,1:2|0:0,0:0:0:0:
63,373,51134,2,0,P|36:325|62:246,1,136.400004162598,2|2,0:0|0:0,0:0:0:0:
142,225,51523,2,0,L|212:238,1,68.2000020812989,10|0,0:0|0:0,0:0:0:0:
271,301,51783,2,0,B|308:320|336:294|336:294|350:260|386:253,1,136.400004162598,2|8,1:2|0:0,0:0:0:0:
497,99,52303,6,0,P|450:68|405:77,1,102.300003121948,2|0,1:2|0:0,0:0:0:0:
382,102,52562,2,0,P|348:116|312:106,1,68.2000020812989,10|0,0:0|0:0,0:0:0:0:
257,43,52822,2,0,L|118:21,1,136.400004162598,2|10,1:2|0:0,0:0:0:0:
44,66,53212,2,0,P|8:126|30:193,1,136.400004162598,2|2,0:0|0:0,0:0:0:0:
102,229,53601,2,0,L|171:218,1,68.2000020812989,10|0,0:0|0:0,0:0:0:0:
244,169,53861,2,0,B|283:152|309:180|309:180|320:215|356:224,1,136.400004162598,2|8,1:2|0:0,0:0:0:0:
270,366,54380,6,0,P|234:380|176:351,1,102.300003121948,2|0,1:2|0:0,0:0:0:0:
169,324,54640,2,0,L|180:254,1,68.2000020812989,10|0,0:0|0:0,0:0:0:0:
110,200,54900,2,0,L|87:56,1,136.400004162598,2|10,1:2|0:0,0:0:0:0:
163,15,55290,2,0,P|216:50|292:33,1,136.400004162598,2|2,0:0|0:0,0:0:0:0:
350,97,55679,2,0,L|339:164,1,68.2000020812989,10|0,0:0|0:0,0:0:0:0:
269,220,55939,2,0,L|279:287,1,68.2000020812989,2|0,1:2|1:2,0:0:0:0:
349,343,56199,1,10,0:0:0:0:
488,234,56458,6,0,P|508:182|477:108,1,136.400004162598,2|8,1:2|0:0,0:0:0:0:
397,75,56848,2,0,P|341:83|293:147,1,136.400004162598,2|0,0:0|1:2,0:0:0:0:
292,233,57238,1,10,0:0:0:0:
232,298,57367,2,0,B|189:309|161:282|182:276|151:241|110:251,1,136.400004162598,0|0,1:2|1:2,0:0:0:0:
36,204,57757,6,0,P|24:171|35:131,1,68.2000020812989,10|0,0:0|0:0,0:0:0:0:
94,76,58017,1,2,1:2:0:0:
279,75,58277,5,10,0:0:0:0:
279,75,58406,1,2,0:0:0:0:
279,75,58536,2,0,L|350:62,1,68.2000020812989,0|0,1:2|0:0,0:0:0:0:
381,145,58796,2,0,L|313:156,1,68.2000020812989,8|0,0:0|0:0,0:0:0:0:
250,219,59056,2,0,P|235:279|268:346,1,136.400004162598,2|10,1:2|0:0,0:0:0:0:
347,377,59445,2,0,B|357:320|357:320|377:308|377:308|389:252,1,136.400004162598,2|0,0:0|0:0,0:0:0:0:
454,193,59835,1,8,0:0:0:0:
395,25,60095,6,0,L|322:37,1,68.2000020812989,2|0,1:2|1:2,0:0:0:0:
268,103,60355,2,0,L|195:91,1,68.2000020812989,10|0,0:0|0:0,0:0:0:0:
139,27,60614,6,0,B|104:75|104:75|129:158,1,136.400004162598,2|8,1:2|0:0,0:0:0:0:
68,246,61004,2,0,P|31:219|43:132,1,136.400004162598,2|0,0:0|1:2,0:0:0:0:
153,233,61393,1,10,0:0:0:0:
153,233,61523,2,0,B|209:243|209:243|221:263|221:263|277:275,1,136.400004162598,0|0,1:2|1:2,0:0:0:0:
351,226,61913,6,0,P|390:178|368:103,1,136.400004162598,10|0,0:0|1:2,0:0:0:0:
305,60,62303,1,0,1:2:0:0:
305,60,62432,1,10,0:0:0:0:
145,138,62692,2,0,L|8:102,2,136.400004162598,2|8|0,1:2|0:0|1:2,0:0:0:0:
305,60,63471,5,10,0:0:0:0:
305,60,63601,1,2,0:0:0:0:
305,60,63731,2,0,P|297:98|306:126,1,68.2000020812989,2|0,1:2|0:0,0:0:0:0:
366,191,63991,2,0,P|374:229|365:257,1,68.2000020812989,10|0,0:0|0:0,0:0:0:0:
304,322,64251,2,0,L|235:304,1,68.2000020812989,2|0,1:2|1:2,0:0:0:0:
163,256,64510,2,0,L|94:273,1,68.2000020812989,10|0,0:0|0:0,0:0:0:0:
171,165,64770,6,0,B|223:178|223:178|237:201|237:201|291:216,1,136.400004162598,6|8,1:2|0:0,0:0:0:0:
370,176,65160,1,2,0:0:0:0:
464,227,65290,2,0,P|489:278|455:350,1,136.400004162598,6|8,1:2|0:0,0:0:0:0:
377,381,65679,1,4,1:2:0:0:
360,372,65939,5,0,1:2:0:0:
276,339,66069,2,0,L|207:357,1,68.2000020812989,10|0,0:0|0:0,0:0:0:0:
112,341,66329,2,0,L|96:282,1,62,10|8,0:0|0:0,0:0:0:0:
162,203,66588,1,10,0:0:0:0:
162,203,66718,1,8,0:0:0:0:
57,136,66848,6,0,P|37:95|51:41,1,102.300003121948,6|0,1:0|0:0,0:0:0:0:
80,22,67108,2,0,L|150:39,1,68.2000020812989,10|0,0:0|0:0,0:0:0:0:
203,105,67367,2,0,L|338:72,1,136.400004162598,2|10,1:2|0:0,0:0:0:0:
395,6,67757,2,0,P|425:50|406:129,1,136.400004162598,2|2,0:0|0:0,0:0:0:0:
343,189,68147,2,0,L|326:256,1,68.2000020812989,10|0,0:0|0:0,0:0:0:0:
247,295,68406,2,0,B|286:278|312:306|312:306|323:341|359:350,1,136.400004162598,2|8,1:2|0:0,0:0:0:0:
484,225,68926,6,0,P|511:182|489:122,1,102.300003121948,2|0,1:2|0:0,0:0:0:0:
471,111,69186,2,0,L|393:125,1,68.2000020812989,10|0,0:0|0:0,0:0:0:0:
333,176,69445,2,0,L|198:151,1,136.400004162598,2|10,1:2|0:0,0:0:0:0:
144,80,69835,2,0,P|84:54|24:106,1,136.400004162598,2|2,0:0|0:0,0:0:0:0:
10,178,70225,2,0,L|22:245,1,68.2000020812989,10|0,0:0|0:0,0:0:0:0:
16,333,70484,2,0,B|50:358|81:336|81:336|100:305|137:304,1,136.400004162598,2|8,1:2|0:0,0:0:0:0:
298,375,71004,6,0,P|279:331|298:272,1,102.300003121948,2|0,1:2|0:0,0:0:0:0:
325,260,71264,2,0,P|338:225|331:194,1,68.2000020812989,10|0,0:0|0:0,0:0:0:0:
280,123,71523,2,0,L|145:147,1,136.400004162598,2|10,1:2|0:0,0:0:0:0:
144,57,71913,2,0,L|279:33,1,136.400004162598,2|2,0:0|0:0,0:0:0:0:
364,55,72303,2,0,P|398:71|430:71,1,68.2000020812989,10|0,0:0|0:0,0:0:0:0:
469,149,72562,2,0,P|435:150|404:165,1,68.2000020812989,2|0,1:2|1:2,0:0:0:0:
344,231,72822,1,10,0:0:0:0:
218,357,73082,6,0,P|160:372|97:328,1,136.400004162598,2|8,1:2|0:0,0:0:0:0:
67,249,73471,2,0,P|83:191|152:158,1,136.400004162598,2|0,0:0|1:2,0:0:0:0:
230,193,73861,1,10,0:0:0:0:
311,227,73991,2,0,B|354:238|382:211|361:205|392:170|433:180,1,136.400004162598,0|0,1:2|1:2,0:0:0:0:
485,110,74380,6,0,L|471:35,1,68.2000020812989,10|0,0:0|0:0,0:0:0:0:
386,19,74640,2,0,L|373:86,1,68.2000020812989,2|0,1:2|1:2,0:0:0:0:
299,136,74900,1,10,0:0:0:0:
299,136,75030,1,2,0:0:0:0:
231,74,75160,6,0,P|202:60|158:68,1,68.2000020812989,0|0,1:2|0:0,0:0:0:0:
93,113,75419,2,0,P|79:142|87:186,1,68.2000020812989,8|0,0:0|0:0,0:0:0:0:
145,240,75679,2,0,B|202:226|202:226|231:238|231:238|278:226,1,136.400004162598,2|10,1:2|0:0,0:0:0:0:
326,152,76069,2,0,P|360:192|351:275,1,136.400004162598,2|0,0:0|0:0,0:0:0:0:
290,334,76458,6,0,L|217:319,1,68.2000020812989,8|0,0:0|0:0,0:0:0:0:
148,369,76718,2,0,L|75:384,1,68.2000020812989,2|0,1:2|1:2,0:0:0:0:
15,322,76978,1,10,0:0:0:0:
33,145,77238,6,0,P|69:110|152:122,1,136.400004162598,2|8,1:2|0:0,0:0:0:0:
240,182,77627,2,0,B|298:170|298:170|312:150|312:150|366:140,1,136.400004162598,2|0,0:0|1:2,0:0:0:0:
472,82,78017,1,10,0:0:0:0:
472,82,78147,2,0,B|455:122|472:154|489:138|506:177|494:212,1,136.400004162598,0|0,1:2|1:2,0:0:0:0:
463,292,78536,6,0,L|481:374,1,68.2000020812989,10|0,0:0|0:0,0:0:0:0:
388,363,78796,2,0,L|373:296,1,68.2000020812989,2|0,1:2|1:2,0:0:0:0:
294,253,79056,1,10,0:0:0:0:
154,363,79316,6,0,P|112:379|38:327,1,136.400004162598,2|10,1:2|0:0,0:0:0:0:
24,250,79705,1,2,0:0:0:0:
24,250,79835,2,0,L|49:110,1,136.400004162598,0|8,1:2|0:0,0:0:0:0:
134,94,80225,2,0,L|157:228,1,136.400004162598,0|0,1:2|1:2,0:0:0:0:
228,282,80614,6,0,P|263:292|294:277,1,68.2000020812989,10|0,0:0|0:0,0:0:0:0:
376,307,80874,2,0,P|402:281|404:247,1,68.2000020812989,2|0,1:2|1:2,0:0:0:0:
482,206,81134,2,0,P|473:170|444:151,1,68.2000020812989,10|0,0:0|0:0,0:0:0:0:
394,42,81393,6,0,B|383:104|383:104|374:107|374:107|363:182,1,148.799995458985,6|0,1:2|0:0,0:0:0:0:
269,208,81783,6,0,B|257:133|257:133|248:129|248:129|238:67,1,148.799995458985,4|0,1:2|0:0,0:0:0:0:
152,20,82173,6,0,B|141:82|141:82|132:85|132:85|121:160,1,148.799995458985,4|2,1:2|0:0,0:0:0:0:
47,223,82562,6,0,B|35:148|35:148|26:144|26:144|16:82,1,148.799995458985,4|0,1:2|0:0,0:0:0:0:
61,14,82952,6,0,P|95:11|125:39,1,62,14|8,1:2|0:0,0:0:0:0:
177,91,83212,2,0,P|211:94|241:66,1,55.7999982971192,8|8,0:0|0:0,0:0:0:0:
283,19,83471,6,0,P|315:11|371:57,1,99.2,2|2,1:2|0:0,0:0:0:0:
381,178,83991,1,2,0:0:0:0:
381,178,84121,2,0,L|355:276,1,99.2,2|2,0:0|0:0,0:0:0:0:
301,335,84510,2,0,P|332:356|361:358,1,55.7999982971192,6|0,1:2|0:0,0:0:0:0:
380,354,84770,2,0,P|395:349|414:351,2,18.5999994323731,8|8|8,0:0|0:0|0:0,0:0:0:0:
462,291,85030,1,12,3:2:0:0:
300,140,85549,6,0,P|243:137|202:184,1,111.599996594238,4|0,1:2|1:2,0:0:0:0:
186,249,86069,2,0,L|195:290,1,37.1999988647461,8|0,1:0|0:0,0:0:0:0:
124,322,86329,2,0,L|98:207,1,111.599996594238,8|0,1:0|1:2,0:0:0:0:
32,173,86848,2,0,P|26:156|28:132,1,37.1999988647461,8|0,1:0|0:0,0:0:0:0:
55,63,87108,2,0,P|88:48|129:55,1,74.3999977294923,8|8,1:0|1:0,0:0:0:0:
261,120,87627,6,0,L|344:103,1,74.3999977294923,10|8,1:0|0:1,0:0:0:0:
368,175,88017,2,0,L|295:189,1,74.3999977294923,2|0,1:2|0:0,0:0:0:0:
322,263,88406,2,0,L|394:248,1,74.3999977294923,10|8,1:0|0:1,0:0:0:0:
419,322,88796,2,0,L|346:336,1,74.3999977294923,2|0,1:2|0:0,0:0:0:0:
261,332,89186,2,0,B|240:327|237:305|237:305|257:308|264:327,1,74.3999977294923,10|0,1:0|0:0,0:0:0:0:
