osu file format v14

[General]
AudioFilename: audio.mp3
AudioLeadIn: 0
PreviewTime: 49380
Countdown: 0
SampleSet: Soft
StackLeniency: 0.7
Mode: 0
LetterboxInBreaks: 0
WidescreenStoryboard: 0

[Editor]
DistanceSpacing: 1.8
BeatDivisor: 4
GridSize: 32
TimelineZoom: 2.4

[Metadata]
Title:Glorious Days (TV Size)
TitleUnicode:Glorious Days (TV Size)
Artist:9-tie
ArtistUnicode:9-tie
Creator:Soue
Version:Expert
Source:SELECTION PROJECT
Tags:セレクションプロジェクト Japanese TV Anime Opening OP Intro One 1 First 1st Female Idol Idols Vocals 美山 鈴音 Suzune Miyama 花野井 玲那 Rena Hananoi 今鵜 凪咲 Nagisa Imau 小泉 詩 Uta Koizumi 当麻 まこ Mako Toma 八木 野土香 Nodoka Yagi 山鹿 栞 Shiori Yamaga 濱栗 広海 Hiromi Hamaguri 淀川 逢生 Ao Yadogawa j pop jpop j-pop
BeatmapID:3371292
BeatmapSetID:1651373

[Difficulty]
HPDrainRate:6
CircleSize:4.2
OverallDifficulty:8.8
ApproachRate:9.3
SliderMultiplier:1.74
SliderTickRate:1

[Events]
//Background and Video events
0,0,"background.jpg",0,0
Video,179,"video.mp4"
//Break Periods
//Storyboard Layer 0 (Background)
//Storyboard Layer 1 (Fail)
//Storyboard Layer 2 (Pass)
//Storyboard Layer 3 (Foreground)
//Storyboard Layer 4 (Overlay)
//Storyboard Sound Samples

[TimingPoints]
355,259.74025974026,4,2,1,60,1,0
355,-166.666666666667,4,2,1,60,0,0
12822,-142.857142857143,4,2,1,60,0,0
15939,-200,4,2,1,60,0,0
16329,-250.000000000001,4,2,1,60,0,0
16718,-285.714285714286,4,2,1,60,0,0
16848,-333.333333333333,4,2,1,60,0,0
16978,-166.666666666666,4,2,1,50,0,0
24251,-153.846153846154,4,2,1,50,0,0
24510,-153.846153846154,4,2,2,50,0,0
24770,-181.818181818182,4,2,2,50,0,0
24900,-181.818181818182,4,2,1,50,0,0
25290,-166.666666666666,4,2,1,50,0,0
31523,-181.818181818182,4,2,1,50,0,0
31783,-200,4,2,1,50,0,0
32043,-222.222222222222,4,2,1,50,0,0
32303,-250,4,2,1,50,0,0
32562,-333.333333333333,4,2,1,50,0,0
33082,-500,4,2,1,50,0,0
33601,-249.999999999999,4,2,1,50,0,0
41913,-166.666666666667,4,2,1,50,0,0
46069,-142.857142857143,4,2,1,60,0,0
48147,-125,4,2,1,60,0,0
49186,-250.000000000001,4,2,1,40,0,0
49705,-100,4,2,2,60,0,0
49770,-100,4,2,1,60,0,0
49965,-250.000000000001,4,2,1,60,0,0
50160,-250.000000000001,4,2,1,5,0,0
50225,-83.3333333333333,4,2,1,80,0,1
50419,-83.3333333333333,4,2,1,5,0,1
50484,-83.3333333333333,4,2,1,80,0,1
50939,-83.3333333333333,4,2,1,5,0,1
51004,-83.3333333333333,4,2,1,80,0,1
51978,-83.3333333333333,4,2,1,5,0,1
52043,-83.3333333333333,4,2,1,80,0,1
52497,-83.3333333333333,4,2,1,5,0,1
52562,-83.3333333333333,4,2,1,80,0,1
53017,-83.3333333333333,4,2,1,5,0,1
53082,-83.3333333333333,4,2,1,80,0,1
54056,-83.3333333333333,4,2,1,5,0,1
54121,-83.3333333333333,4,2,1,80,0,1
54575,-83.3333333333333,4,2,1,5,0,1
54640,-83.3333333333333,4,2,1,80,0,1
55484,-83.3333333333333,4,2,1,5,0,1
55549,-83.3333333333333,4,2,1,80,0,1
58731,-83.3333333333333,4,2,1,5,0,1
58796,-83.3333333333333,4,2,1,80,0,1
59251,-83.3333333333333,4,2,1,5,0,1
59316,-83.3333333333333,4,2,1,80,0,1
60549,-83.3333333333333,4,2,1,5,0,1
60614,-83.3333333333333,4,2,1,80,0,1
62627,-83.3333333333333,4,2,1,5,0,1
62692,-83.3333333333333,4,2,1,80,0,1
62887,-83.3333333333333,4,2,1,5,0,1
62952,-83.3333333333333,4,2,1,80,0,1
64770,-80,4,2,1,80,0,1
65290,-76.9230769230769,4,2,1,80,0,1
65679,-90.9090909090909,4,2,1,80,0,1
66069,-99.9999999999999,4,2,1,80,0,1
66329,-111.111111111111,4,2,1,80,0,1
66588,-125,4,2,1,80,0,1
66783,-125,4,2,1,80,0,0
66848,-83.3333333333333,4,2,1,80,0,1
67043,-83.3333333333333,4,2,1,5,0,1
67108,-83.3333333333333,4,2,1,80,0,1
67562,-83.3333333333333,4,2,1,5,0,1
67627,-83.3333333333333,4,2,1,80,0,1
68601,-83.3333333333333,4,2,1,5,0,1
68666,-83.3333333333333,4,2,1,80,0,1
69121,-83.3333333333333,4,2,1,5,0,1
69186,-83.3333333333333,4,2,1,80,0,1
70030,-83.3333333333333,4,2,1,5,0,1
70095,-83.3333333333333,4,2,1,80,0,1
70679,-83.3333333333333,4,2,1,5,0,1
70744,-83.3333333333333,4,2,1,80,0,1
71199,-83.3333333333333,4,2,1,5,0,1
71264,-83.3333333333333,4,2,1,80,0,1
71718,-83.3333333333333,4,2,1,5,0,1
71783,-83.3333333333333,4,2,1,80,0,1
72108,-83.3333333333333,4,2,1,5,0,1
72173,-83.3333333333333,4,2,1,80,0,1
75355,-83.3333333333333,4,2,1,5,0,1
75419,-83.3333333333333,4,2,1,80,0,1
75874,-83.3333333333333,4,2,1,5,0,1
75939,-83.3333333333333,4,2,1,80,0,1
77173,-83.3333333333333,4,2,1,5,0,1
77238,-83.3333333333333,4,2,1,80,0,1
81393,-76.9230769230769,4,2,1,80,0,1
81653,-100,4,2,1,80,0,1
81783,-76.9230769230769,4,2,1,80,0,1
82043,-100,4,2,1,80,0,1
82173,-76.9230769230769,4,2,1,80,0,1
82432,-100,4,2,1,80,0,1
82562,-76.9230769230769,4,2,1,80,0,1
82822,-100,4,2,1,80,0,1
82952,-76.9230769230769,4,2,1,80,0,1
83212,-80,4,2,1,80,0,1
83342,-83.3333333333333,4,2,1,80,0,1
83471,-125,4,2,1,60,0,0
84510,-166.666666666667,4,2,1,60,0,0
84705,-166.666666666667,4,2,1,5,0,0
84770,-166.666666666667,4,2,2,60,0,0
85030,-250,4,2,2,60,0,0
85095,-250,4,2,1,50,0,0
85484,-250,4,2,1,5,0,0
85549,-166.666666666667,4,2,1,50,0,0
89445,-166.666666666666,4,2,1,5,0,0

[Colours]
Combo1 : 128,255,214
Combo2 : 40,148,255
Combo3 : 255,179,255
Combo4 : 128,255,201
Combo5 : 201,119,255
Combo6 : 255,128,128
Combo7 : 255,255,128
Combo8 : 255,179,198

[HitObjects]
104,42,355,6,0,P|69:35|21:135,1,156.599995220947,4|0,1:2|3:2,0:0:0:0:
72,187,874,1,0,3:2:0:0:
81,196,1134,6,0,L|136:184,1,52.1999984069825,2|0,0:0|0:0,0:0:0:0:
215,257,1393,2,0,L|319:279,1,104.399996813965,2|2,0:0|0:0,0:0:0:0:
433,147,1783,2,0,L|330:168,1,104.399996813965,2|0,0:0|0:0,0:0:0:0:
480,287,2173,1,2,0:0:0:0:
480,287,2303,1,2,0:0:0:0:
418,337,2432,6,0,P|397:291|412:239,1,104.399996813965,2|2,0:0|0:0,0:0:0:0:
458,159,2822,2,0,L|447:107,1,52.1999984069825,2|0,0:0|0:0,0:0:0:0:
357,69,3082,2,0,L|346:120,1,52.1999984069825,2|0,0:0|0:0,0:0:0:0:
272,178,3342,5,2,0:0:0:0:
272,178,3471,2,0,P|244:182|218:170,1,52.1999984069825,2|0,0:0|0:0,0:0:0:0:
158,211,3731,2,0,P|145:185|148:157,1,52.1999984069825,2|0,0:0|0:0,0:0:0:0:
90,115,3991,2,0,P|110:95|138:89,1,52.1999984069825,2|0,0:0|0:0,0:0:0:0:
165,22,4251,2,0,P|190:35|203:60,1,52.1999984069825,2|0,0:0|0:0,0:0:0:0:
48,187,4510,6,0,P|9:134|39:51,1,156.599995220947,0|0,1:2|1:2,0:0:0:0:
35,53,5290,6,0,L|45:113,1,52.1999984069825,2|0,0:0|0:0,0:0:0:0:
147,162,5549,2,0,L|129:268,1,104.399996813965,2|2,0:0|0:0,0:0:0:0:
30,360,5939,2,0,L|12:257,1,104.399996813965,2|0,0:0|0:0,0:0:0:0:
152,346,6329,1,2,0:0:0:0:
152,346,6458,1,2,0:0:0:0:
218,301,6588,6,0,P|180:266|129:264,1,104.399996813965,2|2,0:0|0:0,0:0:0:0:
66,202,6978,2,0,L|57:150,1,52.1999984069825,2|0,0:0|0:0,0:0:0:0:
138,110,7238,2,0,L|146:161,1,52.1999984069825,2|0,0:0|0:0,0:0:0:0:
228,200,7497,5,2,0:0:0:0:
228,200,7627,2,0,P|253:202|279:191,1,52.1999984069825,2|0,0:0|0:0,0:0:0:0:
347,228,7887,2,0,P|356:204|354:176,1,52.1999984069825,2|0,0:0|0:0,0:0:0:0:
410,127,8147,2,0,P|390:110|363:104,1,52.1999984069825,2|0,0:0|0:0,0:0:0:0:
282,104,8406,1,2,0:0:0:0:
378,13,8536,1,0,0:0:0:0:
265,122,8666,6,0,B|218:135|189:100|208:95|177:56|125:74,1,156.599995220947,0|0,1:2|0:0,0:0:0:0:
34,153,9186,1,0,1:2:0:0:
26,166,9445,6,0,L|41:226,1,52.1999984069825,2|0,0:0|0:0,0:0:0:0:
14,307,9705,2,0,P|68:314|106:285,1,104.399996813965,2|2,1:2|0:0,0:0:0:0:
162,209,10095,2,0,P|216:202|254:231,1,104.399996813965,2|0,0:0|3:2,0:0:0:0:
258,244,10419,1,0,3:2:0:0:
262,259,10484,2,0,L|312:271,1,52.1999984069825,2|2,3:2|0:0,0:0:0:0:
416,374,10744,6,0,B|397:324|397:324|421:279,1,104.399996813965,2|2,1:2|0:0,0:0:0:0:
376,102,11134,2,0,B|395:152|395:152|371:197,1,104.399996813965,2|2,0:0|0:0,0:0:0:0:
275,341,11523,1,0,0:0:0:0:
275,341,11653,1,2,0:0:0:0:
195,309,11783,6,0,L|145:321,1,52.1999984069825,2|0,1:2|0:0,0:0:0:0:
37,250,12043,2,0,L|87:238,1,52.1999984069825,2|0,0:0|0:0,0:0:0:0:
167,133,12303,2,0,L|117:145,1,52.1999984069825,2|0,1:2|3:2,0:0:0:0:
102,139,12497,1,0,3:2:0:0:
87,134,12562,2,0,P|67:104|79:65,1,78.2999976104737,2|0,3:2|0:0,0:0:0:0:
103,43,12822,6,0,L|179:61,1,60.8999981414796,0|0,1:2|0:0,0:0:0:0:
236,74,13082,2,0,L|312:92,1,60.8999981414796,0|0,1:2|0:0,0:0:0:0:
408,235,13342,6,0,L|348:249,1,60.8999981414796,0|0,1:2|0:0,0:0:0:0:
275,265,13602,2,0,L|215:279,1,60.8999981414796,2|0,1:2|0:0,0:0:0:0:
35,258,13861,6,0,P|19:231|19:199,1,60.8999981414796,2|0,1:2|0:0,0:0:0:0:
87,134,14121,1,2,1:2:0:0:
87,134,14251,2,0,L|117:259,1,121.799996282959,2|0,0:0|0:0,0:0:0:0:
54,366,14640,2,0,L|113:351,1,60.8999981414796,2|0,1:2|0:0,0:0:0:0:
187,213,14900,5,2,1:2:0:0:
207,298,15029,1,0,1:2:0:0:
331,365,15160,5,2,1:2:0:0:
351,280,15289,1,2,1:2:0:0:
443,117,15419,5,0,1:2:0:0:
453,128,15484,1,0,1:2:0:0:
460,141,15548,1,2,1:2:0:0:
465,155,15613,1,0,1:2:0:0:
466,170,15678,1,0,1:2:0:0:
465,186,15743,1,0,1:2:0:0:
460,200,15808,1,2,1:2:0:0:
452,213,15873,1,0,1:2:0:0:
441,224,15939,6,0,B|392:213|392:213|376:192|376:192|321:179,1,130.5,2|8,1:2|0:3,0:0:0:0:
323,179,16718,5,4,0:3:0:0:
323,179,16848,1,4,0:3:0:0:
259,65,16978,6,0,B|212:59|188:100|211:104|187:144|136:141,1,156.599995220947,4|0,1:2|1:2,0:0:0:0:
56,105,17497,1,8,0:1:0:0:
46,115,17757,6,0,P|33:145|39:163,1,52.1999984069825,10|2,1:0|0:0,0:0:0:0:
102,227,18017,2,0,L|85:334,1,104.399996813965,10|10,0:1|0:1,0:0:0:0:
24,236,18406,1,2,0:0:0:0:
168,310,18536,2,0,L|219:301,1,52.1999984069825,10|0,0:1|1:2,0:0:0:0:
377,284,18796,1,10,1:0:0:0:
377,284,18926,1,0,1:2:0:0:
329,345,19056,2,0,P|303:314|303:250,1,104.399996813965,8|8,1:0|0:1,0:0:0:0:
359,198,19445,1,0,1:2:0:0:
461,250,19575,1,8,0:1:0:0:
474,256,19835,6,0,P|484:233|482:204,1,52.1999984069825,10|2,1:0|0:0,0:0:0:0:
426,129,20095,2,0,L|322:112,1,104.399996813965,10|10,0:1|0:1,0:0:0:0:
241,160,20484,1,2,0:0:0:0:
338,32,20614,2,0,L|286:40,1,52.1999984069825,10|0,0:1|1:2,0:0:0:0:
105,94,20874,1,10,1:0:0:0:
105,94,21004,1,0,1:2:0:0:
153,34,21134,6,0,B|183:29|210:50|210:50|214:81|240:98,1,104.399996813965,8|8,1:0|0:1,0:0:0:0:
304,112,21523,1,0,1:2:0:0:
176,203,21653,1,8,0:1:0:0:
164,213,21913,6,0,L|112:199,1,52.1999984069825,10|2,1:0|0:0,0:0:0:0:
241,160,22173,2,0,P|259:198|246:260,1,104.399996813965,10|8,0:1|0:1,0:0:0:0:
179,318,22562,2,0,P|137:314|89:272,1,104.399996813965,2|0,0:0|1:2,0:0:0:0:
82,183,22952,5,10,1:0:0:0:
82,183,23082,1,2,1:2:0:0:
247,257,23212,2,0,P|297:265|343:243,1,104.399996813965,10|8,1:0|0:1,0:0:0:0:
388,163,23601,2,0,P|370:114|327:86,1,104.399996813965,2|0,1:2|0:0,0:0:0:0:
236,96,23991,6,0,P|209:113|202:140,1,52.1999984069825,10|0,1:0|0:0,0:0:0:0:
111,30,24251,2,0,L|117:58,2,28.2749987056733,10|0|0,3:1|3:2|1:2,0:0:0:0:
49,113,24510,1,10,3:2:0:0:
99,182,24640,1,8,1:2:0:0:
35,267,24770,2,0,B|25:257|28:244|28:244|38:252|36:266,1,47.8500014602662,2|0,3:1|3:1,0:0:0:0:
95,338,25030,2,0,B|85:347|88:360|88:360|98:352|96:338,1,47.8500014602662,2|0,3:1|3:1,0:0:0:0:
255,263,25290,6,0,B|302:257|326:298|303:302|327:342|378:339,1,156.599995220947,4|0,1:2|1:2,0:0:0:0:
457,285,25809,1,8,0:1:0:0:
470,291,26069,6,0,P|478:266|470:241,1,52.1999984069825,10|2,1:0|0:0,0:0:0:0:
412,173,26329,2,0,L|397:61,1,104.399996813965,10|10,0:1|0:1,0:0:0:0:
466,20,26718,1,2,0:0:0:0:
311,80,26848,2,0,L|255:72,1,52.1999984069825,10|0,0:1|1:2,0:0:0:0:
418,193,27108,1,10,1:0:0:0:
418,193,27238,1,0,1:2:0:0:
347,243,27367,6,0,B|322:224|319:190|319:190|339:166|334:135,1,104.399996813965,8|8,1:0|0:1,2:0:0:0:
401,98,27757,1,0,1:2:0:0:
232,192,27887,1,8,0:1:0:0:
225,201,28147,6,0,L|169:208,1,52.1999984069825,10|0,1:0|0:0,0:0:0:0:
85,162,28406,2,0,P|62:118|80:66,1,104.399996813965,10|10,0:1|0:1,0:0:0:0:
142,18,28796,1,2,0:0:0:0:
242,71,28926,2,0,L|293:77,1,52.1999984069825,10|0,0:1|1:2,0:0:0:0:
489,123,29186,1,10,1:1:0:0:
489,123,29316,1,0,1:2:0:0:
426,73,29445,6,0,B|396:68|369:89|369:89|365:120|339:137,1,104.399996813965,10|10,1:0|0:1,0:0:0:0:
512,219,29835,1,0,1:2:0:0:
432,306,29965,2,0,L|425:254,1,52.1999984069825,10|0,0:1|0:0,0:0:0:0:
425,254,30225,1,8,1:0:0:0:
345,205,30355,2,0,P|323:244|344:300,1,104.399996813965,2|0,0:0|1:2,0:0:0:0:
172,166,30744,2,0,L|277:151,1,104.399996813965,8|8,0:1|0:1,0:0:0:0:
173,274,31134,1,0,1:2:0:0:
252,348,31264,1,10,1:0:0:0:
252,348,31393,1,0,1:2:0:0:
321,283,31523,6,0,L|296:279,2,23.9250007301331,10|0|0,1:0|3:0|3:0,0:0:0:0:
244,193,31783,2,0,L|265:190,2,21.75,10|0|0,3:1|3:0|1:0,0:0:0:0:
322,108,32043,2,0,L|302:105,2,19.5749994026184,10|0|0,3:1|3:0|3:0,0:0:0:0:
254,43,32303,2,0,L|271:40,2,17.4,10|0|0,1:0|3:0|3:0,0:0:0:0:
342,81,32562,5,2,3:2:0:0:
342,81,32692,2,0,L|336:124,1,43.4999986724854,0|2,3:2|3:2,0:0:0:0:
288,187,33082,6,0,L|291:212,2,23.2,10|8|4,0:3|0:3|0:3,0:0:0:0:
193,118,33601,6,0,P|146:112|93:180,1,139.2,4|8,1:2|0:1,0:0:0:0:
136,293,34380,5,2,0:0:0:0:
136,293,34510,1,2,0:0:0:0:
194,351,34640,2,0,L|263:359,1,69.6,2|2,0:0|0:0,0:0:0:0:
340,324,35030,1,2,0:0:0:0:
340,324,35160,2,0,P|354:289|348:256,1,69.6,10|2,0:1|0:0,0:0:0:0:
369,250,35679,6,0,P|345:220|314:209,2,69.6,0|0|8,0:0|0:0|0:1,0:0:0:0:
323,179,36458,6,0,P|304:181|291:192,1,34.8,2|0,0:0|0:0,0:0:0:0:
217,166,36718,2,0,P|199:135|207:101,1,69.6,2|2,0:0|0:0,0:0:0:0:
261,48,37108,1,2,0:0:0:0:
261,48,37238,2,0,L|338:62,1,69.6,10|2,0:1|0:0,0:0:0:0:
327,83,37757,6,0,L|404:69,2,69.6,0|0|8,0:0|0:0|0:1,0:0:0:0:
406,48,38536,5,2,0:0:0:0:
406,48,38665,1,2,0:0:0:0:
476,96,38796,2,0,P|483:115|482:132,1,34.8,2|0,0:0|0:0,0:0:0:0:
436,197,39056,2,0,P|429:216|430:233,1,34.8,2|0,0:0|0:0,0:0:0:0:
486,294,39316,1,10,0:1:0:0:
383,379,39575,1,2,0:0:0:0:
264,286,39835,6,0,L|195:274,1,69.6,2|0,0:0|0:0,0:0:0:0:
73,328,40355,2,0,L|84:259,1,69.6,10|0,0:1|0:0,0:0:0:0:
34,137,40874,2,0,L|102:148,1,69.6,2|0,0:0|0:0,0:0:0:0:
224,98,41393,2,0,L|212:166,1,69.6,10|0,0:1|0:0,0:0:0:0:
257,259,41913,6,0,P|299:272|352:247,1,104.399996813965,4|8,1:2|0:0,0:0:0:0:
364,170,42303,1,8,0:0:0:0:
364,14,42432,6,0,P|331:43|326:102,1,104.399996813965,0|10,1:2|0:0,0:0:0:0:
364,170,42822,1,10,0:0:0:0:
501,251,42952,6,0,P|491:208|443:174,1,104.399996813965,2|10,1:2|0:0,0:0:0:0:
364,170,43342,1,10,0:0:0:0:
224,98,43471,6,0,P|232:121|255:138,1,52.1999984069825,2|0,1:2|0:0,0:0:0:0:
480,77,43731,2,0,P|456:72|429:83,1,52.1999984069825,10|8,0:0|0:0,0:0:0:0:
302,249,43991,6,0,P|259:262|207:236,1,104.399996813965,2|8,1:2|0:0,0:0:0:0:
164,163,44380,1,8,0:0:0:0:
187,10,44510,6,0,P|219:40|223:98,1,104.399996813965,0|10,1:2|0:0,0:0:0:0:
164,163,44900,1,10,0:0:0:0:
19,238,45030,6,0,P|29:194|77:162,1,104.399996813965,2|10,1:2|0:0,0:0:0:0:
164,163,45419,1,10,0:0:0:0:
303,134,45549,6,0,P|295:156|272:173,1,52.1999984069825,2|0,1:2|0:0,0:0:0:0:
59,67,45809,2,0,P|82:62|109:73,1,52.1999984069825,10|8,0:0|0:0,0:0:0:0:
280,127,46069,6,0,P|311:130|340:117,1,60.8999981414796,6|0,1:2|0:0,0:0:0:0:
436,68,46329,2,0,P|417:93|414:124,1,60.8999981414796,2|0,1:2|0:0,0:0:0:0:
409,231,46588,2,0,P|396:202|370:184,1,60.8999981414796,2|0,1:2|0:0,0:0:0:0:
253,313,46848,5,2,1:2:0:0:
253,313,46978,2,0,L|313:325,1,60.8999981414796,2|4,0:0|1:2,0:0:0:0:
335,249,47238,2,0,L|275:237,1,60.8999981414796,2|0,0:0|1:2,0:0:0:0:
93,301,47497,5,2,0:0:0:0:
93,301,47627,2,0,B|80:330|80:330|94:360,1,60.8999981414796,2|0,1:2|0:0,0:0:0:0:
172,364,47887,2,0,B|185:335|185:335|171:305,1,60.8999981414796,2|0,1:2|0:0,0:0:0:0:
13,189,48147,5,6,1:2:0:0:
91,221,48277,1,0,1:2:0:0:
199,152,48406,5,0,1:2:0:0:
277,120,48536,1,0,1:2:0:0:
102,5,48666,5,0,1:2:0:0:
87,15,48730,1,0,1:2:0:0:
78,30,48795,1,0,1:2:0:0:
71,46,48860,1,0,1:2:0:0:
68,63,48925,1,0,1:2:0:0:
70,80,48990,1,0,1:2:0:0:
76,96,49055,1,0,1:2:0:0:
85,109,49120,1,0,1:2:0:0:
98,121,49185,1,2,1:2:0:0:
199,152,49445,5,2,0:0:0:0:
207,164,49705,5,10,0:0:0:0:
249,165,49770,1,8,0:3:0:0:
285,141,49834,1,4,0:3:0:0:
300,101,49899,1,4,0:3:0:0:
287,60,49965,2,0,B|288:45|274:38|274:38|271:53|283:62,1,52.2,6|0,1:2|0:0,0:0:0:0:
204,23,50225,6,0,B|148:30|136:73|157:75|144:118|96:122,1,156.599995220947,6|0,1:0|0:0,0:0:0:0:
73,119,50484,2,0,P|38:79|55:21,1,104.399996813965,10|0,0:0|0:0,0:0:0:0:
285,141,50744,2,0,B|344:163|344:163|360:193|360:193|416:216,1,156.599995220947,2|0,1:2|0:0,0:0:0:0:
425,243,51004,1,10,0:0:0:0:
237,342,51134,6,0,B|203:377|203:377|119:314|184:233,1,208.79999362793,2|2,0:0|0:0,0:0:0:0:
411,130,51523,2,0,P|390:176|327:191,1,104.399996813965,10|0,0:0|0:0,0:0:0:0:
104,21,51783,2,0,P|164:24|219:103,1,156.599995220947,2|0,1:2|0:0,0:0:0:0:
211,126,52043,6,0,B|176:117|154:136|154:136|147:157|126:168,1,104.399996813965,8|0,0:0|0:0,0:0:0:0:
297,293,52303,6,0,B|356:315|356:315|372:345|372:345|428:368,1,156.599995220947,2|0,1:2|0:0,0:0:0:0:
458,358,52562,2,0,P|476:314|453:266,1,104.399996813965,10|0,0:0|0:0,0:0:0:0:
197,112,52822,2,0,L|226:278,1,156.599995220947,2|0,1:2|0:0,0:0:0:0:
206,290,53082,1,10,0:0:0:0:
468,82,53212,6,0,B|408:63|369:120|402:130|367:186|303:173,1,208.79999362793,2|2,0:0|0:0,0:0:0:0:
134,259,53601,2,0,P|103:206|117:167,1,104.399996813965,10|0,0:0|0:0,0:0:0:0:
323,57,53861,2,0,L|294:223,1,156.599995220947,2|0,1:2|0:0,0:0:0:0:
305,241,54121,6,0,B|340:232|362:251|362:251|369:272|390:283,1,104.399996813965,8|0,0:0|0:0,0:0:0:0:
170,80,54380,6,0,B|128:22|63:56|63:56|77:70|83:96,1,156.599995220947,2|0,1:2|0:0,0:0:0:0:
68,114,54640,2,0,P|29:68|37:26,1,104.399996813965,10|0,0:0|0:0,0:0:0:0:
296,211,54900,2,0,B|217:240|217:240|200:277|200:277|119:306,1,208.79999362793,2|10,1:2|0:0,0:0:0:0:
210,11,55290,6,0,P|246:57|212:149,1,156.599995220947,2|0,0:0|0:0,0:0:0:0:
196,163,55549,1,2,0:0:0:0:
452,323,55679,2,0,L|425:210,1,104.399996813965,10|0,0:0|0:0,0:0:0:0:
475,55,55939,2,0,L|373:79,1,104.399996813965,2|0,1:2|1:2,0:0:0:0:
250,217,56199,2,0,L|351:241,1,104.399996813965,10|0,0:0|0:0,0:0:0:0:
121,29,56458,6,0,B|63:-1|42:63|42:63|91:164,1,208.79999362793,2|8,1:2|0:0,0:0:0:0:
36,335,56848,2,0,B|-26:271|22:194|22:194|34:222|71:233,1,208.79999362793,2|0,0:0|1:2,0:0:0:0:
199,76,57238,1,10,0:0:0:0:
217,151,57367,2,0,B|158:171|115:122|141:114|105:58|34:81,1,208.79999362793,0|0,1:2|1:2,0:0:0:0:
157,258,57757,6,0,L|258:234,1,104.399996813965,10|0,0:0|0:0,0:0:0:0:
376,86,58017,2,0,L|275:62,1,104.399996813965,2|0,1:2|1:2,0:0:0:0:
439,291,58277,1,10,0:0:0:0:
415,208,58406,5,2,3:2:0:0:
415,208,58471,1,0,3:2:0:0:
415,208,58536,2,0,P|357:252|365:336,1,156.599995220947,0|0,1:2|0:0,0:0:0:0:
382,352,58796,2,0,L|483:376,1,104.399996813965,8|0,0:0|0:0,0:0:0:0:
296,162,59056,2,0,L|141:198,1,156.599995220947,2|0,1:2|0:0,0:0:0:0:
113,209,59316,1,10,0:0:0:0:
267,24,59445,6,0,B|338:79|296:163|296:163|285:135|258:122,1,208.79999362793,2|0,0:0|0:0,0:0:0:0:
125,292,59835,2,0,L|232:267,1,104.399996813965,8|0,0:0|0:0,0:0:0:0:
43,183,60095,1,2,1:2:0:0:
146,62,60225,1,0,1:2:0:0:
84,3,60355,2,0,P|56:57|111:140,1,156.599995220947,10|0,0:0|0:0,0:0:0:0:
132,139,60614,6,0,B|218:119|218:119|234:92|234:92|323:69,1,208.79999362793,2|8,1:2|0:0,0:0:0:0:
511,251,61004,2,0,B|425:231|425:231|409:204|409:204|320:181,1,208.79999362793,2|0,0:0|1:2,0:0:0:0:
192,333,61393,1,10,0:0:0:0:
259,381,61523,2,0,B|298:316|257:265|237:290|211:239|234:188,1,208.79999362793,0|0,1:2|1:2,0:0:0:0:
403,16,61913,6,0,L|383:123,1,104.399996813965,10|0,0:0|0:0,0:0:0:0:
479,266,62173,1,0,1:2:0:0:
307,158,62303,1,0,1:2:0:0:
512,133,62432,2,0,B|454:153|454:153|437:180|437:180|361:210,1,156.599995220947,10|0,0:0|0:0,0:0:0:0:
351,223,62692,6,0,P|276:229|230:164,1,156.599995220947,2|0,1:2|0:0,0:0:0:0:
229,137,62952,2,0,P|252:93|304:79,1,104.399996813965,8|0,0:0|0:0,0:0:0:0:
99,13,63212,2,0,L|120:120,1,104.399996813965,0|0,1:2|1:2,0:0:0:0:
24,216,63471,1,10,0:0:0:0:
173,313,63601,1,2,0:0:0:0:
95,361,63731,6,0,P|77:315|97:259,1,104.399996813965,2|0,1:2|0:0,0:0:0:0:
301,163,63991,2,0,P|270:201|211:212,1,104.399996813965,10|0,0:0|0:0,0:0:0:0:
67,78,64251,1,2,1:2:0:0:
179,2,64380,1,0,1:2:0:0:
49,152,64510,2,0,L|151:172,1,104.399996813965,10|0,0:0|0:0,0:0:0:0:
318,22,64770,6,0,B|261:-8|247:53|247:53|306:175,1,217.5,6|8,1:2|0:0,0:0:0:0:
300,162,65160,1,2,0:0:0:0:
471,308,65290,5,6,1:2:0:0:
437,198,65419,1,0,1:2:0:0:
361,281,65549,1,8,0:0:0:0:
482,107,65679,5,4,1:2:0:0:
491,95,65939,5,0,1:2:0:0:
397,21,66069,2,0,P|347:31|336:67,1,87,10|0,0:0|0:0,0:0:0:0:
512,238,66329,5,10,0:0:0:0:
434,279,66458,1,8,0:0:0:0:
305,166,66588,5,10,0:0:0:0:
227,125,66717,1,8,0:0:0:0:
93,233,66848,6,0,B|149:240|161:283|140:285|153:328|201:332,1,156.599995220947,6|0,1:0|0:0,0:0:0:0:
231,330,67108,2,0,P|261:300|249:242,1,104.399996813965,10|0,0:0|0:0,0:0:0:0:
46,104,67367,2,0,L|79:259,1,156.599995220947,2|0,1:2|0:0,0:0:0:0:
65,286,67627,1,10,0:0:0:0:
227,125,67757,6,0,P|296:123|349:241,1,208.79999362793,2|2,0:0|0:0,0:0:0:0:
509,31,68147,2,0,L|406:52,1,104.399996813965,10|0,0:0|0:0,0:0:0:0:
270,204,68406,2,0,L|425:237,1,156.599995220947,2|0,1:2|0:0,0:0:0:0:
450,220,68666,6,0,B|415:211|393:230|393:230|386:251|365:262,1,104.399996813965,8|0,0:0|0:0,0:0:0:0:
140,371,68926,6,0,P|85:344|85:247,1,156.599995220947,2|0,1:2|0:0,0:0:0:0:
102,236,69186,2,0,L|205:258,1,104.399996813965,10|0,0:0|0:0,0:0:0:0:
271,70,69445,2,0,B|278:45|235:9|235:9|166:76|226:141,1,208.79999362793,2|10,1:2|0:0,0:0:0:0:
364,262,69835,6,0,B|430:248|430:248|445:221|445:221|506:208,1,156.599995220947,2|0,0:0|0:0,0:0:0:0:
510,179,70095,1,2,0:0:0:0:
334,341,70225,2,0,P|290:307|281:259,1,104.399996813965,10|0,0:0|0:0,0:0:0:0:
373,31,70484,2,0,P|378:113|319:155,1,156.599995220947,2|0,1:2|0:0,0:0:0:0:
293,141,70744,6,0,B|328:132|350:151|350:151|357:172|378:183,1,104.399996813965,8|0,0:0|0:0,0:0:0:0:
183,31,71004,6,0,B|132:18|111:65|130:68|110:110|56:109,1,156.599995220947,2|0,1:2|0:0,0:0:0:0:
34,101,71264,2,0,P|13:52|37:8,1,104.399996813965,10|0,0:0|0:0,0:0:0:0:
293,141,71523,2,0,B|353:157|353:157|373:185|373:185|431:200,1,156.599995220947,2|0,1:2|0:0,0:0:0:0:
447,225,71783,1,10,0:0:0:0:
203,370,71913,6,0,B|146:321|205:264|205:264|232:297,1,156.599995220947,2|0,0:0|0:0,0:0:0:0:
243,312,72173,1,2,0:0:0:0:
370,123,72303,2,0,P|368:176|325:214,1,104.399996813965,10|0,0:0|0:0,0:0:0:0:
201,32,72562,2,0,P|247:7|302:25,1,104.399996813965,2|0,1:2|1:2,0:0:0:0:
202,229,72822,2,0,P|157:200|145:144,1,104.399996813965,10|0,0:0|0:0,0:0:0:0:
506,274,73082,6,0,B|428:295|428:295|407:332|407:332|320:353,1,208.79999362793,2|8,1:2|0:0,0:0:0:0:
230,154,73471,2,0,B|221:116|259:92|259:92|332:143|284:218,1,208.79999362793,2|0,0:0|1:2,0:0:0:0:
89,353,73861,1,10,0:0:0:0:
83,273,73991,6,0,B|144:253|181:313|154:323|186:376|255:357,1,208.79999362793,0|0,1:2|1:2,0:0:0:0:
11,227,74380,2,0,P|-6:274|20:331,1,104.399996813965,10|0,0:0|0:0,0:0:0:0:
165,115,74640,2,0,P|182:68|156:11,1,104.399996813965,2|0,1:2|1:2,0:0:0:0:
53,136,74900,1,10,0:0:0:0:
149,203,75030,5,2,3:2:0:0:
149,203,75095,1,0,3:2:0:0:
149,203,75160,2,0,L|305:180,1,156.599995220947,0|0,1:2|0:0,0:0:0:0:
320,154,75419,2,0,P|341:204|329:251,1,104.399996813965,8|0,0:0|0:0,0:0:0:0:
489,375,75679,2,0,P|457:299|475:228,1,156.599995220947,2|0,1:2|0:0,0:0:0:0:
497,208,75939,1,10,0:0:0:0:
349,332,76069,6,0,B|289:356|247:308|270:297|226:253|160:280,1,208.79999362793,2|0,0:0|0:0,0:0:0:0:
42,189,76458,2,0,P|28:136|54:97,1,104.399996813965,8|0,0:0|0:0,0:0:0:0:
233,23,76718,1,2,1:2:0:0:
126,160,76848,1,0,1:2:0:0:
51,14,76978,2,0,B|115:36|115:36|128:62|128:62|189:83,1,156.599995220947,10|0,0:0|0:0,0:0:0:0:
204,103,77238,6,0,B|266:132|305:79|282:68|321:20|392:51,1,208.79999362793,2|8,1:2|0:0,0:0:0:0:
512,276,77627,2,0,B|450:305|410:252|433:241|395:193|323:224,1,208.79999362793,2|0,0:0|1:2,0:0:0:0:
179,346,78017,1,10,0:0:0:0:
266,384,78147,2,0,B|246:299|246:299|262:264|262:264|244:183,1,208.79999362793,0|0,1:2|1:2,0:0:0:0:
454,13,78536,6,0,P|462:69|435:109,1,104.399996813965,10|0,0:0|0:0,0:0:0:0:
174,144,78796,2,0,P|218:109|266:112,1,104.399996813965,2|0,1:2|1:2,0:0:0:0:
444,329,79056,2,0,P|391:307|370:264,1,104.399996813965,10|0,0:0|0:0,0:0:0:0:
498,82,79316,6,0,B|431:67|404:128|429:133|404:192|332:180,1,208.79999362793,2|10,1:2|0:0,0:0:0:0:
172,47,79705,1,2,0:0:0:0:
172,47,79835,2,0,B|117:17|99:78|99:78|157:188,1,208.79999362793,0|8,1:2|0:0,0:0:0:0:
101,365,80225,2,0,P|28:312|50:192,1,208.79999362793,0|0,1:2|1:2,0:0:0:0:
239,114,80614,6,0,L|220:219,1,104.399996813965,10|0,0:0|0:0,0:0:0:0:
325,375,80874,1,2,1:2:0:0:
158,260,81004,1,0,1:2:0:0:
332,142,81134,2,0,L|351:247,1,104.399996813965,10|0,0:0|0:0,0:0:0:0:
84,347,81393,6,0,B|67:245|67:245|59:237|59:237|41:125,1,226.199989645386,6|0,1:2|0:0,0:0:0:0:
206,13,81783,6,0,B|188:123|188:123|180:131|180:131|163:233,1,226.199989645386,4|0,1:2|0:0,0:0:0:0:
333,357,82173,6,0,B|316:255|316:255|308:247|308:247|290:136,1,226.199989645386,4|2,1:2|0:0,0:0:0:0:
452,0,82562,6,0,B|434:110|434:110|426:118|426:118|409:220,1,226.199989645386,4|0,1:2|0:0,0:0:0:0:
488,361,82952,5,14,1:2:0:0:
407,326,83082,1,8,0:0:0:0:
300,245,83212,5,8,0:0:0:0:
219,280,83342,1,8,0:0:0:0:
145,362,83471,6,0,P|95:377|32:317,1,139.2,2|2,1:2|0:0,0:0:0:0:
75,167,83991,5,2,0:0:0:0:
75,167,84121,2,0,P|125:152|188:212,1,139.2,2|2,0:0|0:0,0:0:0:0:
219,280,84510,6,0,L|308:263,1,78.2999976104737,6|0,1:2|0:0,0:0:0:0:
315,237,84770,2,0,L|340:241,3,26.0999992034912,8|8|8|8,0:0|0:0|0:0|0:0,0:0:0:0:
390,298,85030,6,0,P|415:237|393:188,1,121.8,12|0,3:2|0:0,0:0:0:0:
372,168,85549,6,0,L|351:62,1,104.399996813965,4|8,1:2|0:1,0:0:0:0:
268,82,85939,1,0,1:2:0:0:
268,82,86069,2,0,L|256:140,1,52.1999984069825,8|0,1:0|0:0,0:0:0:0:
192,193,86329,2,0,P|137:205|95:173,1,104.399996813965,8|8,1:0|0:1,0:0:0:0:
63,108,86718,1,0,1:2:0:0:
63,108,86848,2,0,L|73:55,1,52.1999984069825,8|0,1:0|0:0,0:0:0:0:
154,14,87108,2,0,L|173:116,1,104.399996813965,8|8,1:0|1:0,0:0:0:0:
33,363,87627,6,0,P|12:321|32:268,1,104.399996813965,10|8,1:0|0:1,0:0:0:0:
153,372,88017,1,2,1:2:0:0:
235,323,88147,2,0,L|286:332,1,52.1999984069825,8|0,1:0|0:0,0:0:0:0:
415,225,88406,2,0,L|310:244,1,104.399996813965,10|8,1:0|0:1,0:0:0:0:
449,321,88796,1,2,1:2:0:0:
382,364,88926,2,0,P|369:337|370:308,1,52.1999984069825,8|0,1:0|0:0,0:0:0:0:
460,162,89186,2,0,B|482:142|471:113|471:113|447:131|454:160,1,104.399996813965,10|0,1:0|0:0,0:0:0:0:
