osu file format v14

[General]
AudioFilename: audio.mp3
AudioLeadIn: 0
PreviewTime:49998
Countdown: 0
SampleSet: Soft
StackLeniency: 0.7
Mode: 0
LetterboxInBreaks: 0
WidescreenStoryboard: 1

[Editor]
DistanceSpacing: 1
BeatDivisor: 4
GridSize: 16
TimelineZoom: 2.199999

[Metadata]
Title:Glorious Days (TV Size)
TitleUnicode:Glorious Days (TV Size)
Artist:9-tie
ArtistUnicode:9-tie
Creator:Huzz
Version:Normal!
Source:SELECTION PROJECT
Tags:セレクション・プロジェクト セレプロ serepuro selepro japanese anime jpop j-pop pop idol opening op tv short size 美山鈴音 miyama suzune 矢野妃菜喜 yano hinaki 花野井玲那 hananoi rena 水野朔 mizuno saku 濱栗広海 hamaguri hiromi 南雲希美 nagumo nozomi 今鵜凪咲 imau nagisa 荒井瑠里 arai ruri 八木野土香 yagi nodoka 羊宮妃那 youmiya yomiya hina 淀川逢生 yodogawa ao 岩橋由佳 iwahashi yuka 小泉詩 koizumi uta 白河みずな shirakawa mizuna 山鹿栞 yamaga shiori 花井美春 hanai miharu 当麻まこ toma mako 下地紫野 shimoji shino キューティー cutie kyuutie meep _meep_
BeatmapID:3327726
BeatmapSetID:1627830

[Difficulty]
HPDrainRate:4
CircleSize:3.2
OverallDifficulty:4
ApproachRate:6
SliderMultiplier:1
SliderTickRate:1

[Events]
//Background and Video events
0,0,"9tie.jpg",0,0
Video,807,"glorious days.mp4"
//Break Periods
//Storyboard Layer 0 (Background)
//Storyboard Layer 1 (Fail)
//Storyboard Layer 2 (Pass)
//Storyboard Layer 3 (Foreground)
//Storyboard Layer 4 (Overlay)
//Storyboard Sound Samples

[TimingPoints]
973,259.74025974026,4,2,1,65,1,0
973,-125,4,2,1,65,0,0
17596,-125,4,2,1,85,0,0
17661,-125,4,2,1,65,0,0
19154,-125,4,2,10,65,0,0
25908,-125,4,2,1,75,0,0
25973,-125,4,2,1,65,0,0
26427,-125,4,2,10,65,0,0
28960,-125,4,2,10,5,0,0
29024,-125,4,2,10,65,0,0
33180,-125,4,2,1,65,0,0
33700,-125,4,2,3,65,0,0
33743,-125,4,2,3,5,0,0
33873,-125,4,2,4,65,0,0
33916,-125,4,2,4,5,0,0
34046,-125,4,2,4,65,0,0
34219,-125,4,2,1,65,0,0
35777,-125,4,2,11,65,0,0
42400,-125,4,2,11,5,0,0
42531,-125,4,2,1,75,0,0
42596,-125,4,2,1,65,0,0
50843,-100,4,2,2,75,0,0
51037,-100,4,2,2,5,0,0
51102,-100,4,2,2,75,0,0
52336,-100,4,2,2,5,0,0
52400,-100,4,2,2,75,0,0
53115,-100,4,2,2,5,0,0
53180,-100,4,2,2,75,0,0
55193,-100,4,2,2,5,0,0
55257,-100,4,2,2,75,0,0
63505,-100,4,2,2,5,0,0
63569,-100,4,2,2,75,0,0
64544,-100,4,2,2,5,0,0
64608,-100,4,2,2,75,0,0
65388,-100,4,2,1,75,0,0
66492,-100,4,2,1,5,0,0
66556,-100,4,2,1,75,0,0
67466,-100,4,2,2,75,0,0
67661,-100,4,2,2,5,0,0
67725,-100,4,2,2,75,0,0
69998,-100,4,2,2,5,0,0
70063,-100,4,2,2,75,0,0
71817,-100,4,2,2,5,0,0
71881,-100,4,2,2,75,0,0
75973,-100,4,2,2,5,0,0
76037,-100,4,2,2,75,0,0
77531,-100,4,2,2,5,0,0
77595,-100,4,2,2,75,0,0
79934,-100,4,2,1,75,0,0
82206,-100,4,2,1,5,0,0
82270,-100,4,2,1,75,0,0
82596,-100,4,2,1,5,0,0
82660,-100,4,2,1,75,0,0
82985,-100,4,2,1,5,0,0
83050,-100,4,2,1,75,0,0
84089,-125,4,2,1,65,0,0
86556,-125,4,2,11,65,0,0

[Colours]
Combo1 : 238,181,104
Combo2 : 120,187,241
Combo3 : 186,122,243
Combo4 : 175,226,90
Combo5 : 114,114,241
Combo6 : 236,117,117
Combo7 : 242,182,248
Combo8 : 235,227,88

[HitObjects]
0,154,973,6,0,P|54:195|145:172,1,160,10|0,2:3|2:0,2:0:0:0:
191,116,1752,1,2,2:0:0:0:
263,149,2011,1,2,2:0:0:0:
322,95,2271,1,2,2:0:0:0:
322,95,2401,2,0,P|357:60|429:69,1,120,2|10,2:0|2:3,2:0:0:0:
458,137,3050,6,0,L|489:266,1,120,10|2,2:3|2:0,2:0:0:0:
461,330,3700,1,2,2:0:0:0:
391,365,3960,1,0,2:0:0:0:
391,365,4089,2,0,P|346:355|295:349,1,80,2|2,2:0|2:0,2:0:0:0:
232,354,4609,2,0,P|180:363|138:373,1,80,10|10,2:3|2:3,2:0:0:0:
87,324,5128,6,0,P|43:297|85:205,1,160,10|0,2:3|2:0,2:0:0:0:
148,234,5908,1,2,2:0:0:0:
216,192,6167,2,0,L|232:113,1,80,2|2,2:0|2:0,2:0:0:0:
251,80,6557,1,2,2:0:0:0:
251,80,6687,2,0,P|295:62|339:74,1,80,8|2,2:3|2:0,2:0:0:0:
385,120,7206,5,10,2:3:0:0:
453,76,7466,1,2,2:0:0:0:
453,76,7596,2,0,L|431:-1,2,80,2|2|10,2:0|2:0|2:3,2:0:0:0:
478,106,8245,2,0,P|487:149|469:187,1,80,2|2,2:0|2:0,2:0:0:0:
415,236,8765,2,0,P|402:274|414:322,1,80,10|10,2:3|2:3,2:0:0:0:
460,373,9284,6,0,B|406:361|406:361|359:379|359:379|306:368,1,160,10|10,2:3|2:3,2:0:0:0:
246,314,10063,1,0,2:0:0:0:
176,353,10323,2,0,P|133:355|92:330,1,80,8|0,2:3|2:0,2:0:0:0:
87,306,10713,1,0,2:0:0:0:
87,306,10843,2,0,L|70:227,1,80,8|0,2:3|2:0,2:0:0:0:
32,157,11362,6,0,B|73:124|126:121|126:121|143:147|170:156,1,160,10|8,2:3|2:3,2:0:0:0:
244,127,12141,1,0,2:0:0:0:
307,176,12401,2,0,B|347:185|347:185|383:172,1,80,10|2,2:3|2:0,2:0:0:0:
422,101,12921,1,10,2:3:0:0:
387,28,13180,1,2,2:0:0:0:
307,38,13440,6,0,L|228:21,1,80,10|8,2:3|2:3,2:0:0:0:
156,56,13960,2,0,P|114:70|74:60,1,80,8|10,2:3|2:3,2:0:0:0:
9,29,14479,6,0,L|32:122,1,80,10|8,2:3|2:3,2:0:0:0:
84,163,14998,2,0,L|67:241,1,80,8|10,2:3|2:3,2:0:0:0:
121,300,15518,2,0,L|160:291,1,40,10|8,2:3|2:3,2:0:0:0:
203,288,15778,1,10,2:3:0:0:
203,288,15908,2,0,P|227:329|225:369,2,80,10|10|10,2:3|2:3|2:3,2:0:0:0:
203,247,16557,5,10,2:3:0:0:
383,122,17596,6,0,B|396:45|396:45|373:10,2,120,12|8|10,2:3|2:3|2:3,2:0:0:0:
427,188,18635,2,0,P|445:224|443:266,1,80,2|2,2:0|2:0,2:0:0:0:
420,295,19024,1,2,2:0:0:0:
420,295,19154,2,0,L|326:314,1,80,10|10,2:0|2:3,2:0:0:0:
266,284,19674,6,0,P|235:250|237:173,2,120,8|8|10,2:3|2:3|2:3,2:0:0:0:
228,354,20713,2,0,L|148:386,1,80,2|0,2:0|2:0,2:0:0:0:
119,377,21102,1,2,2:0:0:0:
119,377,21232,2,0,B|85:359|85:359|66:320,1,80,10|2,2:0|2:3,2:0:0:0:
109,253,21752,6,0,B|120:198|120:198|101:151|101:151|113:96,1,160,10|8,2:3|2:0,2:0:0:0:
161,35,22531,2,0,P|187:30|216:36,1,40,10|2,2:3|2:0,2:0:0:0:
238,43,22791,2,0,L|358:-2,1,120,2|2,2:0|2:0,2:0:0:0:
428,92,23570,2,0,L|377:112,1,40,10|10,2:3|2:3,2:0:0:0:
354,124,23830,2,0,P|336:174|378:225,1,120,10|10,2:3|2:3,2:0:0:0:
478,281,24609,1,10,2:3:0:0:
431,346,24869,6,0,L|341:335,1,80,2|2,2:0|2:0,2:0:0:0:
316,346,25258,1,10,2:3:0:0:
316,346,25388,2,0,P|323:370|326:395,2,40,10|2|2,2:0|2:0|2:0,2:0:0:0:
251,297,25908,6,0,P|209:309|166:210,1,160,14|8,2:3|2:0,2:0:0:0:
208,161,26687,2,0,P|205:141|187:118,1,40,10|2,2:3|2:0,2:0:0:0:
159,105,26947,2,0,L|74:137,1,80,2|2,2:0|2:0,2:0:0:0:
48,141,27336,1,2,2:0:0:0:
48,141,27466,2,0,P|17:117|0:76,1,80,10|10,2:0|2:3,2:0:0:0:
42,11,27985,6,0,B|99:-5|99:-5|212:34,1,160,10|8,2:3|2:0,2:0:0:0:
267,61,28765,2,0,P|314:64|351:43,2,80,10|2|2,2:3|2:0|2:0,2:0:0:0:
236,85,29414,1,2,2:0:0:0:
236,85,29544,1,10,2:0:0:0:
186,148,29804,1,10,2:3:0:0:
202,226,30063,6,0,L|221:319,1,80,10|2,2:3|2:0,2:0:0:0:
262,371,30583,2,0,B|324:384|315:352|379:363,2,120,10|2|0,2:0|2:0|2:0,2:0:0:0:
182,383,31622,1,8,2:0:0:0:
112,342,31882,2,0,L|65:349,1,40,10|8,2:3|2:3,2:0:0:0:
32,343,32141,6,0,P|14:302|22:267,1,80,10|2,2:3|2:0,2:0:0:0:
50,195,32661,2,0,P|69:163|67:105,1,80,10|10,2:0|2:3,2:0:0:0:
51,43,33180,2,0,L|-7:31,2,53.33333333333333,6|2|2,2:3|2:0|2:0,2:0:0:0:
94,74,33700,2,0,L|156:60,2,53.33333333333333,10|10|6,2:3|2:3|2:3,2:0:0:0:
71,121,34219,1,12,2:3:0:0:
276,244,34998,6,0,L|322:234,2,40,2|2|2,2:0|2:0|2:0,2:0:0:0:
211,291,35518,2,0,L|164:281,2,40,2|2|10,2:0|2:0|2:0,2:0:0:0:
254,357,36037,2,0,P|301:373|338:361,1,80,2|2,2:0|2:0,2:0:0:0:
387,99,37076,6,0,L|377:52,2,40,2|2|2,2:0|2:0|2:0,2:0:0:0:
452,146,37596,2,0,P|474:145|501:153,2,40,2|2|10,2:0|2:0|2:0,2:0:0:0:
408,213,38115,2,0,P|375:226|321:213,1,80,2|2,2:0|2:0,2:0:0:0:
141,62,39154,6,0,P|122:55|98:53,2,40,2|2|2,2:0|2:0|2:0,2:0:0:0:
217,85,39674,2,0,P|232:72|245:53,2,40,2|2|10,2:0|2:0|2:0,2:0:0:0:
179,155,40193,1,2,2:0:0:0:
232,214,40453,6,0,P|319:199|364:246,2,160,2|10|2,2:0|2:0|2:0,2:0:0:0:
104,311,42011,2,0,P|64:328|-2:279,1,120,10|0,2:0|2:0,2:0:0:0:
0,251,42531,2,0,L|16:172,1,80,12|8,2:3|2:0,2:0:0:0:
28,137,42921,1,8,2:0:0:0:
28,137,43050,1,8,2:3:0:0:
88,84,43310,6,0,L|78:37,2,40,10|2|10,2:0|2:0|2:3,2:0:0:0:
137,147,43830,2,0,P|160:154|190:150,1,40,8|10,2:0|2:0,2:0:0:0:
213,141,44089,1,10,2:3:0:0:
278,95,44349,1,10,2:0:0:0:
341,143,44609,6,0,L|324:221,1,80,8|8,2:3|2:0,2:0:0:0:
324,265,44998,1,8,2:0:0:0:
324,265,45128,1,8,2:3:0:0:
383,318,45388,2,0,L|429:308,2,40,10|2|10,2:0|2:0|2:3,2:0:0:0:
323,372,45908,2,0,P|303:381|276:381,1,40,10|10,2:0|2:0,2:0:0:0:
249,364,46167,2,0,P|213:347|170:356,1,80,10|10,2:3|2:0,2:0:0:0:
103,315,46687,5,14,2:3:0:0:
134,241,46947,1,10,2:3:0:0:
96,170,47206,1,10,2:3:0:0:
137,101,47466,1,10,2:3:0:0:
108,26,47726,6,0,L|189:2,1,80,12|8,2:3|2:3,2:0:0:0:
225,24,48115,1,0,2:0:0:0:
225,24,48245,2,0,L|302:45,1,80,14|10,2:3|2:3,2:0:0:0:
382,36,48765,2,0,L|392:82,1,40,14|8,2:3|2:3,2:0:0:0:
400,113,49024,2,0,L|410:159,1,40,12|8,2:3|2:3,2:0:0:0:
415,191,49284,2,0,P|390:215|345:225,1,80,14|10,2:3|2:3,2:0:0:0:
284,174,49804,5,10,2:3:0:0:
121,310,50843,6,0,P|83:335|23:332,2,100,14|10|10,2:3|2:0|2:3,2:0:0:0:
161,229,51622,1,10,2:0:0:0:
161,229,51752,2,0,L|127:129,1,100,2|2,2:0|2:0,2:0:0:0:
145,87,52141,2,0,P|176:57|244:64,1,100,10|10,2:0|2:3,2:0:0:0:
318,105,52661,2,0,L|382:90,1,50,10|0,2:0|2:0,2:0:0:0:
408,65,52921,6,0,B|449:37|449:37|499:50,2,100,10|10|10,2:3|2:0|2:3,2:0:0:0:
394,167,53700,1,10,2:0:0:0:
394,167,53830,2,0,P|406:220|418:282,1,100,2|2,2:0|2:0,2:0:0:0:
408,314,54219,1,10,2:0:0:0:
327,373,54479,1,10,2:3:0:0:
249,309,54739,2,0,L|199:298,1,50,10|0,2:0|2:0,2:0:0:0:
154,318,54998,6,0,P|109:332|59:312,2,100,10|10|10,2:3|2:0|2:3,2:0:0:0:
176,223,55778,1,10,2:0:0:0:
176,223,55908,2,0,P|165:170|150:109,1,100,2|2,2:0|2:0,2:0:0:0:
158,75,56297,1,10,2:0:0:0:
76,17,56557,2,0,P|26:19|-1:72,1,100,10|10,2:3|2:0,2:0:0:0:
41,147,57076,6,0,P|29:194|21:246,1,100,10|10,2:3|2:0,2:0:0:0:
27,294,57466,2,0,P|73:328|124:323,1,100,2|0,2:0|2:0,2:0:0:0:
163,309,57856,1,10,2:0:0:0:
163,309,57985,1,8,2:3:0:0:
244,376,58245,1,8,2:3:0:0:
244,376,58375,2,0,L|356:350,1,100,10|10,2:0|2:3,2:0:0:0:
417,288,58895,2,0,P|423:267|421:235,1,50,10|2,2:0|2:0,2:0:0:0:
389,200,59154,6,0,P|338:175|284:154,2,100,8|8|10,2:3|2:0|2:3,2:0:0:0:
482,158,59934,1,10,2:0:0:0:
482,158,60063,2,0,P|503:128|490:59,1,100,2|0,2:3|2:0,2:0:0:0:
454,40,60453,1,8,2:0:0:0:
358,8,60713,2,0,P|308:19|260:28,1,100,10|10,2:3|2:0,2:0:0:0:
188,98,61232,6,0,P|137:110|83:91,1,100,10|8,2:3|2:0,2:0:0:0:
58,68,61622,1,2,2:0:0:0:
58,68,61752,1,8,2:3:0:0:
4,153,62011,1,10,2:0:0:0:
4,153,62141,2,0,P|23:210|38:260,1,100,8|8,2:3|2:3,2:0:0:0:
30,298,62531,2,0,P|81:282|131:316,1,100,10|0,2:0|2:0,2:0:0:0:
186,377,63050,1,10,2:0:0:0:
273,328,63310,6,0,P|282:277|296:218,2,100,10|8|8,2:3|2:0|2:3,2:0:0:0:
356,383,64089,2,0,P|383:383|408:368,1,50,10|2,2:0|2:0,2:0:0:0:
425,327,64349,2,0,P|413:276|401:217,1,100,10|10,2:3|2:0,2:0:0:0:
461,146,64869,1,10,2:3:0:0:
421,54,65128,1,10,2:0:0:0:
322,69,65388,6,0,P|270:56|212:45,1,100,14|8,2:3|2:0,2:0:0:0:
185,78,65778,1,2,2:0:0:0:
185,78,65908,2,0,P|160:79|135:85,2,50,14|8|8,2:3|2:3|2:0,2:0:0:0:
215,118,66297,2,0,B|230:149|230:149|213:217,1,100,12|8,2:3|2:3,2:0:0:0:
203,261,66687,1,10,2:0:0:0:
114,308,66947,1,10,2:3:0:0:
40,241,67206,2,0,P|28:213|28:183,1,50,10|8,2:0|2:0,2:0:0:0:
55,152,67466,6,0,B|40:92|40:92|65:52,2,100,14|10|10,2:3|2:0|2:3,2:0:0:0:
139,205,68245,1,10,2:0:0:0:
139,205,68375,2,0,P|188:188|246:214,1,100,2|2,2:0|2:0,2:0:0:0:
268,236,68765,1,10,2:0:0:0:
335,309,69024,1,10,2:3:0:0:
428,273,69284,2,0,L|441:210,1,50,10|0,2:0|2:0,2:0:0:0:
423,176,69544,6,0,P|469:152|518:130,2,100,10|10|10,2:3|2:0|2:3,2:0:0:0:
350,115,70323,1,10,2:0:0:0:
350,115,70453,2,0,P|318:99|241:113,1,100,2|2,2:0|2:0,2:0:0:0:
219,139,70843,1,10,2:0:0:0:
125,103,71102,1,10,2:3:0:0:
57,177,71362,2,0,L|70:239,1,50,10|0,2:0|2:0,2:0:0:0:
86,272,71622,6,0,P|43:304|-16:292,2,100,10|10|10,2:3|2:0|2:3,2:0:0:0:
177,226,72401,1,10,2:0:0:0:
177,226,72531,2,0,L|291:255,1,100,2|2,2:0|2:0,2:0:0:0:
322,262,72921,1,10,2:0:0:0:
410,308,73180,1,10,2:3:0:0:
488,246,73440,1,10,2:0:0:0:
465,148,73700,6,0,P|415:135|355:124,1,100,10|8,2:3|2:0,2:0:0:0:
323,145,74089,1,2,2:0:0:0:
323,145,74219,2,0,P|278:171|215:163,1,100,8|10,2:3|2:0,2:0:0:0:
203,127,74609,2,0,P|193:79|182:29,1,100,8|8,2:3|2:3,2:0:0:0:
142,0,74998,1,10,2:0:0:0:
53,46,75258,1,10,2:3:0:0:
76,143,75518,2,0,P|82:175|77:204,1,50,10|2,2:0|2:0,2:0:0:0:
46,230,75778,6,0,B|24:261|24:261|41:339,2,100,8|8|10,2:3|2:0|2:3,2:0:0:0:
147,210,76557,1,10,2:0:0:0:
147,210,76687,2,0,B|232:234|197:256|283:281,1,150,2|8,2:0|2:0,2:0:0:0:
362,226,77336,2,0,P|358:176|349:126,1,100,10|10,2:3|2:0,2:0:0:0:
272,62,77856,6,0,P|241:52|183:85,1,100,10|8,2:3|2:0,2:0:0:0:
140,105,78245,2,0,L|30:81,1,100,2|0,2:0|2:0,2:0:0:0:
1,113,78635,2,0,P|15:165|24:222,1,100,10|8,2:0|2:3,2:0:0:0:
3,308,79154,1,10,2:0:0:0:
71,380,79414,1,10,2:3:0:0:
162,338,79674,1,10,2:0:0:0:
257,366,79934,6,0,P|311:376|352:339,1,100,14|10,2:3|2:0,2:0:0:0:
368,306,80323,2,0,B|413:283|413:283|464:296,1,100,2|0,2:0|2:0,2:0:0:0:
512,317,80713,1,8,2:0:0:0:
512,317,80843,2,0,L|488:207,1,100,8|8,2:3|2:3,2:0:0:0:
511,173,81232,1,10,2:0:0:0:
433,109,81492,1,10,2:3:0:0:
346,160,81752,1,10,2:0:0:0:
266,99,82011,6,0,P|259:48|232:3,1,100,14|0,2:3|2:0,2:0:0:0:
184,3,82401,2,0,B|127:18|150:27|93:43,1,100,14|0,2:3|2:0,2:0:0:0:
57,79,82791,2,0,P|43:138|33:188,1,100,14|0,2:3|2:0,2:0:0:0:
64,217,83180,1,14,2:3:0:0:
157,266,83440,1,8,2:0:0:0:
157,266,83570,2,0,P|161:291|173:314,2,50,10|8|8,2:0|2:0|2:0,2:0:0:0:
223,191,84089,6,0,B|249:203|249:203|308:190,2,80,2|2|2,2:0|2:0|2:0,2:0:0:0:
193,163,84739,2,0,P|179:125|189:80,1,80,2|2,2:0|2:0,2:0:0:0:
209,55,85128,1,10,2:3:0:0:
282,23,85388,2,0,L|328:34,1,40,2|0,2:0|2:0,2:0:0:0:
359,43,85648,1,2,2:0:0:0:
417,174,86167,6,0,B|426:217|426:217|417:248|417:248|427:292,1,120,14|2,2:3|3:2,2:0:0:0:
437,329,86687,2,0,P|474:347|518:343,2,80,10|10|8,3:2|3:2|2:0,2:0:0:0:
361,355,87466,2,0,L|267:374,2,80,10|8|8,3:2|3:2|2:0,2:0:0:0:
353,275,88245,6,0,P|322:247|274:247,1,80,10|8,3:2|2:0,2:0:0:0:
253,265,88635,1,2,3:2:0:0:
253,265,88765,2,0,L|236:186,2,80,8|10|8,3:2|3:2|2:0,2:0:0:0:
197,322,89544,1,8,3:2:0:0:
121,296,89804,1,10,3:2:0:0:
