osu file format v14

[General]
AudioFilename: audio.mp3
AudioLeadIn: 0
PreviewTime:49998
Countdown: 0
SampleSet: Soft
StackLeniency: 0.7
Mode: 0
LetterboxInBreaks: 0
WidescreenStoryboard: 1

[Editor]
DistanceSpacing: 0.2
BeatDivisor: 4
GridSize: 32
TimelineZoom: 2.599999

[Metadata]
Title:Glorious Days (TV Size)
TitleUnicode:Glorious Days (TV Size)
Artist:9-tie
ArtistUnicode:9-tie
Creator:Huzz
Version:Meep's Insane!
Source:SELECTION PROJECT
Tags:セレクション・プロジェクト セレプロ serepuro selepro japanese anime jpop j-pop pop idol opening op tv short size 美山鈴音 miyama suzune 矢野妃菜喜 yano hinaki 花野井玲那 hananoi rena 水野朔 mizuno saku 濱栗広海 hamaguri hiromi 南雲希美 nagumo nozomi 今鵜凪咲 imau nagisa 荒井瑠里 arai ruri 八木野土香 yagi nodoka 羊宮妃那 youmiya yomiya hina 淀川逢生 yodogawa ao 岩橋由佳 iwahashi yuka 小泉詩 koizumi uta 白河みずな shirakawa mizuna 山鹿栞 yamaga shiori 花井美春 hanai miharu 当麻まこ toma mako 下地紫野 shimoji shino キューティー cutie kyuutie meep _meep_
BeatmapID:3356980
BeatmapSetID:1627830

[Difficulty]
HPDrainRate:5
CircleSize:3.7
OverallDifficulty:8
ApproachRate:9.1
SliderMultiplier:1.4
SliderTickRate:1

[Events]
//Background and Video events
0,0,"9tie.jpg",0,0
Video,807,"glorious days.mp4"
//Break Periods
//Storyboard Layer 0 (Background)
//Storyboard Layer 1 (Fail)
//Storyboard Layer 2 (Pass)
//Storyboard Layer 3 (Foreground)
//Storyboard Layer 4 (Overlay)
//Storyboard Sound Samples

[TimingPoints]
973,259.74025974026,4,2,1,65,1,0
973,-83.3333333333333,4,2,1,65,0,0
1946,-83.3333333333333,4,2,1,5,0,0
2011,-83.3333333333333,4,2,1,65,0,0
3244,-83.3333333333333,4,2,1,5,0,0
3310,-83.3333333333333,4,2,1,65,0,0
6102,-83.3333333333333,4,2,1,5,0,0
6167,-83.3333333333333,4,2,1,65,0,0
7400,-83.3333333333333,4,2,1,5,0,0
7466,-83.3333333333333,4,2,1,65,0,0
9218,-83.3333333333333,4,2,1,5,0,0
9284,-76.9230769230769,4,2,1,65,0,0
10257,-76.9230769230769,4,2,1,5,0,0
10323,-76.9230769230769,4,2,1,65,0,0
11556,-76.9230769230769,4,2,1,5,0,0
11622,-76.9230769230769,4,2,1,65,0,0
14413,-76.9230769230769,4,2,1,5,0,0
14479,-76.9230769230769,4,2,1,65,0,0
17270,-76.9230769230769,4,2,1,5,0,0
17336,-76.9230769230769,4,2,1,65,0,0
17596,-90.9090909090909,4,2,1,85,0,0
17661,-90.9090909090909,4,2,1,65,0,0
18115,-100,4,2,10,65,0,0
18829,-100,4,2,10,5,0,0
18895,-100,4,2,10,65,0,0
20907,-100,4,2,10,5,0,0
20973,-100,4,2,10,65,0,0
24803,-100,4,2,10,5,0,0
24869,-100,4,2,10,65,0,0
25842,-100,4,2,10,5,0,0
25908,-100,4,2,1,75,0,0
26167,-100,4,2,1,65,0,0
26427,-100,4,2,10,65,0,0
26621,-100,4,2,10,5,0,0
26687,-100,4,2,10,65,0,0
27141,-100,4,2,10,5,0,0
27206,-100,4,2,10,65,0,0
27660,-100,4,2,10,5,0,0
27726,-100,4,2,10,65,0,0
28959,-100,4,2,10,5,0,0
29024,-100,4,2,10,65,0,0
30257,-100,4,2,10,5,0,0
30323,-100,4,2,10,65,0,0
32184,-100,4,2,10,35,0,0
32401,-100,4,2,10,65,0,0
32444,-100,4,2,10,35,0,0
32661,-100,4,2,10,65,0,0
32704,-100,4,2,10,35,0,0
32921,-100,4,2,10,65,0,0
32964,-100,4,2,10,35,0,0
33180,-100,4,2,1,65,0,0
33700,-100,4,2,3,65,0,0
33743,-100,4,2,3,5,0,0
33873,-100,4,2,4,65,0,0
34219,-100,4,2,1,65,0,0
34998,-125,4,2,1,65,0,0
35778,-125,4,2,11,65,0,0
42531,-90.9090909090909,4,2,1,75,0,0
42596,-90.9090909090909,4,2,1,65,0,0
43570,-86.9565217391304,4,2,1,65,0,0
43764,-86.9565217391304,4,2,1,5,0,0
43830,-86.9565217391304,4,2,1,65,0,0
44609,-83.3333333333333,4,2,1,65,0,0
45648,-80,4,2,1,65,0,0
45842,-80,4,2,1,5,0,0
45908,-80,4,2,1,65,0,0
46167,-76.9230769230769,4,2,1,65,0,0
46621,-76.9230769230769,4,2,1,5,0,0
46687,-74.0740740740741,4,2,1,65,0,0
47141,-74.0740740740741,4,2,1,5,0,0
47206,-74.0740740740741,4,2,1,65,0,0
48699,-74.0740740740741,4,2,1,5,0,0
48765,-74.0740740740741,4,2,1,65,0,0
50063,-76.9230769230769,4,2,1,65,0,0
50257,-76.9230769230769,4,2,1,5,0,0
50323,-76.9230769230769,4,2,1,65,0,0
50387,-76.9230769230769,4,2,3,65,0,0
50452,-76.9230769230769,4,2,4,65,0,0
50583,-76.9230769230769,4,2,1,65,0,0
50777,-76.9230769230769,4,2,1,5,0,0
50843,-76.9230769230769,4,2,2,75,0,1
51037,-76.9230769230769,4,2,2,5,0,1
51102,-76.9230769230769,4,2,2,75,0,1
52595,-76.9230769230769,4,2,2,5,0,1
52661,-76.9230769230769,4,2,2,75,0,1
53115,-76.9230769230769,4,2,2,5,0,1
53180,-76.9230769230769,4,2,2,75,0,1
54673,-76.9230769230769,4,2,2,5,0,1
54739,-76.9230769230769,4,2,2,75,0,1
55192,-76.9230769230769,4,2,2,5,0,1
55258,-76.9230769230769,4,2,2,75,0,1
55712,-76.9230769230769,4,2,2,5,0,1
55777,-76.9230769230769,4,2,2,75,0,1
57011,-76.9230769230769,4,2,2,5,0,1
57076,-76.9230769230769,4,2,2,75,0,1
59868,-76.9230769230769,4,2,2,5,0,1
59934,-76.9230769230769,4,2,2,75,0,1
63244,-76.9230769230769,4,2,2,5,0,1
63310,-76.9230769230769,4,2,2,75,0,1
63504,-76.9230769230769,4,2,2,5,0,1
63570,-76.9230769230769,4,2,2,75,0,1
65388,-76.9230769230769,4,2,1,75,0,1
66361,-76.9230769230769,4,2,1,5,0,1
66557,-76.9230769230769,4,2,1,75,0,1
67401,-76.9230769230769,4,2,1,75,0,0
67466,-76.9230769230769,4,2,2,75,0,1
67660,-76.9230769230769,4,2,2,5,0,1
67726,-76.9230769230769,4,2,2,75,0,1
68179,-76.9230769230769,4,2,2,5,0,1
68245,-76.9230769230769,4,2,2,75,0,1
69218,-76.9230769230769,4,2,2,5,0,1
69284,-76.9230769230769,4,2,2,75,0,1
69738,-76.9230769230769,4,2,2,5,0,1
69804,-76.9230769230769,4,2,2,75,0,1
71296,-76.9230769230769,4,2,2,5,0,1
71362,-76.9230769230769,4,2,2,75,0,1
71816,-76.9230769230769,4,2,2,5,0,1
71882,-76.9230769230769,4,2,2,75,0,1
72335,-76.9230769230769,4,2,2,5,0,1
72401,-76.9230769230769,4,2,2,75,0,1
73634,-76.9230769230769,4,2,2,5,0,1
73700,-76.9230769230769,4,2,2,75,0,1
76491,-76.9230769230769,4,2,2,5,0,1
76556,-76.9230769230769,4,2,2,75,0,1
79868,-76.9230769230769,4,2,2,5,0,1
79934,-76.9230769230769,4,2,1,75,0,1
81946,-76.9230769230769,4,2,1,5,0,1
82011,-76.9230769230769,4,2,1,75,0,1
82205,-76.9230769230769,4,2,1,5,0,1
82270,-76.9230769230769,4,2,1,75,0,1
82595,-76.9230769230769,4,2,1,5,0,1
82660,-76.9230769230769,4,2,1,75,0,1
82985,-76.9230769230769,4,2,1,5,0,1
83050,-76.9230769230769,4,2,1,75,0,1
84089,-76.9230769230769,4,2,1,65,0,1
86102,-76.9230769230769,4,2,1,5,0,1
86167,-90.9090909090909,4,2,1,65,0,0
86426,-90.9090909090909,4,2,11,65,0,0

[Colours]
Combo1 : 238,181,104
Combo2 : 120,187,241
Combo3 : 186,122,243
Combo4 : 175,226,90
Combo5 : 114,114,241
Combo6 : 236,117,117
Combo7 : 242,182,248
Combo8 : 235,227,88

[HitObjects]
399,67,973,6,0,B|345:115|377:175|390:203|452:196|452:196|470:147|440:131,1,252.00000000000003,10|0,2:3|2:0,2:0:0:0:
296,121,1492,2,0,P|301:171|321:212,1,84.00000000000003,0|0,2:0|2:0,2:0:0:0:
377,285,1752,2,0,P|313:297|269:344,1,126.00000000000004,2|0,2:0|2:0,2:0:0:0:
254,368,2011,6,0,P|206:347|142:350,1,84.00000000000003,2|8,2:0|2:3,2:0:0:0:
91,262,2271,1,2,2:0:0:0:
17,332,2401,2,0,B|51:359|51:359|213:339,1,168,2|0,2:0|2:0,2:0:0:0:
254,368,2791,2,0,L|360:356,1,84.00000000000003,8|0,2:3|2:0,2:0:0:0:
411,294,3050,6,0,B|398:202|398:202|363:251,1,126.00000000000004,10|0,2:3|2:0,2:0:0:0:
367,243,3310,1,0,2:0:0:0:
297,305,3440,2,0,P|281:262|282:222,1,84.00000000000003,2|0,2:0|2:0,2:0:0:0:
212,151,3700,2,0,P|193:192|188:243,1,84.00000000000003,2|8,2:0|2:3,2:0:0:0:
206,313,3960,1,2,2:0:0:0:
109,165,4089,6,0,L|26:157,1,84.00000000000003,2|8,2:0|2:3,2:0:0:0:
122,305,4349,2,0,L|211:313,1,84.00000000000003,2|0,2:0|2:0,2:0:0:0:
295,159,4609,2,0,L|212:151,1,84.00000000000003,10|0,2:3|2:0,2:0:0:0:
297,305,4869,2,0,L|386:313,1,84.00000000000003,10|0,2:3|2:0,2:0:0:0:
476,236,5128,6,0,B|512:140|430:79|430:79|383:126|411:165,1,252.00000000000003,10|8,2:3|2:3,2:0:0:0:
366,229,5648,2,0,P|326:197|302:145,1,84.00000000000003,0|0,2:0|2:0,2:0:0:0:
220,21,5908,2,0,P|275:26|247:89,1,126.00000000000004,2|0,2:0|2:0,2:0:0:0:
253,99,6167,6,0,P|224:162|227:196,1,84.00000000000003,2|0,2:0|2:0,2:0:0:0:
255,259,6427,1,2,2:0:0:0:
196,359,6557,2,0,P|282:335|362:342,1,168,2|0,2:0|2:0,2:0:0:0:
460,363,6947,2,0,P|452:318|437:276,1,84.00000000000003,2|8,2:0|2:3,2:0:0:0:
314,185,7206,6,0,L|464:169,1,126.00000000000004,10|0,2:3|2:0,2:0:0:0:
463,186,7466,1,2,2:0:0:0:
380,95,7596,2,0,P|341:91|299:105,1,84.00000000000003,2|0,2:0|2:0,2:0:0:0:
320,266,7856,2,0,P|358:269|405:251,1,84.00000000000003,2|0,2:0|2:0,2:0:0:0:
485,197,8115,1,10,2:3:0:0:
461,109,8245,6,0,L|478:24,1,84.00000000000003,2|8,2:0|2:3,2:0:0:0:
295,21,8505,2,0,L|305:114,1,84.00000000000003,2|0,2:0|2:0,2:0:0:0:
395,256,8765,6,0,L|410:142,1,84.00000000000003,10|0,2:3|2:0,2:0:0:0:
202,122,9024,2,0,L|224:281,1,126.00000000000004,10|0,2:3|2:0,2:0:0:0:
292,302,9284,6,0,B|216:259|216:259|107:298,1,182.00000000000003,10|0,2:3|2:0,2:0:0:0:
43,354,9674,1,0,2:0:0:0:
144,376,9804,2,0,P|144:326|118:281,1,91.00000000000003,10|0,2:3|2:0,2:0:0:0:
2,242,10063,2,0,L|142:195,1,136.5,0|0,2:0|2:0,2:0:0:0:
154,187,10323,6,0,P|153:141|123:98,1,91.00000000000003,8|0,2:3|2:0,2:0:0:0:
23,98,10583,1,0,2:0:0:0:
88,24,10713,2,0,B|177:-11|181:68|271:33,1,182.00000000000003,0|0,2:0|2:0,2:0:0:0:
406,3,11102,2,0,L|410:72,3,45.50000000000001,0|0|0|0,2:0|2:0|2:0|2:0,2:0:0:0:
386,68,11362,6,0,B|369:160|369:160|387:220,1,136.5,10|0,2:3|2:0,2:0:0:0:
410,217,11622,1,0,2:0:0:0:
265,149,11752,2,0,L|288:251,1,91.00000000000003,2|8,2:0|2:3,2:0:0:0:
395,317,12011,2,0,L|516:293,1,91.00000000000003,2|0,2:0|2:0,2:0:0:0:
264,383,12271,1,2,2:0:0:0:
148,292,12401,6,0,P|148:246|161:203,1,91.00000000000003,10|0,2:3|2:0,2:0:0:0:
79,42,12661,2,0,P|89:88|84:133,1,91.00000000000003,2|0,2:0|2:0,2:0:0:0:
255,171,12921,2,0,P|224:137|185:114,1,91.00000000000003,10|0,2:3|2:0,2:0:0:0:
23,228,13180,1,2,2:0:0:0:
62,263,13245,1,0,2:0:0:0:
104,277,13310,2,0,P|133:288|175:294,1,45.50000000000001,0|0,2:0|2:0,2:0:0:0:
252,296,13440,6,0,P|284:319|314:381,1,91.00000000000003,10|0,2:3|2:0,2:0:0:0:
482,241,13700,2,0,P|446:268|424:307,1,91.00000000000003,8|2,2:3|2:0,2:0:0:0:
208,218,13960,2,0,P|279:214|327:241,1,91.00000000000003,8|0,2:3|2:0,2:0:0:0:
512,158,14219,2,0,P|442:170|376:220,1,136.5,10|0,2:3|2:0,2:0:0:0:
373,237,14479,6,0,L|376:140,1,91.00000000000003,10|0,2:3|2:0,2:0:0:0:
261,46,14739,2,0,L|257:143,1,91.00000000000003,8|2,2:3|2:0,2:0:0:0:
157,306,14998,2,0,L|160:214,1,91.00000000000003,8|0,2:3|2:0,2:0:0:0:
73,3,15258,2,0,L|70:94,1,91.00000000000003,10|0,2:3|2:0,2:0:0:0:
49,126,15453,1,0,2:0:0:0:
49,126,15518,6,0,P|72:130|95:139,3,45.50000000000001,10|0|8|0,2:3|2:0|2:3|2:0,2:0:0:0:
139,209,15778,2,0,P|161:199|185:195,1,45.50000000000001,10|0,2:3|2:0,2:0:0:0:
228,116,15908,2,0,P|247:131|262:149,3,45.50000000000001,10|0|10|8,2:3|2:0|2:3|2:3,2:0:0:0:
357,142,16167,2,0,P|353:166|345:188,3,45.50000000000001,10|8|10|10,2:3|2:3|2:3|2:3,2:0:0:0:
394,276,16427,6,0,P|360:281|331:277,1,45.50000000000001,10|10,2:3|2:3,2:0:0:0:
260,244,16557,1,10,2:3:0:0:
260,244,16947,6,0,L|247:180,1,45.50000000000001,2|0,2:0|2:0,2:0:0:0:
239,176,17076,2,0,L|229:333,1,136.5,0|0,2:0|2:0,2:0:0:0:
229,335,17336,1,2,2:0:0:0:
331,265,17466,1,2,2:0:0:0:
161,136,17596,6,0,P|222:92|298:113,1,154,12|0,2:3|2:0,2:0:0:0:
239,176,17985,1,8,2:3:0:0:
364,55,18115,2,0,P|382:104|376:149,1,70.00000000000001,8|0,2:0|2:0,2:0:0:0:
354,260,18375,5,10,2:3:0:0:
431,204,18505,1,0,2:0:0:0:
354,260,18635,2,0,B|298:267|298:267|246:244,1,105,2|0,2:0|2:0,2:0:0:0:
221,230,18895,1,0,2:0:0:0:
218,339,19024,1,0,2:0:0:0:
129,297,19154,2,0,L|122:219,1,70.00000000000001,10|8,2:0|2:3,2:0:0:0:
228,160,19414,2,0,L|218:252,1,70.00000000000001,10|8,2:3|2:3,2:0:0:0:
42,273,19674,6,0,P|33:213|87:128,1,140,8|0,2:3|2:0,2:0:0:0:
122,227,20063,1,8,2:3:0:0:
69,60,20193,2,0,P|134:94|147:117,1,70.00000000000001,8|0,2:0|2:0,2:0:0:0:
42,273,20453,5,10,2:3:0:0:
66,143,20583,1,0,2:0:0:0:
54,282,20713,2,0,L|180:263,1,105,2|0,2:0|2:0,2:0:0:0:
185,281,20973,1,0,2:0:0:0:
275,324,21102,1,0,2:0:0:0:
332,238,21232,2,0,P|336:190|331:146,1,70.00000000000001,10|8,2:0|2:3,2:0:0:0:
238,150,21492,2,0,P|236:114|240:78,1,70.00000000000001,2|8,2:3|2:3,2:0:0:0:
420,0,21752,6,0,L|434:157,1,140,10|0,2:3|2:0,2:0:0:0:
334,168,22141,1,8,2:3:0:0:
428,240,22271,2,0,P|462:236|493:220,1,70.00000000000001,8|0,2:0|2:0,2:0:0:0:
338,316,22531,5,10,2:3:0:0:
329,148,22661,1,2,2:0:0:0:
226,250,22791,2,0,L|208:331,2,70.00000000000001,2|8|0,2:0|2:3|2:0,2:0:0:0:
226,98,23180,2,0,L|211:23,2,70.00000000000001,2|8|8,2:0|2:0|2:3,2:0:0:0:
338,316,23570,5,10,2:3:0:0:
329,148,23700,1,10,2:3:0:0:
457,226,23830,2,0,P|468:259|468:297,2,70.00000000000001,10|0|0,2:3|2:0|2:0,2:0:0:0:
433,92,24219,2,0,P|444:58|441:15,2,70.00000000000001,10|8|0,2:3|2:0|2:0,2:0:0:0:
297,215,24609,2,0,L|191:178,1,105,10|0,2:3|2:0,2:0:0:0:
175,178,24869,6,0,L|138:184,2,35,2|0|8,2:0|2:0|2:3,2:0:0:0:
103,96,25128,2,0,P|142:87|191:86,1,70.00000000000001,2|10,2:0|2:3,2:0:0:0:
206,271,25388,2,0,P|167:280|118:281,1,70.00000000000001,10|2,2:0|2:0,2:0:0:0:
13,202,25648,2,0,L|117:186,1,105,2|0,2:0|2:0,2:0:0:0:
140,183,25908,5,14,2:3:0:0:
155,171,26167,2,0,P|198:159|247:168,1,70.00000000000001,0|8,2:0|2:3,2:0:0:0:
309,245,26427,2,0,L|300:368,1,105,8|0,2:0|2:0,2:0:0:0:
306,383,26687,1,10,2:3:0:0:
218,313,26817,1,0,2:0:0:0:
387,308,26947,6,0,L|393:186,1,105,2|0,2:0|2:0,2:0:0:0:
411,181,27206,1,0,2:0:0:0:
336,109,27336,1,0,2:0:0:0:
263,173,27466,2,0,P|214:186|144:164,1,105,10|0,2:0|2:0,2:0:0:0:
140,165,27726,2,0,P|136:203|139:239,1,70.00000000000001,10|8,2:3|2:3,2:0:0:0:
33,124,27985,6,0,L|46:294,1,140,10|0,2:3|2:0,2:0:0:0:
84,349,28375,1,8,2:3:0:0:
178,316,28505,2,0,P|239:317|271:333,1,70.00000000000001,8|0,2:0|2:0,2:0:0:0:
363,377,28765,2,0,L|376:270,1,105,10|0,2:3|2:0,2:0:0:0:
402,250,29024,6,0,L|394:160,1,70.00000000000001,2|8,2:0|2:3,2:0:0:0:
352,80,29284,1,2,2:0:0:0:
262,166,29414,1,2,2:0:0:0:
365,63,29544,2,0,L|278:57,1,70.00000000000001,10|8,2:0|2:3,2:0:0:0:
246,184,29804,2,0,L|332:192,1,70.00000000000001,10|8,2:3|2:3,2:0:0:0:
211,64,30063,6,0,P|116:74|92:90,1,105,10|0,2:3|2:0,2:0:0:0:
88,103,30323,2,0,L|87:187,1,70.00000000000001,2|8,2:0|2:3,2:0:0:0:
57,297,30583,2,0,B|107:276|107:276|206:296,1,140,10|8,2:0|2:3,2:0:0:0:
289,371,30973,2,0,P|377:367|436:322,1,140,0|8,2:0|2:3,2:0:0:0:
318,219,31362,2,0,P|322:254|330:289,1,70.00000000000001,0|0,2:0|2:0,2:0:0:0:
395,158,31622,2,0,P|368:134|335:120,1,70.00000000000001,8|8,2:0|2:3,2:0:0:0:
208,144,31882,5,8,2:3:0:0:
220,256,32011,1,10,2:3:0:0:
106,126,32141,2,0,L|112:89,3,23.333333333333332,10|2|2|2,2:3|2:0|2:0|2:0,2:0:0:0:
7,194,32401,2,0,L|1:157,3,23.333333333333332,2|2|2|10,2:0|2:0|2:0|2:3,2:0:0:0:
126,271,32661,2,0,L|132:234,3,23.333333333333332,10|2|2|2,2:0|2:0|2:0|2:0,2:0:0:0:
2,380,32921,2,0,P|50:355|112:358,1,105,10|0,2:3|2:0,2:0:0:0:
127,363,33180,6,0,L|231:353,2,93.33333333333333,6|2|2,2:3|2:0|2:0,2:0:0:0:
268,253,33700,2,0,L|335:342,1,93.33333333333333,10|10,2:3|2:3,2:0:0:0:
161,257,34046,1,6,2:3:0:0:
255,88,34219,5,12,2:3:0:0:
299,319,34739,1,0,2:0:0:0:
311,311,34998,2,0,P|316:285|312:242,1,56,2|2,2:0|2:0,2:0:0:0:
277,154,35258,2,0,P|319:174|403:171,1,112,2|2,2:0|2:0,2:0:0:0:
403,85,35648,1,0,2:0:0:0:
403,85,35778,2,0,P|340:61|274:67,1,112,10|0,2:0|2:0,2:0:0:0:
167,180,36297,5,2,2:0:0:0:
53,81,36817,1,8,2:0:0:0:
41,73,37076,2,0,L|36:149,1,56,2|2,2:0|2:0,2:0:0:0:
34,216,37336,2,0,P|78:243|144:240,1,112,2|0,2:0|2:0,2:0:0:0:
229,321,37726,1,2,2:0:0:0:
229,321,37856,2,0,P|173:319|126:347,1,112,10|0,2:0|2:0,2:0:0:0:
350,268,38375,5,2,2:0:0:0:
449,362,38895,1,8,2:0:0:0:
463,373,39154,2,0,L|390:365,1,56,2|2,2:0|2:0,2:0:0:0:
333,320,39414,2,0,P|318:264|332:200,1,112,2|0,2:0|2:0,2:0:0:0:
334,134,39804,1,2,2:0:0:0:
257,168,39934,2,0,P|247:198|242:226,1,56,10|0,2:0|2:0,2:0:0:0:
181,295,40193,2,0,P|163:261|158:239,1,56,2|0,2:0|2:0,2:0:0:0:
137,167,40453,6,0,P|83:161|8:179,1,112,2|0,2:0|2:0,2:0:0:0:
87,379,40973,2,0,P|138:353|197:344,1,112,10|0,2:0|2:0,2:0:0:0:
375,167,41492,2,0,P|429:161|504:179,1,112,2|0,2:0|2:0,2:0:0:0:
425,379,42011,2,0,P|374:353|315:344,1,112,10|0,2:0|2:0,2:0:0:0:
206,205,42531,6,0,P|192:152|250:64,1,154,12|8,2:3|2:0,2:0:0:0:
144,48,42921,1,8,2:0:0:0:
109,128,43050,2,0,P|108:167|116:205,1,77,8|0,2:3|2:0,2:0:0:0:
238,70,43310,1,10,2:0:0:0:
206,205,43440,1,2,2:0:0:0:
271,56,43570,6,0,B|359:46|359:46|408:73,1,120.75000000000009,10|0,2:3|2:0,2:0:0:0:
409,82,43830,1,8,2:0:0:0:
318,164,43960,1,10,2:0:0:0:
426,201,44089,2,0,P|476:183|508:152,1,80.50000000000004,10|0,2:3|2:0,2:0:0:0:
296,180,44349,2,0,P|282:235|284:291,1,80.50000000000004,10|0,2:0|2:0,2:0:0:0:
417,340,44609,6,0,B|350:333|350:333|314:355|314:355|218:347,1,168,10|8,2:3|2:0,2:0:0:0:
185,259,44998,1,8,2:0:0:0:
97,304,45128,2,0,P|80:342|82:384,1,84.00000000000003,8|0,2:3|2:0,2:0:0:0:
190,240,45388,1,10,2:0:0:0:
57,188,45518,1,2,2:0:0:0:
167,118,45648,6,0,P|243:104|301:74,1,131.25,10|0,2:3|2:0,2:0:0:0:
319,59,45908,1,10,2:0:0:0:
389,157,46037,1,10,2:0:0:0:
482,75,46167,2,0,P|503:114|510:162,1,91.00000000000003,10|0,2:3|2:0,2:0:0:0:
416,303,46427,2,0,P|375:259|294:275,1,136.5,10|0,2:0|2:0,2:0:0:0:
292,281,46687,6,0,P|271:329|268:399,1,94.49999999999996,14|0,2:3|2:0,2:0:0:0:
123,212,46947,2,0,L|133:365,1,141.74999999999994,10|0,2:3|2:0,2:0:0:0:
125,377,47206,2,0,P|102:335|69:301,1,94.49999999999996,10|0,2:3|2:0,2:0:0:0:
230,210,47466,1,10,2:3:0:0:
137,121,47596,6,0,P|90:126|50:150,1,94.49999999999996,2|12,2:0|2:3,2:0:0:0:
256,220,47856,2,0,P|302:215|343:191,1,94.49999999999996,0|8,2:0|2:3,2:0:0:0:
132,353,48115,1,2,2:0:0:0:
334,351,48245,2,0,L|238:322,1,94.49999999999996,14|0,2:3|2:0,2:0:0:0:
27,260,48505,2,0,L|89:110,1,141.74999999999994,10|0,2:3|2:0,2:0:0:0:
99,108,48765,5,14,2:3:0:0:
168,206,48895,1,8,2:3:0:0:
208,73,49024,5,12,2:3:0:0:
191,222,49154,1,8,2:3:0:0:
324,130,49284,6,0,P|350:125|397:126,3,47.24999999999998,14|8|10|8,2:3|2:3|2:3|2:3,2:0:0:0:
337,236,49544,2,0,P|313:222|264:211,3,47.24999999999998,10|10|10|10,2:3|2:3|2:3|2:3,2:0:0:0:
209,158,49804,1,10,2:3:0:0:
209,158,50063,2,0,B|161:145|170:160|95:175|118:96,1,136.5,0|0,2:0|2:0,2:0:0:0:
120,87,50323,6,0,P|120:71|114:42,3,45.50000000000001,10|8|8|4,2:0|2:3|2:3|2:3,2:0:0:0:
107,26,50583,2,0,P|99:74|111:181,1,136.5,14|0,2:3|2:0,2:0:0:0:
116,185,50843,6,0,B|166:161|166:161|250:179,1,136.5,14|0,2:3|2:0,2:0:0:0:
271,198,51102,2,0,P|285:268|276:295,1,91.00000000000003,10|0,2:0|2:0,2:0:0:0:
384,166,51362,2,0,P|387:115|413:70,1,91.00000000000003,10|0,2:3|2:0,2:0:0:0:
478,233,51622,1,10,2:0:0:0:
303,116,51752,6,0,B|200:97|225:171|110:150,1,182.00000000000003,2|2,2:0|2:0,2:0:0:0:
77,22,52141,2,0,P|128:42|160:103,1,91.00000000000003,10|0,2:0|2:0,2:0:0:0:
73,300,52401,2,0,L|59:152,1,136.5,10|0,2:3|2:0,2:0:0:0:
62,138,52661,6,0,P|84:154|65:147,1,91.00000000000003,10|0,2:0|2:0,2:0:0:0:
208,241,52921,6,0,P|242:191|242:109,1,136.5,10|0,2:3|2:0,2:0:0:0:
232,87,53180,2,0,P|287:71|336:71,1,91.00000000000003,10|0,2:0|2:0,2:0:0:0:
474,35,53440,2,0,P|444:77|421:141,1,91.00000000000003,10|0,2:3|2:0,2:0:0:0:
448,304,53700,1,10,2:0:0:0:
512,217,53830,6,0,L|403:207,1,91.00000000000003,2|8,2:0|2:3,2:0:0:0:
212,255,54089,1,2,2:0:0:0:
155,162,54219,2,0,L|280:151,1,91.00000000000003,10|0,2:0|2:0,2:0:0:0:
449,78,54479,2,0,L|276:58,1,136.5,10|0,2:3|2:0,2:0:0:0:
296,54,54739,6,0,P|298:83|302:61,1,91.00000000000003,10|0,2:0|2:0,2:0:0:0:
350,187,54998,6,0,B|367:288|367:288|331:335,1,136.5,10|0,2:3|2:0,2:0:0:0:
317,346,55258,2,0,L|209:334,1,91.00000000000003,10|0,2:0|2:0,2:0:0:0:
40,361,55518,2,0,B|31:295|94:239|94:239|64:212|31:211,1,182.00000000000003,10|10,2:3|2:0,2:0:0:0:
14,104,55908,6,0,P|62:109|124:144,1,91.00000000000003,2|8,2:0|2:3,2:0:0:0:
184,256,56167,1,2,2:0:0:0:
238,185,56297,2,0,P|286:162|356:171,1,91.00000000000003,10|0,2:0|2:0,2:0:0:0:
483,266,56557,2,0,L|499:160,1,91.00000000000003,10|0,2:3|2:0,2:0:0:0:
397,0,56817,2,0,L|415:166,1,136.5,10|0,2:0|2:0,2:0:0:0:
415,165,57076,6,0,P|356:113|247:110,1,182.00000000000003,10|10,2:3|2:0,2:0:0:0:
36,180,57466,2,0,P|156:161|235:212,1,182.00000000000003,2|0,2:0|2:0,2:0:0:0:
252,357,57856,1,10,2:0:0:0:
114,276,57985,1,8,2:3:0:0:
94,266,58245,5,8,2:3:0:0:
205,159,58375,2,0,L|194:61,1,91.00000000000003,10|0,2:0|2:0,2:0:0:0:
369,157,58635,2,0,L|356:271,1,91.00000000000003,10|0,2:3|2:0,2:0:0:0:
205,159,58895,1,10,2:0:0:0:
334,64,59024,6,0,P|412:66|468:167,1,182.00000000000003,2|0,2:0|2:0,2:0:0:0:
474,284,59414,2,0,P|484:338|510:386,1,91.00000000000003,8|0,2:0|2:0,2:0:0:0:
358,247,59674,6,0,B|308:242|308:242|278:263|278:263|210:259,1,136.5,10|0,2:3|2:0,2:0:0:0:
192,250,59934,1,10,2:0:0:0:
369,336,60063,2,0,P|387:265|372:129,1,182.00000000000003,2|0,2:3|2:0,2:0:0:0:
282,71,60453,2,0,P|238:92|185:98,1,91.00000000000003,8|0,2:0|2:0,2:0:0:0:
70,21,60713,6,0,L|60:134,1,91.00000000000003,10|0,2:3|2:0,2:0:0:0:
187,280,60973,2,0,L|179:176,1,91.00000000000003,10|0,2:0|2:0,2:0:0:0:
2,239,61232,2,0,B|9:335|9:335|16:379|60:392|89:380,1,182.00000000000003,10|8,2:3|2:0,2:0:0:0:
187,280,61622,2,0,P|142:241|143:324,1,182.00000000000003,2|0,2:0|2:0,2:0:0:0:
244,370,62011,1,10,2:0:0:0:
343,328,62141,2,0,P|395:321|457:344,2,91.00000000000003,8|0|8,2:3|2:3|2:3,2:0:0:0:
301,248,62531,6,0,P|396:233|503:271,1,182.00000000000003,10|0,2:0|2:0,2:0:0:0:
320,125,62921,1,0,2:0:0:0:
424,34,63050,2,0,P|482:50|464:131,1,136.5,10|0,2:0|2:0,2:0:0:0:
455,138,63310,6,0,L|293:122,1,136.5,10|0,2:3|2:0,2:0:0:0:
288,104,63570,2,0,L|171:111,1,91.00000000000003,8|0,2:0|2:0,2:0:0:0:
72,267,63830,2,0,L|185:255,1,91.00000000000003,8|0,2:3|2:0,2:0:0:0:
268,210,64089,5,10,2:0:0:0:
90,144,64219,1,2,2:0:0:0:
195,110,64349,2,0,P|188:51|154:9,1,91.00000000000003,10|0,2:3|2:0,2:0:0:0:
169,257,64609,2,0,P|176:316|211:359,1,91.00000000000003,10|0,2:0|2:0,2:0:0:0:
90,144,64869,2,0,P|31:151|-8:184,1,91.00000000000003,10|0,2:3|2:0,2:0:0:0:
268,210,65128,2,0,P|327:203|366:170,1,91.00000000000003,10|0,2:0|2:0,2:0:0:0:
453,60,65388,6,0,L|477:268,1,182.00000000000003,14|8,2:3|2:0,2:0:0:0:
375,313,65778,1,2,2:0:0:0:
268,210,65908,6,0,L|258:324,1,91.00000000000003,14|8,2:3|2:3,2:0:0:0:
147,370,66167,1,8,2:0:0:0:
28,240,66297,6,0,L|31:298,1,45.50000000000001,12|0,2:3|2:0,2:0:0:0:
37,312,66557,1,8,2:3:0:0:
148,225,66687,1,10,2:0:0:0:
31,157,66817,1,8,2:0:0:0:
167,240,66947,2,0,P|212:193|219:144,1,91.00000000000003,10|10,2:3|2:3,2:0:0:0:
96,20,67206,2,0,P|134:57|188:64,1,91.00000000000003,10|8,2:0|2:0,2:0:0:0:
316,39,67466,6,0,P|385:35|443:98,1,136.5,14|0,2:3|2:0,2:0:0:0:
446,107,67726,2,0,L|435:204,1,91.00000000000003,10|0,2:0|2:0,2:0:0:0:
415,358,67985,2,0,P|359:322|262:323,1,136.5,10|0,2:3|2:0,2:0:0:0:
255,327,68245,1,10,2:0:0:0:
115,382,68375,6,0,P|103:328|115:275,1,91.00000000000003,2|0,2:0|2:0,2:0:0:0:
16,214,68635,1,2,2:0:0:0:
162,219,68765,2,0,P|171:160|152:98,1,91.00000000000003,10|0,2:0|2:0,2:0:0:0:
0,14,69024,2,0,P|56:48|154:46,1,136.5,10|0,2:3|2:0,2:0:0:0:
154,47,69284,6,0,P|154:20|136:52,1,91.00000000000003,10|0,2:0|2:0,2:0:0:0:
254,139,69544,6,0,B|360:134|360:134|401:106,1,136.5,10|0,2:3|2:0,2:0:0:0:
408,102,69804,2,0,L|398:208,1,91.00000000000003,10|0,2:0|2:0,2:0:0:0:
249,276,70063,2,0,P|330:260|388:369,1,182.00000000000003,10|10,2:3|2:0,2:0:0:0:
174,323,70453,6,0,P|163:267|172:230,1,91.00000000000003,2|8,2:0|2:3,2:0:0:0:
216,104,70713,1,2,2:0:0:0:
285,159,70843,2,0,P|341:177|386:175,1,91.00000000000003,10|0,2:0|2:0,2:0:0:0:
507,98,71102,2,0,L|335:58,1,136.5,10|0,2:3|2:0,2:0:0:0:
359,63,71362,6,0,P|329:67|363:73,1,91.00000000000003,10|0,2:0|2:0,2:0:0:0:
204,128,71622,6,0,P|209:204|251:261,1,136.5,10|0,2:3|2:0,2:0:0:0:
265,281,71882,2,0,P|184:284|157:299,1,91.00000000000003,10|0,2:0|2:0,2:0:0:0:
47,361,72141,2,0,B|56:263|56:263|19:299,1,136.5,10|0,2:3|2:0,2:0:0:0:
6,313,72401,1,10,2:0:0:0:
133,235,72531,2,0,L|122:121,1,91.00000000000003,2|8,2:0|2:3,2:0:0:0:
10,123,72791,5,2,2:0:0:0:
103,42,72921,2,0,P|173:52|202:84,1,91.00000000000003,10|0,2:0|2:0,2:0:0:0:
241,199,73180,2,0,P|300:184|338:159,1,91.00000000000003,10|0,2:3|2:0,2:0:0:0:
435,66,73440,2,0,L|451:230,1,136.5,10|0,2:0|2:0,2:0:0:0:
448,236,73700,6,0,B|363:218|364:303|286:284|286:284|242:273,1,182.00000000000003,10|8,2:3|2:0,2:0:0:0:
137,319,74089,6,0,B|207:301|228:377|299:367|299:367|343:356,1,182.00000000000003,2|0,2:0|2:0,2:0:0:0:
421,317,74479,1,10,2:0:0:0:
309,152,74609,1,8,2:3:0:0:
293,137,74869,5,8,2:3:0:0:
214,219,74998,2,0,P|152:211|106:178,1,91.00000000000003,10|0,2:0|2:0,2:0:0:0:
67,45,75258,2,0,P|67:97|37:149,1,91.00000000000003,10|0,2:3|2:0,2:0:0:0:
191,108,75518,1,10,2:0:0:0:
0,211,75648,6,0,B|-23:291|15:346|15:346|77:312,1,182.00000000000003,2|0,2:0|2:0,2:0:0:0:
162,292,76037,2,0,P|211:295|275:329,1,91.00000000000003,8|0,2:0|2:0,2:0:0:0:
143,192,76297,6,0,P|227:192|330:238,1,182.00000000000003,10|10,2:3|2:0,2:0:0:0:
402,366,76687,2,0,P|401:316|436:178,1,182.00000000000003,2|0,2:0|2:0,2:0:0:0:
506,70,77076,2,0,P|439:87|385:83,1,91.00000000000003,8|0,2:0|2:0,2:0:0:0:
296,113,77336,6,0,P|298:62|289:16,1,91.00000000000003,10|0,2:3|2:0,2:0:0:0:
88,27,77596,2,0,P|87:75|111:146,1,91.00000000000003,10|0,2:0|2:0,2:0:0:0:
208,278,77856,6,0,L|193:73,1,182.00000000000003,10|8,2:3|2:0,2:0:0:0:
49,194,78245,2,0,L|65:388,1,182.00000000000003,2|0,2:0|2:0,2:0:0:0:
208,278,78635,1,10,2:0:0:0:
323,342,78765,2,0,P|378:343|425:327,2,91.00000000000003,0|8|0,2:0|2:3|2:0,2:0:0:0:
198,261,79154,6,0,L|205:150,1,91.00000000000003,10|0,2:0|2:0,2:0:0:0:
371,83,79414,2,0,L|382:182,1,91.00000000000003,10|0,2:3|2:0,2:0:0:0:
239,92,79674,2,0,P|167:88|116:137,1,136.5,10|0,2:0|2:0,2:0:0:0:
110,166,79934,6,0,P|59:143|109:29,1,182.00000000000003,14|10,2:3|2:0,2:0:0:0:
239,92,80323,2,0,B|324:79|311:154|417:133,1,182.00000000000003,2|0,2:0|2:0,2:0:0:0:
376,47,80713,1,8,2:0:0:0:
260,181,80843,2,0,P|256:250|266:288,1,91.00000000000003,8|0,2:3|2:0,2:0:0:0:
360,337,81102,1,8,2:3:0:0:
206,384,81232,6,0,L|86:363,1,91.00000000000003,10|0,2:0|2:0,2:0:0:0:
0,270,81492,2,0,L|118:249,1,91.00000000000003,10|0,2:3|2:0,2:0:0:0:
260,181,81752,2,0,L|96:152,1,136.5,10|0,2:0|2:0,2:0:0:0:
90,147,82011,5,14,2:3:0:0:
154,79,82141,2,0,L|269:99,1,91.00000000000003,0|0,2:0|2:0,2:0:0:0:
385,192,82401,5,14,2:3:0:0:
430,117,82531,2,0,P|438:61|425:15,1,91.00000000000003,0|0,2:0|2:0,2:0:0:0:
277,217,82791,5,14,2:3:0:0:
339,281,82921,2,0,L|454:273,1,91.00000000000003,0|0,2:0|2:0,2:0:0:0:
254,366,83180,5,14,2:3:0:0:
182,311,83310,2,0,P|134:302|85:308,1,91.00000000000003,0|8,2:0|2:0,2:0:0:0:
0,239,83570,6,0,L|12:135,1,91.00000000000003,10|8,2:0|2:0,2:0:0:0:
117,9,83830,2,0,L|128:120,1,91.00000000000003,8|8,2:0|2:0,2:0:0:0:
216,225,84089,5,2,2:0:0:0:
223,227,84349,2,0,P|284:210|258:305,1,182.00000000000003,2|2,2:0|2:0,2:0:0:0:
143,277,84739,2,0,P|136:215|152:157,1,91.00000000000003,2|0,2:0|2:0,2:0:0:0:
208,347,84998,1,2,2:0:0:0:
45,283,85128,5,10,2:3:0:0:
45,283,85388,2,0,L|50:328,2,45.50000000000001,2|0|0,2:0|2:0|2:0,2:0:0:0:
19,187,85648,2,0,B|-8:117|31:53|31:53|124:53|100:126|225:103,1,318.50000000000006,2|0,2:0|2:0,2:0:0:0:
225,104,86167,6,0,P|247:49|354:55,1,154,14|8,2:3|2:0,2:0:0:0:
403,143,86557,1,2,3:2:0:0:
313,189,86687,2,0,P|305:149|307:108,1,77,10|0,3:2|2:0,2:0:0:0:
494,83,86947,6,0,L|479:266,1,154,10|8,3:2|2:0,2:0:0:0:
462,339,87336,1,2,3:2:0:0:
361,298,87466,2,0,P|298:289|260:298,1,77,10|0,3:2|2:0,2:0:0:0:
174,339,87726,2,0,P|104:355|2:336,1,154,8|8,3:2|2:0,2:0:0:0:
150,247,88115,1,0,2:0:0:0:
93,149,88245,6,0,P|0:191|0:243,1,154,10|8,3:2|2:0,2:0:0:0:
192,117,88635,2,0,P|155:85|27:65,1,154,2|0,3:2|2:0,2:0:0:0:
0,241,89024,2,0,P|42:213|171:216,1,154,10|8,3:2|2:0,2:0:0:0:
257,284,89414,1,2,3:2:0:0:
364,147,89544,2,0,P|361:211|371:250,1,77,8|0,3:2|2:0,2:0:0:0:
470,367,89804,5,10,3:2:0:0:
