osu file format v14

[General]
AudioFilename: audio.mp3
AudioLeadIn: 0
PreviewTime: 49998
Countdown: 0
SampleSet: Soft
StackLeniency: 0.7
Mode: 0
LetterboxInBreaks: 0
WidescreenStoryboard: 0

[Editor]
DistanceSpacing: 0.3
BeatDivisor: 4
GridSize: 16
TimelineZoom: 2.299999

[Metadata]
Title:Glorious Days (TV Size)
TitleUnicode:Glorious Days (TV Size)
Artist:9-tie
ArtistUnicode:9-tie
Creator:Huzz
Version:Girls, Be Ambitious!
Source:SELECTION PROJECT
Tags:セレクション・プロジェクト セレプロ serepuro selepro japanese anime jpop j-pop pop idol opening op tv short size 美山鈴音 miyama suzune 矢野妃菜喜 yano hinaki 花野井玲那 hananoi rena 水野朔 mizuno saku 濱栗広海 hamaguri hiromi 南雲希美 nagumo nozomi 今鵜凪咲 imau nagisa 荒井瑠里 arai ruri 八木野土香 yagi nodoka 羊宮妃那 youmiya yomiya hina 淀川逢生 yodogawa ao 岩橋由佳 iwahashi yuka 小泉詩 koizumi uta 白河みずな shirakawa mizuna 山鹿栞 yamaga shiori 花井美春 hanai miharu 当麻まこ toma mako 下地紫野 shimoji shino キューティー cutie kyuutie meep _meep_
BeatmapID:3323221
BeatmapSetID:1627830

[Difficulty]
HPDrainRate:5.5
CircleSize:4
OverallDifficulty:8.5
ApproachRate:9.3
SliderMultiplier:1.4
SliderTickRate:1

[Events]
//Background and Video events
0,0,"9tie.jpg",0,0
Video,807,"glorious days.mp4"
//Break Periods
//Storyboard Layer 0 (Background)
//Storyboard Layer 1 (Fail)
//Storyboard Layer 2 (Pass)
//Storyboard Layer 3 (Foreground)
//Storyboard Layer 4 (Overlay)
//Storyboard Sound Samples

[TimingPoints]
973,259.74025974026,4,2,1,65,1,0
973,-133.333333333333,4,2,1,65,0,0
1752,-125,4,2,1,65,0,0
1946,-125,4,2,1,5,0,0
2011,-125,4,2,1,65,0,0
3050,-111.111111111111,4,2,1,65,0,0
3440,-125,4,2,1,65,0,0
9284,-100,4,2,1,65,0,0
9804,-111.111111111111,4,2,1,65,0,0
13440,-99.9999999999999,4,2,1,65,0,0
13960,-90.9090909090909,4,2,1,65,0,0
14479,-125,4,2,1,65,0,0
14739,-111.111111111111,4,2,1,65,0,0
14998,-100,4,2,1,65,0,0
15258,-90.9090909090909,4,2,1,65,0,0
15518,-83.3333333333333,4,2,1,65,0,0
16947,-142.857142857143,4,2,1,65,0,0
17596,-76.923076923077,4,2,1,85,0,0
17661,-76.923076923077,4,2,1,65,0,0
18115,-76.923076923077,4,2,10,65,0,0
18375,-125,4,2,10,65,0,0
21752,-76.9230769230769,4,2,10,65,0,0
22921,-125,4,2,10,65,0,0
23830,-83.3333333333333,4,2,10,65,0,0
24349,-125,4,2,10,65,0,0
25128,-100,4,2,10,65,0,0
25908,-83.3333333333333,4,2,1,75,0,0
25973,-83.3333333333333,4,2,1,65,0,0
26427,-83.3333333333333,4,2,10,65,0,0
26687,-111.111111111111,4,2,10,65,0,0
27985,-83.3333333333333,4,2,10,65,0,0
28505,-111.111111111111,4,2,10,65,0,0
28959,-111.111111111111,4,2,10,5,0,0
29024,-111.111111111111,4,2,10,65,0,0
30063,-83.3333333333333,4,2,10,65,0,0
30583,-111.111111111111,4,2,10,65,0,0
32184,-111.111111111111,4,2,10,35,0,0
32401,-111.111111111111,4,2,10,65,0,0
32444,-111.111111111111,4,2,10,35,0,0
32661,-111.111111111111,4,2,10,65,0,0
32704,-111.111111111111,4,2,10,35,0,0
32921,-111.111111111111,4,2,10,65,0,0
32964,-111.111111111111,4,2,10,35,0,0
33180,-111.111111111111,4,2,1,65,0,0
33700,-111.111111111111,4,2,3,65,0,0
33743,-111.111111111111,4,2,3,5,0,0
33873,-111.111111111111,4,2,4,65,0,0
33916,-111.111111111111,4,2,4,5,0,0
34046,-111.111111111111,4,2,4,65,0,0
34089,-111.111111111111,4,2,4,5,0,0
34219,-142.857142857143,4,2,1,65,0,0
35778,-142.857142857143,4,2,11,65,0,0
36297,-200,4,2,11,65,0,0
37336,-142.857142857143,4,2,11,65,0,0
38375,-200,4,2,11,65,0,0
39414,-142.857142857143,4,2,11,65,0,0
40453,-200,4,2,11,65,0,0
42011,-142.857142857143,4,2,11,65,0,0
42465,-142.857142857143,4,2,11,5,0,0
42531,-100,4,2,1,75,0,0
42596,-100,4,2,1,65,0,0
46687,-90.9090909090909,4,2,1,65,0,0
47206,-83.3333333333333,4,2,1,65,0,0
47726,-71.4285714285714,4,2,1,65,0,0
50388,-71.4285714285714,4,2,3,65,0,0
50453,-71.4285714285714,4,2,4,65,0,0
50583,-111.111111111111,4,2,1,65,0,0
50777,-111.111111111111,4,2,1,5,0,0
50843,-76.9230769230769,4,2,2,75,0,1
51037,-76.9230769230769,4,2,2,5,0,1
51102,-76.9230769230769,4,2,2,75,0,1
51556,-76.9230769230769,4,2,2,5,0,1
51622,-76.9230769230769,4,2,2,75,0,1
52335,-76.9230769230769,4,2,2,5,0,1
52401,-76.9230769230769,4,2,2,75,0,1
53115,-76.9230769230769,4,2,2,5,0,1
53180,-76.9230769230769,4,2,2,75,0,1
53634,-76.9230769230769,4,2,2,5,0,1
53700,-76.9230769230769,4,2,2,75,0,1
54413,-76.9230769230769,4,2,2,5,0,1
54479,-76.9230769230769,4,2,2,75,0,1
55192,-76.9230769230769,4,2,2,5,0,1
55258,-76.9230769230769,4,2,2,75,0,1
55712,-76.9230769230769,4,2,2,5,0,1
55778,-76.9230769230769,4,2,2,75,0,1
57011,-76.9230769230769,4,2,2,5,0,1
57076,-76.9230769230769,4,2,2,75,0,1
58829,-76.9230769230769,4,2,2,5,0,1
58895,-76.9230769230769,4,2,2,75,0,1
63504,-76.9230769230769,4,2,2,5,0,1
63570,-76.9230769230769,4,2,2,75,0,1
64543,-76.9230769230769,4,2,2,5,0,1
64609,-76.9230769230769,4,2,2,75,0,1
65063,-76.9230769230769,4,2,2,5,0,1
65128,-76.9230769230769,4,2,2,75,0,1
65388,-76.9230769230769,4,2,1,75,0,1
66491,-76.9230769230769,4,2,1,5,0,1
66557,-76.9230769230769,4,2,1,75,0,1
67466,-76.9230769230769,4,2,2,75,0,1
67660,-76.9230769230769,4,2,2,5,0,1
67726,-76.9230769230769,4,2,2,75,0,1
68179,-76.9230769230769,4,2,2,5,0,1
68245,-76.9230769230769,4,2,2,75,0,1
69218,-76.9230769230769,4,2,2,5,0,1
69284,-76.9230769230769,4,2,2,75,0,1
69998,-76.9230769230769,4,2,2,5,0,1
70063,-76.9230769230769,4,2,2,75,0,1
71037,-76.9230769230769,4,2,2,5,0,1
71102,-76.9230769230769,4,2,2,75,0,1
71816,-76.9230769230769,4,2,2,5,0,1
71882,-76.9230769230769,4,2,2,75,0,1
72335,-76.9230769230769,4,2,2,5,0,1
72401,-76.9230769230769,4,2,2,75,0,1
75452,-76.9230769230769,4,2,2,5,0,1
75518,-76.9230769230769,4,2,2,75,0,1
75972,-76.9230769230769,4,2,2,5,0,1
76037,-76.9230769230769,4,2,2,75,0,1
76491,-76.9230769230769,4,2,2,5,0,1
76557,-76.9230769230769,4,2,2,75,0,1
77530,-76.9230769230769,4,2,2,5,0,1
77596,-76.9230769230769,4,2,2,75,0,1
79934,-76.9230769230769,4,2,1,75,0,1
81686,-76.9230769230769,4,2,1,5,0,1
81752,-76.9230769230769,4,2,1,75,0,1
82011,-71.4285714285714,4,2,1,75,0,1
82205,-71.4285714285714,4,2,1,5,0,1
82271,-71.4285714285714,4,2,1,75,0,1
82595,-71.4285714285714,4,2,1,5,0,1
82661,-71.4285714285714,4,2,1,75,0,1
82985,-71.4285714285714,4,2,1,5,0,1
83050,-71.4285714285714,4,2,1,75,0,1
84089,-333.333333333333,4,2,1,65,0,0
84739,-166.666666666667,4,2,1,65,0,0
86167,-90.9090909090909,4,2,1,65,0,0
86426,-90.9090909090909,4,2,11,65,0,0
86687,-125,4,2,11,65,0,0

[Colours]
Combo1 : 238,181,104
Combo2 : 120,187,241
Combo3 : 186,122,243
Combo4 : 175,226,90
Combo5 : 114,114,241
Combo6 : 236,117,117
Combo7 : 242,182,248
Combo8 : 235,227,88

[HitObjects]
30,77,973,6,0,B|83:30|149:21|149:21|165:59|204:76,1,210.000000000001,10|0,2:3|2:0,2:0:0:0:
357,0,1752,2,0,P|295:12|292:43,1,84,2|0,2:0|2:0,2:0:0:0:
292,41,2011,2,0,P|304:73|311:97,1,56,2|8,2:0|2:3,2:0:0:0:
213,235,2271,1,2,2:0:0:0:
142,258,2401,1,2,2:0:0:0:
91,203,2531,2,0,P|95:175|112:87,1,112,8|8,2:3|2:3,2:0:0:0:
110,92,2921,1,0,2:0:0:0:
327,187,3050,6,0,B|397:167|365:144|433:123,1,126,10|0,2:3|2:0,2:0:0:0:
475,194,3440,2,0,P|499:220|517:241,1,56,2|0,2:0|2:0,2:0:0:0:
310,93,3700,2,0,P|320:58|329:32,1,56,2|8,2:0|2:3,2:0:0:0:
311,289,3960,5,2,2:0:0:0:
311,289,4089,2,0,P|275:297|247:305,1,56,2|8,2:0|2:3,2:0:0:0:
181,205,4349,2,0,P|153:198|126:191,1,56,2|0,2:0|2:0,2:0:0:0:
317,300,4609,2,0,P|281:308|253:316,1,56,10|0,2:3|2:0,2:0:0:0:
187,216,4869,2,0,P|159:209|132:202,1,56,10|0,2:3|2:0,2:0:0:0:
33,362,5128,6,0,P|102:380|166:308,2,168,10|8|2,2:3|2:3|2:0,2:0:0:0:
3,133,6167,2,0,P|59:142|112:156,1,112,2|2,2:0|2:0,2:0:0:0:
191,82,6557,1,2,2:0:0:0:
191,82,6687,2,0,P|180:50|163:18,1,56,8|0,2:3|2:0,2:0:0:0:
289,131,6947,1,2,2:0:0:0:
289,131,7076,1,8,2:3:0:0:
334,28,7206,6,0,P|310:77|288:130,1,112,10|2,2:3|2:0,2:0:0:0:
335,222,7596,2,0,P|378:239|409:233,1,56,2|0,2:0|2:0,2:0:0:0:
450,99,7856,2,0,P|413:127|403:157,1,56,2|0,2:0|2:0,2:0:0:0:
495,255,8115,5,10,2:3:0:0:
495,255,8245,2,0,P|488:209|467:185,1,56,2|8,2:0|2:3,2:0:0:0:
388,325,8505,2,0,P|376:350|376:378,1,56,2|0,2:0|2:0,2:0:0:0:
486,261,8765,2,0,P|479:215|458:191,1,56,10|0,2:3|2:0,2:0:0:0:
378,330,9024,1,10,2:3:0:0:
378,330,9154,1,8,2:3:0:0:
297,224,9284,6,0,B|244:204|198:244|198:244|182:301|128:312,1,210,10|0,2:3|2:0,2:0:0:0:
26,152,9804,2,0,P|98:172|101:227,2,126,10|0|8,2:3|2:0|2:3,2:0:0:0:
0,315,10453,5,0,2:0:0:0:
0,315,10583,2,0,P|9:280|22:246,1,63.0000000000001,0|0,2:0|2:0,2:0:0:0:
127,165,10843,1,8,2:3:0:0:
16,121,10973,1,0,2:0:0:0:
16,121,11037,1,0,2:0:0:0:
16,121,11102,2,0,L|26:154,3,31.5,0|0|0|0,2:0|2:0|2:0|2:0,2:0:0:0:
133,178,11362,6,0,P|148:116|167:54,1,126,10|0,2:3|2:0,2:0:0:0:
329,184,11752,2,0,P|289:188|256:168,1,63.0000000000001,2|8,2:0|2:3,2:0:0:0:
173,41,12011,2,0,P|199:26|238:28,1,63.0000000000001,2|0,2:0|2:0,2:0:0:0:
341,182,12271,1,2,2:0:0:0:
323,42,12401,6,0,P|312:81|306:120,1,63.0000000000001,10|0,2:3|2:0,2:0:0:0:
435,188,12661,2,0,P|429:157|420:126,1,63.0000000000001,2|0,2:0|2:0,2:0:0:0:
314,32,12921,2,0,P|303:71|297:110,1,63.0000000000001,10|0,2:3|2:0,2:0:0:0:
303,114,13115,1,0,2:0:0:0:
303,114,13180,2,0,L|313:158,3,31.5,2|0|0|0,2:0|2:0|2:0|2:0,2:0:0:0:
251,226,13440,6,0,P|217:243|174:241,1,70.0000000000001,10|0,2:3|2:0,2:0:0:0:
127,175,13700,2,0,P|157:158|192:156,1,70.0000000000001,8|2,2:3|2:0,2:0:0:0:
97,349,13960,6,0,P|62:352|22:335,1,77,8|0,2:3|2:0,2:0:0:0:
3,248,14219,2,0,P|37:244|77:262,1,77,10|0,2:3|2:0,2:0:0:0:
193,360,14479,6,0,P|197:343|205:324,3,28,10|0|0|0,2:3|2:0|2:0|2:0,2:0:0:0:
313,384,14739,2,0,P|300:372|287:355,3,31.5,8|0|2|0,2:3|2:0|2:0|2:0,2:0:0:0:
391,283,14998,2,0,P|373:289|353:290,3,35,8|0|0|0,2:3|2:0|2:0|2:0,2:0:0:0:
355,163,15258,2,0,P|351:181|342:198,3,38.5,10|0|0|0,2:3|2:0|2:0|2:0,2:0:0:0:
253,247,15518,6,0,L|190:233,1,42,10|0,2:3|2:0,2:0:0:0:
140,125,15648,2,0,L|186:115,1,42,8|0,2:3|2:0,2:0:0:0:
244,240,15778,2,0,L|181:226,1,42,10|0,2:3|2:0,2:0:0:0:
131,118,15908,2,0,L|177:108,1,42,10|0,2:3|2:0,2:0:0:0:
98,257,16037,5,10,2:3:0:0:
82,262,16102,1,8,2:3:0:0:
67,265,16167,1,10,2:3:0:0:
51,263,16232,1,8,2:3:0:0:
37,258,16297,1,10,2:3:0:0:
23,250,16362,1,10,2:3:0:0:
12,239,16427,1,10,2:3:0:0:
4,225,16492,1,10,2:3:0:0:
1,210,16557,5,10,2:3:0:0:
79,43,16947,6,0,L|86:20,2,24.5,2|0|0,2:0|2:0|2:0,2:0:0:0:
140,125,17336,1,2,2:0:0:0:
140,125,17466,1,2,2:0:0:0:
244,39,17596,6,0,B|314:24|314:24|374:47|374:47|444:33|444:33|384:9,1,273,12|8,2:3|2:3,2:0:0:0:
382,8,18115,1,8,2:0:0:0:
268,124,18375,2,0,P|259:163|255:202,1,56,10|0,2:3|2:0,2:0:0:0:
331,250,18635,1,2,2:0:0:0:
331,250,18765,2,0,B|392:234|370:218|431:201,1,112,8|0,2:3|2:0,2:0:0:0:
512,261,19154,1,10,2:0:0:0:
512,261,19284,2,0,L|498:315,2,56,8|10|8,2:3|2:3|2:3,2:0:0:0:
436,191,19674,6,0,P|410:278|390:361,1,168,8|8,2:3|2:3,2:0:0:0:
391,352,20193,1,8,2:0:0:0:
202,230,20453,2,0,P|209:257|215:284,1,56,10|0,2:3|2:0,2:0:0:0:
275,345,20713,1,2,2:0:0:0:
275,345,20843,2,0,P|248:317|162:336,1,112,8|0,2:3|2:0,2:0:0:0:
85,384,21232,2,0,L|98:321,1,56,10|8,2:0|2:3,2:0:0:0:
1,218,21492,1,2,2:3:0:0:
16,299,21622,1,8,2:3:0:0:
0,206,21752,6,0,B|52:174|93:218|93:221|92:225|134:269|187:239|187:239|150:243|124:218,1,273,10|8,2:3|2:3,2:0:0:0:
124,218,22271,1,8,2:0:0:0:
83,34,22531,1,10,2:3:0:0:
150,0,22661,1,2,2:0:0:0:
213,48,22791,1,2,2:0:0:0:
213,48,22921,2,0,P|200:104|189:157,1,112,8|2,2:3|2:0,2:0:0:0:
297,209,23310,2,0,P|291:180|283:147,1,56,8|8,2:0|2:3,2:0:0:0:
355,91,23570,1,10,2:3:0:0:
355,91,23700,1,10,2:3:0:0:
434,205,23830,6,0,B|451:141|451:141|443:105|443:105|460:41,1,168,10|0,2:3|2:0,2:0:0:0:
460,42,24219,1,10,2:3:0:0:
355,91,24349,2,0,L|341:28,1,56,8|0,2:0|2:0,2:0:0:0:
465,136,24609,2,0,L|448:214,1,56,10|0,2:3|2:0,2:0:0:0:
442,288,24869,2,0,L|448:315,3,18.6666666666667,2|0|0|8,2:0|2:0|2:0|2:3,2:0:0:0:
347,238,25128,2,0,P|313:222|265:238,1,70,2|10,2:0|2:3,2:0:0:0:
272,234,25323,1,2,2:0:0:0:
265,243,25388,1,10,2:0:0:0:
234,314,25518,1,2,2:0:0:0:
278,378,25648,1,2,2:0:0:0:
86,219,25908,6,0,B|101:169|153:168|153:168|192:214|171:284|113:304,1,252,14|8,2:3|2:3,2:0:0:0:
109,303,26427,1,8,2:0:0:0:
0,240,26687,2,0,P|-2:201|17:162,1,63.0000000000001,10|0,2:3|2:0,2:0:0:0:
104,100,26947,1,2,2:0:0:0:
104,100,27076,2,0,B|176:122|144:142|210:163,1,126,8|0,2:3|2:0,2:0:0:0:
343,87,27466,2,0,P|337:58|329:24,1,63.0000000000001,10|8,2:0|2:3,2:0:0:0:
205,172,27726,5,10,2:3:0:0:
241,49,27856,1,8,2:3:0:0:
201,185,27985,6,0,B|217:238|217:238|191:286|191:286|208:341,1,168,10|0,2:3|2:0,2:0:0:0:
208,341,28375,1,8,2:3:0:0:
305,384,28505,2,0,P|308:345|287:318,1,63.0000000000001,8|0,2:0|2:0,2:0:0:0:
174,260,28765,2,0,P|221:264|260:239,1,94.5000000000001,10|0,2:3|2:0,2:0:0:0:
274,225,29024,6,0,L|352:241,1,63.0000000000001,2|8,2:0|2:3,2:0:0:0:
421,324,29284,1,2,2:0:0:0:
421,324,29414,1,2,2:0:0:0:
512,280,29544,2,0,P|502:241|495:201,1,63.0000000000001,10|8,2:0|2:3,2:0:0:0:
456,82,29804,5,10,2:3:0:0:
413,205,29934,1,8,2:3:0:0:
461,71,30063,6,0,P|432:23|318:20,1,168,10|2,2:3|2:0,2:0:0:0:
328,13,30453,1,8,2:3:0:0:
239,122,30583,2,0,P|226:60|209:0,2,126,10|8|0,2:0|2:3|2:0,2:0:0:0:
147,149,31232,1,8,2:3:0:0:
147,149,31362,2,0,B|80:143|96:184|27:179,1,126,0|8,2:0|2:0,2:0:0:0:
135,236,31752,1,8,2:3:0:0:
38,94,31882,1,8,2:3:0:0:
1,258,32011,1,10,2:3:0:0:
150,139,32141,6,0,L|156:107,3,21,10|2|2|2,2:3|2:0|2:0|2:0,2:0:0:0:
350,265,32401,6,0,L|346:244,3,21,2|2|2|10,2:0|2:0|2:0|2:3,2:0:0:0:
81,344,32661,6,0,L|87:312,3,21,10|2|2|2,2:0|2:0|2:0|2:0,2:0:0:0:
263,195,32921,6,0,L|259:174,3,21,10|2|2|2,2:3|2:0|2:0|2:0,2:0:0:0:
77,230,33180,6,0,B|46:237|46:237|28:251|28:251|0:258,2,84.0000000000001,6|2|2,2:3|2:0|2:0,2:0:0:0:
205,309,33700,6,0,L|200:329,1,21,10|0,2:3|2:0,2:0:0:0:
281,339,33873,6,0,L|277:360,1,21,10|0,2:3|2:0,2:0:0:0:
359,364,34046,6,0,L|355:385,1,21,6|0,2:3|2:0,2:0:0:0:
178,218,34219,6,0,P|158:154|212:101,2,147,12|0|2,2:3|2:0|2:0,2:0:0:0:
263,195,35128,1,2,2:0:0:0:
263,195,35258,1,2,2:0:0:0:
363,335,35518,2,0,L|409:325,1,49,2|0,2:0|2:0,2:0:0:0:
415,239,35778,2,0,L|305:262,1,97.9999999999999,10|0,2:0|2:0,2:0:0:0:
208,101,36297,6,0,L|276:115,2,70,2|0|8,2:0|2:0|2:0,2:0:0:0:
0,154,37076,5,2,2:0:0:0:
0,154,37206,1,2,2:0:0:0:
7,74,37336,2,0,P|60:50|112:70,1,97.9999999999999,2|0,2:0|2:0,2:0:0:0:
136,134,37726,1,2,2:0:0:0:
136,134,37856,2,0,L|112:243,1,97.9999999999999,10|0,2:0|2:0,2:0:0:0:
14,384,38375,6,0,L|0:315,2,70,2|0|8,2:0|2:0|2:0,2:0:0:0:
158,340,39154,5,2,2:0:0:0:
158,340,39284,1,2,2:0:0:0:
230,372,39414,2,0,P|276:378|318:349,1,97.9999999999999,2|0,2:0|2:0,2:0:0:0:
332,276,39804,1,2,2:0:0:0:
332,276,39934,2,0,L|308:166,1,97.9999999999999,10|2,2:0|2:0,2:0:0:0:
408,50,40453,6,0,B|441:38|470:17|470:17|488:47|512:71,2,140,2|10|2,2:0|2:0|2:0,2:0:0:0:
190,139,42011,6,0,P|146:126|213:72,1,171.5,10|0,2:0|2:0,2:0:0:0:
270,108,42531,6,0,B|279:154|279:154|255:192|255:192|265:239,1,140,12|8,2:3|2:0,2:0:0:0:
280,318,42921,1,8,2:0:0:0:
177,367,43050,2,0,L|193:288,1,70,8|0,2:3|2:0,2:0:0:0:
148,229,43310,1,10,2:0:0:0:
148,229,43440,1,2,2:0:0:0:
289,325,43570,6,0,P|334:339|415:290,1,140,10|8,2:3|2:0,2:0:0:0:
441,226,43960,1,10,2:0:0:0:
317,180,44089,2,0,P|325:224|342:258,1,70,10|0,2:3|2:0,2:0:0:0:
417,103,44349,2,0,P|374:87|336:85,1,70,10|0,2:0|2:0,2:0:0:0:
441,226,44609,6,0,P|498:192|493:103,1,140,10|8,2:3|2:0,2:0:0:0:
428,8,44998,1,8,2:0:0:0:
332,88,45128,2,0,L|251:101,1,70,8|0,2:3|2:0,2:0:0:0:
178,33,45388,1,10,2:0:0:0:
178,33,45518,1,2,2:0:0:0:
97,181,45648,6,0,L|116:274,1,70,10|0,2:3|2:0,2:0:0:0:
174,129,45908,1,10,2:0:0:0:
82,184,46037,1,10,2:0:0:0:
266,293,46167,2,0,L|282:214,1,70,10|0,2:3|2:0,2:0:0:0:
171,321,46427,1,10,2:0:0:0:
301,384,46557,1,8,2:0:0:0:
158,315,46687,6,0,P|125:325|93:361,1,77,14|0,2:3|2:0,2:0:0:0:
233,254,46947,2,0,P|207:230|160:220,1,77,10|0,2:3|2:0,2:0:0:0:
433,369,47206,6,0,P|466:359|498:316,1,84,10|0,2:3|2:0,2:0:0:0:
323,213,47466,1,10,2:3:0:0:
323,213,47596,1,2,2:0:0:0:
415,280,47726,6,0,B|434:184,1,98,12|0,2:3|2:0,2:0:0:0:
347,96,47985,1,8,2:3:0:0:
485,65,48115,1,2,2:0:0:0:
366,0,48245,6,0,L|347:96,1,98,14|0,2:3|2:0,2:0:0:0:
512,234,48505,2,0,P|479:197|428:185,1,98,10|0,2:3|2:0,2:0:0:0:
211,252,48765,5,14,2:3:0:0:
426,173,48895,1,8,2:3:0:0:
143,126,49024,5,12,2:3:0:0:
323,213,49154,1,8,2:3:0:0:
75,268,49284,6,0,L|137:281,1,49,14|8,2:3|2:3,2:0:0:0:
347,96,49414,2,0,L|284:109,1,49,10|8,2:3|2:3,2:0:0:0:
206,229,49544,1,10,2:3:0:0:
208,240,49609,1,10,2:3:0:0:
211,252,49674,1,10,2:3:0:0:
214,264,49739,1,10,2:3:0:0:
217,276,49804,1,10,2:3:0:0:
211,306,50323,5,10,2:0:0:0:
202,270,50388,1,8,2:3:0:0:
194,234,50453,1,8,2:3:0:0:
185,198,50518,1,4,2:3:0:0:
176,162,50583,2,0,P|213:133|258:139,1,94.5000000000001,14|0,2:3|2:0,2:0:0:0:
367,216,50843,6,0,B|320:206|320:206|282:230|282:230|235:220,1,136.5,14|0,2:3|2:0,2:0:0:0:
92,165,51102,2,0,P|97:117|141:82,1,91,10|0,2:0|2:0,2:0:0:0:
303,319,51362,2,0,P|229:332|162:348,1,136.5,10|0,2:3|2:0,2:0:0:0:
150,355,51622,1,10,2:0:0:0:
359,109,51752,6,0,B|467:138|417:174|519:202,1,182,2|2,2:0|2:0,2:0:0:0:
360,13,52141,2,0,P|295:1|247:46,1,136.5,10|0,2:0|2:0,2:0:0:0:
240,81,52401,2,0,P|252:130|259:174,1,91,10|0,2:3|2:0,2:0:0:0:
420,255,52661,2,0,P|427:210|438:165,1,91,10|0,2:0|2:0,2:0:0:0:
234,292,52921,6,0,P|170:266|106:244,1,136.5,10|0,2:3|2:0,2:0:0:0:
13,147,53180,2,0,P|71:129|108:167,1,91,10|0,2:0|2:0,2:0:0:0:
60,384,53440,2,0,B|50:337|50:337|12:312|12:312|2:265,1,136.5,10|0,2:3|2:0,2:0:0:0:
0,249,53700,1,10,2:0:0:0:
223,87,53830,6,0,P|211:132|199:196,1,91,2|8,2:0|2:3,2:0:0:0:
308,371,54089,1,2,2:0:0:0:
138,297,54219,2,0,B|179:274|216:265|216:265|239:285|260:291,1,136.5,10|0,2:0|2:0,2:0:0:0:
305,279,54479,2,0,B|314:234|325:190,1,91,10|0,2:3|2:0,2:0:0:0:
92,109,54739,2,0,B|103:152|112:197,1,91,10|0,2:0|2:0,2:0:0:0:
303,42,54998,6,0,B|330:21|368:34|368:34|394:61|429:62,1,136.5,10|0,2:3|2:0,2:0:0:0:
490,0,55258,2,0,P|475:50|467:93,1,91,10|0,2:0|2:0,2:0:0:0:
324,190,55518,2,0,P|245:205|198:163,1,136.5,10|0,2:3|2:0,2:0:0:0:
197,157,55778,1,10,2:0:0:0:
440,284,55908,6,0,P|432:238|420:195,1,91,2|8,2:0|2:3,2:0:0:0:
306,25,56167,1,2,2:0:0:0:
512,103,56297,2,0,B|478:95|478:95|454:102|454:102|421:95,1,91,10|0,2:0|2:0,2:0:0:0:
246,249,56557,2,0,B|276:242|276:242|300:249|300:249|334:241,1,91,10|0,2:3|2:0,2:0:0:0:
191,25,56817,2,0,P|174:86|251:132,1,136.5,10|0,2:0|2:0,2:0:0:0:
301,138,57076,6,0,B|253:119|253:119|186:147|186:147|181:176|162:200,1,182,10|10,2:3|2:0,2:0:0:0:
0,311,57466,1,2,2:0:0:0:
20,158,57596,2,0,P|48:204|68:254,1,91,8|0,2:3|2:0,2:0:0:0:
92,384,57856,1,10,2:0:0:0:
225,261,57985,6,0,B|287:274|287:274|327:315|327:315|390:328,1,182,8|8,2:3|2:3,2:0:0:0:
406,172,58375,2,0,P|362:167|342:209,1,91,10|0,2:0|2:0,2:0:0:0:
512,384,58635,2,0,L|482:243,1,136.5,10|0,2:3|2:0,2:0:0:0:
506,177,58895,1,10,2:0:0:0:
354,296,59024,1,2,2:0:0:0:
424,82,59154,6,0,P|412:129|406:172,1,91,8|0,2:3|2:0,2:0:0:0:
225,261,59414,2,0,P|216:215|205:167,1,91,8|0,2:0|2:0,2:0:0:0:
329,32,59674,2,0,P|317:77|309:125,1,91,10|0,2:3|2:0,2:0:0:0:
322,212,59934,1,10,2:0:0:0:
161,95,60063,6,0,B|59:114|105:149|-2:173,1,182,2|0,2:3|2:0,2:0:0:0:
176,0,60453,2,0,P|232:27|229:75,1,91,8|0,2:0|2:0,2:0:0:0:
90,167,60713,2,0,P|61:121|99:79,1,91,10|0,2:3|2:0,2:0:0:0:
248,155,60973,1,10,2:0:0:0:
133,247,61102,1,0,2:0:0:0:
259,146,61232,6,0,P|242:235|230:325,1,182,10|8,2:3|2:0,2:0:0:0:
431,384,61622,2,0,P|498:357|498:242,1,182,2|0,2:0|2:0,2:0:0:0:
334,210,62011,1,10,2:0:0:0:
407,148,62141,6,0,P|416:194|426:236,2,91,8|0|8,2:3|2:3|2:3,2:0:0:0:
488,82,62531,2,0,B|476:44|425:20|378:41|378:41|358:69|316:71|316:71|284:54|248:62,1,273,10|0,2:0|2:0,2:0:0:0:
142,154,63050,2,0,P|165:190|214:179,1,91,10|0,2:0|2:0,2:0:0:0:
147,49,63310,6,0,B|121:29|103:-2|103:-2|72:23|40:36,1,136.5,10|0,2:3|2:0,2:0:0:0:
26,49,63570,2,0,P|38:101|45:142,1,91,8|0,2:0|2:0,2:0:0:0:
212,247,63830,2,0,P|219:203|231:153,1,91,8|0,2:3|2:0,2:0:0:0:
100,271,64089,1,10,2:0:0:0:
262,328,64219,1,2,2:0:0:0:
86,266,64349,6,0,P|36:296|61:364,1,136.5,10|0,2:3|2:0,2:0:0:0:
101,381,64609,2,0,B|121:375|141:359|141:359|163:365|185:362,1,91,10|0,2:0|2:0,2:0:0:0:
376,236,64869,2,0,B|329:217|329:217|359:297,1,136.5,10|0,2:3|2:0,2:0:0:0:
343,373,65128,2,0,B|376:380|376:380|401:373|401:373|435:380,1,91,10|0,2:0|2:0,2:0:0:0:
299,97,65388,6,0,B|201:134|251:157|149:197,1,182,14|8,2:3|2:0,2:0:0:0:
0,106,65778,1,2,2:0:0:0:
126,35,65908,5,14,2:3:0:0:
66,246,66037,1,8,2:3:0:0:
129,22,66167,1,8,2:0:0:0:
314,197,66297,6,0,B|365:185|365:185|403:195|403:195|455:184,1,136.5,12|0,2:3|2:0,2:0:0:0:
467,184,66557,1,8,2:3:0:0:
299,97,66687,1,10,2:0:0:0:
455,286,66817,1,8,2:0:0:0:
455,286,66882,1,8,2:0:0:0:
455,286,66947,1,10,2:3:0:0:
393,95,67076,1,10,2:3:0:0:
276,274,67206,1,10,2:0:0:0:
406,91,67336,5,8,2:0:0:0:
406,91,67401,1,8,2:0:0:0:
406,91,67466,2,0,P|459:46|519:88,1,136.5,14|0,2:3|2:0,2:0:0:0:
459,194,67726,2,0,B|425:186|425:186|401:193|401:193|368:186,1,91,10|0,2:0|2:0,2:0:0:0:
205,50,67985,2,0,B|231:43|247:31|247:31|298:46|298:96,1,136.5,10|0,2:3|2:0,2:0:0:0:
290,116,68245,1,10,2:0:0:0:
76,221,68375,6,0,B|87:167|87:167|45:103|45:103|56:50,1,182,2|2,2:0|2:0,2:0:0:0:
260,202,68765,2,0,P|213:233|177:217,1,91,10|0,2:0|2:0,2:0:0:0:
0,131,69024,2,0,P|32:101|106:156,1,136.5,10|0,2:3|2:0,2:0:0:0:
102,156,69284,2,0,P|91:202|82:244,1,91,10|0,2:0|2:0,2:0:0:0:
334,384,69544,6,0,P|325:339|315:294,1,91,10|0,2:3|2:0,2:0:0:0:
50,325,69804,2,0,P|89:376|153:365,1,136.5,10|0,2:0|2:0,2:0:0:0:
220,293,70063,2,0,B|245:184|245:184|220:211|188:224,1,182,10|10,2:3|2:0,2:0:0:0:
375,197,70453,6,0,P|365:154|334:121,1,91,2|8,2:0|2:3,2:0:0:0:
178,199,70713,1,2,2:0:0:0:
391,294,70843,2,0,B|471:273|435:255|508:230,1,136.5,10|0,2:0|2:0,2:0:0:0:
512,205,71102,2,0,P|516:167|496:110,1,91,10|0,2:3|2:0,2:0:0:0:
303,317,71362,2,0,P|331:375|376:376,1,91,10|0,2:0|2:0,2:0:0:0:
315,120,71622,6,0,P|245:100|174:84,1,136.5,10|0,2:3|2:0,2:0:0:0:
98,112,71882,2,0,P|79:62|115:41,1,91,10|0,2:0|2:0,2:0:0:0:
379,1,72141,2,0,B|400:24|425:38|425:38|426:79|412:113,1,136.5,10|0,2:3|2:0,2:0:0:0:
403,142,72401,1,10,2:0:0:0:
186,72,72531,6,0,P|197:115|206:160,1,91,2|8,2:0|2:3,2:0:0:0:
133,317,72791,1,2,2:0:0:0:
321,185,72921,2,0,P|309:229|300:273,1,91,10|0,2:0|2:0,2:0:0:0:
62,264,73180,2,0,P|101:225|137:225,1,91,10|0,2:3|2:0,2:0:0:0:
302,369,73440,2,0,P|257:365|227:331,1,91,10|0,2:0|2:0,2:0:0:0:
351,98,73700,6,0,B|399:87|430:130|430:130|430:136|430:136|455:176|505:174,1,182,10|8,2:3|2:0,2:0:0:0:
512,75,74089,1,2,2:0:0:0:
321,185,74219,2,0,P|276:192|231:202,1,91,8|0,2:3|2:0,2:0:0:0:
78,96,74479,1,10,2:0:0:0:
164,59,74609,6,0,B|186:155|127:140|145:236,1,182,8|8,2:3|2:3,2:0:0:0:
283,62,74998,2,0,P|269:19|230:0,1,91,10|0,2:0|2:0,2:0:0:0:
0,199,75258,2,0,P|66:182|133:170,1,136.5,10|0,2:3|2:0,2:0:0:0:
155,175,75518,1,10,2:0:0:0:
0,64,75648,1,2,2:0:0:0:
176,266,75778,6,0,B|255:241|217:218|303:198,1,136.5,8|0,2:3|2:0,2:0:0:0:
323,193,76037,2,0,P|351:242|330:275,1,91,8|0,2:0|2:0,2:0:0:0:
77,366,76297,2,0,B|86:319|86:319|71:280|71:280|80:234,1,136.5,10|0,2:3|2:0,2:0:0:0:
84,216,76557,1,10,2:0:0:0:
347,372,76687,6,0,B|390:352|423:321|423:321|450:359|486:385,1,182,2|0,2:0|2:0,2:0:0:0:
260,304,77076,2,0,P|238:342|253:383,1,91,8|0,2:0|2:0,2:0:0:0:
429,226,77336,2,0,P|416:157|399:85,1,136.5,10|0,2:3|2:0,2:0:0:0:
394,66,77596,2,0,B|351:43|351:43|302:64,1,91,10|0,2:0|2:0,2:0:0:0:
122,178,77856,6,0,B|154:138|214:128|214:128|239:162|279:172,1,182,10|8,2:3|2:0,2:0:0:0:
508,27,78245,2,0,B|477:18|451:0|451:0|409:10|388:50|400:91,1,182,2|0,2:0|2:0,2:0:0:0:
467,151,78635,1,10,2:0:0:0:
302,76,78765,6,0,P|313:121|321:166,2,91,2|8|2,2:0|2:3|2:0,2:0:0:0:
83,4,79154,2,0,P|29:5|-10:39,1,91,10|0,2:0|2:0,2:0:0:0:
185,82,79414,2,0,P|211:34|201:-16,1,91,10|0,2:3|2:0,2:0:0:0:
67,136,79674,2,0,P|94:182|143:199,1,91,10|0,2:0|2:0,2:0:0:0:
330,262,79934,6,0,B|280:231|228:232|228:232|212:268|176:284,1,182,14|10,2:3|2:0,2:0:0:0:
0,249,80323,1,2,2:0:0:0:
101,384,80453,2,0,P|91:338|80:295,1,91,8|0,2:3|2:0,2:0:0:0:
126,197,80713,1,8,2:0:0:0:
215,314,80843,6,0,P|232:224|251:135,1,182,8|8,2:3|2:3,2:0:0:0:
424,236,81232,2,0,P|365:276|329:271,1,91,10|0,2:0|2:0,2:0:0:0:
235,47,81492,2,0,B|280:26|320:28|320:28|344:44|359:68,1,136.5,10|0,2:3|2:0,2:0:0:0:
358,86,81752,2,0,P|347:130|338:179,1,91,10|0,2:0|2:0,2:0:0:0:
406,349,82011,6,0,P|467:362|511:285,1,147,14|0,2:3|2:0,2:0:0:0:
512,300,82271,1,0,2:0:0:0:
348,270,82401,6,0,B|282:319|326:334|260:385,1,147,14|0,2:3|2:0,2:0:0:0:
260,384,82661,1,0,2:0:0:0:
450,228,82791,6,0,P|426:144|405:82,1,147,14|0,2:3|2:0,2:0:0:0:
406,87,83050,1,0,2:0:0:0:
200,304,83180,6,0,B|156:311|116:329|116:329|75:321|55:282|69:245,1,196,14|8,2:3|2:0,2:0:0:0:
192,58,83570,1,10,2:0:0:0:
156,216,83700,1,8,2:0:0:0:
77,64,83830,1,8,2:0:0:0:
260,154,83960,1,8,2:0:0:0:
68,247,84089,6,0,P|45:241|22:236,2,42,2|2|2,2:0|2:0|2:0,2:0:0:0:
135,303,84739,2,0,P|181:294|227:288,1,83.9999999999998,2|2,2:0|2:0,2:0:0:0:
66,353,85128,1,10,2:3:0:0:
156,216,85388,6,0,L|149:184,2,21,2|0|0,2:0|2:0|2:0,2:0:0:0:
225,373,85648,1,2,2:0:0:0:
435,75,86167,6,0,B|382:63|382:63|337:81|337:81|284:70,1,154,14|8,2:3|2:0,2:0:0:0:
211,115,86557,1,2,3:2:0:0:
408,210,86687,2,0,P|403:187|394:147,1,56,10|0,3:2|2:0,2:0:0:0:
277,272,86947,2,0,P|288:214|300:162,1,112,10|8,3:2|2:0,2:0:0:0:
475,289,87336,1,2,3:2:0:0:
475,289,87466,2,0,P|447:325|370:325,2,112,10|8|8,3:2|3:2|2:0,2:0:0:0:
109,165,88245,6,0,P|77:169|30:181,2,56,10|0|8,3:2|2:0|2:0,2:0:0:0:
261,226,88635,1,2,3:2:0:0:
211,115,88765,2,0,P|202:149|197:177,1,56,8|0,3:2|2:0,2:0:0:0:
339,264,89024,2,0,P|350:201|316:156,1,112,10|8,3:2|2:0,2:0:0:0:
172,250,89414,1,2,3:2:0:0:
172,250,89544,2,0,P|180:284|185:312,1,56,8|0,3:2|2:0,2:0:0:0:
286,70,89804,5,10,3:2:0:0:
