osu file format v14

[General]
AudioFilename: audio.mp3
AudioLeadIn: 0
PreviewTime: 49496
Countdown: 0
SampleSet: Soft
StackLeniency: 0.7
Mode: 0
LetterboxInBreaks: 0
WidescreenStoryboard: 0

[Editor]
Bookmarks: 17172,25484,33795,42107,46263,67043,83666
DistanceSpacing: 0.4
BeatDivisor: 4
GridSize: 32
TimelineZoom: 1.7

[Metadata]
Title:Glorious Days (TV Size)
TitleUnicode:Glorious Days (TV Size)
Artist:9-tie
ArtistUnicode:9-tie
Creator:HeTo
Version:Only one yell
Source:SELECTION PROJECT
Tags:japanese anime jpop j-pop pop idol セレクション・プロジェクト セレプロ serepuro selepro opening op 美山鈴音 miyama suzune 矢野妃菜喜 yano hinaki 花野井玲那 hananoi rena 水野朔 mizuno saku 濱栗広海 hamaguri hiromi 南雲希美 nagumo nozomi 今鵜凪咲 imau nagisa 荒井瑠里 arai ruri 八木野土香 yagi nodoka 羊宮妃那 youmiya yomiya hina 淀川逢生 yodogawa ao 岩橋由佳 iwahashi yuka 小泉詩 koizumi uta 白河みずな shirakawa mizuna 山鹿栞 yamaga shiori 花井美春 hanai miharu 当麻まこ toma mako 下地紫野 Shimoji Shino キューティー cutie kyuutie kowari affirmation L1gHT_u light_u -hitomi
BeatmapID:3262952
BeatmapSetID:1597710

[Difficulty]
HPDrainRate:6
CircleSize:4
OverallDifficulty:8.2
ApproachRate:9.3
SliderMultiplier:1.78
SliderTickRate:1

[Events]
//Background and Video events
0,0,"12.jpg",0,0
Video,576,"glorious days.mp4"
//Break Periods
//Storyboard Layer 0 (Background)
//Storyboard Layer 1 (Fail)
//Storyboard Layer 2 (Pass)
//Storyboard Layer 3 (Foreground)
//Storyboard Layer 4 (Overlay)
//Storyboard Sound Samples

[TimingPoints]
406,519.480519480519,4,2,2,60,1,0
406,-86.2068965517241,4,2,2,60,0,0
8717,-79.3650793650794,4,2,2,60,0,0
15990,-116.279069767442,4,2,2,60,0,0
17029,-86.2068965517241,4,2,2,50,0,0
33652,-151.515151515152,4,2,2,40,0,0
35730,-277.777777777779,4,2,2,35,0,0
36250,-384.615384615388,4,2,2,30,0,0
36769,-151.515151515152,4,2,2,40,0,0
37808,-277.777777777779,4,2,2,35,0,0
38328,-384.615384615388,4,2,2,30,0,0
38847,-151.515151515152,4,2,2,50,0,0
41444,-217.391304347827,4,2,2,40,0,0
41899,-217.391304347827,4,2,2,5,0,0
41964,-86.2068965517243,4,2,2,60,0,0
46120,-68.4931506849315,4,2,2,60,0,0
49747,259.74025974026,4,2,2,70,1,0
50006,-66.6666666666667,4,2,2,70,0,0
50201,-66.6666666666667,4,2,2,5,0,0
50277,259.74025974026,4,2,2,70,1,0
50277,-90.0900900900901,4,2,2,70,0,0
50471,-90.0900900900901,4,2,2,5,0,0
50536,-90.0900900900901,4,2,2,70,0,0
50991,-90.0900900900901,4,2,2,5,0,0
51056,-90.0900900900901,4,2,2,70,0,0
52030,-90.0900900900901,4,2,2,5,0,0
52095,-58.4795321637427,4,2,2,70,0,0
52354,-90.0900900900901,4,2,2,70,0,0
52549,-90.0900900900901,4,2,2,5,0,0
52614,-90.0900900900901,4,2,2,70,0,0
53069,-90.0900900900901,4,2,2,5,0,0
53134,-90.0900900900901,4,2,2,70,0,0
53458,-90.0900900900901,4,2,2,5,0,0
53523,-90.0900900900901,4,2,2,70,0,0
54108,-90.0900900900901,4,2,2,5,0,0
54173,-58.4795321637427,4,2,2,70,0,0
54432,-90.0900900900901,4,2,2,70,0,0
54627,-90.0900900900901,4,2,2,5,0,0
54692,-90.0900900900901,4,2,2,70,0,0
56445,-90.0900900900901,4,2,2,5,0,0
56510,-90.0900900900901,4,2,2,70,0,0
59302,-90.0900900900901,4,2,2,5,0,0
59367,-90.0900900900901,4,2,2,70,0,0
62679,-90.0900900900901,4,2,2,5,0,0
62744,-90.0900900900901,4,2,2,70,0,0
63978,-90.0900900900901,4,2,2,5,0,0
64043,-90.0900900900901,4,2,2,70,0,0
64497,-90.0900900900901,4,2,2,5,0,0
64562,-90.0900900900901,4,2,2,70,0,0
67095,-90.0900900900901,4,2,2,5,0,0
67160,-90.0900900900901,4,2,2,70,0,0
68653,-90.0900900900901,4,2,2,5,0,0
68718,-58.4795321637427,4,2,2,70,0,0
68978,-90.0900900900901,4,2,2,70,0,0
69173,-90.0900900900901,4,2,2,5,0,0
69238,-90.0900900900901,4,2,2,70,0,0
69692,-90.0900900900901,4,2,2,5,0,0
69757,-90.0900900900901,4,2,2,70,0,0
70082,-90.0900900900901,4,2,2,5,0,0
70147,-90.0900900900901,4,2,2,70,0,0
70731,-90.0900900900901,4,2,2,5,0,0
70796,-58.4795321637427,4,2,2,70,0,0
71056,-90.0900900900901,4,2,2,70,0,0
71251,-90.0900900900901,4,2,2,5,0,0
71315,-90.0900900900901,4,2,2,70,0,0
73069,-90.0900900900901,4,2,2,5,0,0
73134,-90.0900900900901,4,2,2,70,0,0
75926,-90.0900900900901,4,2,2,5,0,0
75991,-90.0900900900901,4,2,2,70,0,0
80471,-90.0900900900901,4,2,2,5,0,0
80536,-90.0900900900901,4,2,2,70,0,0
83523,-178.571428571429,4,2,2,60,0,0
85601,-131.578947368421,4,2,2,55,0,0

[Colours]
Combo1 : 213,203,218
Combo2 : 253,140,2
Combo3 : 255,172,214
Combo4 : 146,98,244
Combo5 : 130,253,238
Combo6 : 253,228,130

[HitObjects]
401,100,406,6,0,B|334:88|303:147|303:147|303:200|242:215,1,206.48000630127,6|0,1:2|0:0,0:0:0:0:
43,87,1185,1,2,0:0:0:0:
86,22,1315,1,2,0:0:0:0:
159,57,1444,2,0,P|151:117|151:134,1,51.6200015753174,2|0,0:0|0:0,0:0:0:0:
15,218,1704,1,2,0:0:0:0:
15,218,1834,1,0,0:0:0:0:
83,275,1964,2,0,P|96:221|84:136,1,103.240003150635,2|0,1:2|0:0,0:0:0:0:
94,173,2354,1,0,0:0:0:0:
251,31,2483,6,0,P|249:82|256:138,1,103.240003150635,2|2,1:2|0:0,0:0:0:0:
165,66,2873,2,0,P|162:40|156:6,1,51.6200015753174,2|0,0:0|0:0,0:0:0:0:
336,110,3133,2,0,P|338:84|343:58,1,51.6200015753174,2|0,0:0|0:0,0:0:0:0:
203,199,3393,5,2,0:0:0:0:
203,199,3522,2,0,P|141:212|132:215,1,51.6200015753174,2|0,0:0|0:0,0:0:0:0:
313,254,3782,2,0,P|375:267|384:270,1,51.6200015753174,2|0,0:0|0:0,0:0:0:0:
237,375,4042,2,0,P|200:342|217:277,1,103.240003150635,2|0,0:0|0:0,0:0:0:0:
422,175,4561,6,0,P|412:257|410:365,2,154.860004725952,2|0|2,1:2|1:2|0:0,0:0:0:0:
335,38,5470,1,2,0:0:0:0:
412,15,5600,2,0,P|437:19|462:30,1,51.6200015753174,2|0,0:0|0:0,0:0:0:0:
340,163,5860,1,2,0:0:0:0:
340,163,5990,1,2,0:0:0:0:
270,201,6120,2,0,P|245:205|149:237,1,103.240003150635,2|0,0:0|0:0,0:0:0:0:
170,227,6509,1,0,0:0:0:0:
43,132,6639,6,0,P|51:70|50:7,1,103.240003150635,2|2,1:2|0:0,0:0:0:0:
139,94,7029,2,0,P|146:146|149:158,1,51.6200015753174,2|0,0:0|0:0,0:0:0:0:
16,216,7289,2,0,P|9:268|6:280,1,51.6200015753174,2|0,0:0|0:0,0:0:0:0:
147,371,7548,5,2,0:0:0:0:
147,371,7678,2,0,P|142:345|140:319,1,51.6200015753174,2|0,0:0|0:0,0:0:0:0:
0,263,7938,2,0,P|5:237|7:211,1,51.6200015753174,2|0,0:0|0:0,0:0:0:0:
132,146,8198,2,0,P|127:120|123:37,1,103.240003150635,2|0,0:0|1:2,0:0:0:0:
122,43,8587,1,2,1:2:0:0:
224,180,8717,6,0,P|138:181|97:248,1,168.209994866638,6|0,1:2|0:0,0:0:0:0:
229,362,9237,2,0,P|288:364|353:392,1,112.139996577759,2|0,1:2|0:0,0:0:0:0:
479,267,9626,1,0,0:0:0:0:
408,212,9756,2,0,P|393:238|407:297,1,56.0699982888794,2|0,1:2|0:0,0:0:0:0:
504,169,10016,1,2,0:0:0:0:
504,169,10146,1,2,0:0:0:0:
385,83,10276,1,2,1:2:0:0:
449,36,10405,1,2,3:0:0:0:
449,36,10470,1,2,3:0:0:0:
449,36,10535,2,0,L|482:42,1,28.0349991444397,2|2,3:0|3:0,0:0:0:0:
321,180,10665,1,2,3:0:0:0:
255,122,10795,6,0,P|259:66|256:1,1,112.139996577759,2|2,1:2|0:0,0:0:0:0:
394,114,11185,2,0,P|417:129|446:144,1,56.0699982888794,2|0,0:0|1:2,0:0:0:0:
323,259,11444,2,0,P|297:271|270:288,1,56.0699982888794,2|0,0:0|0:0,0:0:0:0:
321,180,11704,1,2,0:0:0:0:
418,298,11834,2,0,P|415:328|414:358,1,56.0699982888794,2|0,1:2|0:0,0:0:0:0:
221,215,12094,2,0,P|219:186|217:159,1,56.0699982888794,2|0,0:0|0:0,0:0:0:0:
349,36,12354,1,0,1:2:0:0:
280,0,12483,1,2,3:0:0:0:
280,0,12548,1,2,3:0:0:0:
280,0,12613,2,0,L|240:9,1,28.0349991444397,2|2,3:0|3:0,0:0:0:0:
397,149,12743,1,2,3:0:0:0:
450,72,12873,6,0,P|454:20|452:-7,1,56.0699982888794,2|0,1:2|0:0,0:0:0:0:
461,70,13133,2,0,P|465:18|463:-9,1,56.0699982888794,2|0,1:2|0:0,0:0:0:0:
288,184,13393,6,0,P|284:132|286:105,1,56.0699982888794,2|0,1:2|0:0,0:0:0:0:
277,183,13653,2,0,P|273:131|275:104,1,56.0699982888794,2|0,1:2|0:0,0:0:0:0:
118,17,13912,6,0,P|65:28|50:30,1,56.0699982888794,2|0,1:2|0:0,0:0:0:0:
131,95,14172,2,0,P|103:99|76:106,1,56.0699982888794,2|0,1:2|0:0,0:0:0:0:
298,197,14431,6,0,P|351:208|366:210,1,56.0699982888794,2|0,1:2|0:0,0:0:0:0:
285,275,14691,2,0,P|312:279|339:286,1,56.0699982888794,2|0,1:2|0:0,0:0:0:0:
125,373,14951,5,0,1:2:0:0:
109,296,15081,1,0,1:2:0:0:
298,197,15211,5,0,1:2:0:0:
285,275,15341,1,0,1:2:0:0:
131,95,15470,5,0,1:2:0:0:
118,97,15534,1,0,1:2:0:0:
108,99,15599,1,0,1:2:0:0:
97,100,15664,1,0,1:2:0:0:
86,103,15729,1,0,1:2:0:0:
74,105,15794,1,0,1:2:0:0:
63,107,15859,1,0,1:2:0:0:
52,109,15924,1,0,1:2:0:0:
41,111,15990,6,0,P|19:57|42:1,2,114.810001751862,2|8|8,1:2|0:3|0:3,0:0:0:0:
211,234,17029,6,0,B|303:246|255:296|360:313,1,154.860004725952,6|0,1:2|1:2,0:0:0:0:
400,255,17548,1,8,0:1:0:0:
400,255,17808,2,0,P|403:207|406:180,1,51.6200015753174,2|0,1:2|0:0,0:0:0:0:
214,316,18068,1,2,0:0:0:0:
214,316,18198,2,0,P|159:329|96:339,1,103.240003150635,2|0,1:2|1:2,0:0:0:0:
97,260,18587,2,0,P|128:252|163:246,1,51.6200015753174,8|0,0:1|1:2,0:0:0:0:
307,121,18847,1,0,1:2:0:0:
307,121,18977,1,0,1:2:0:0:
246,35,19107,6,0,P|215:70|204:182,1,154.860004725952,0|0,1:2|1:2,0:0:0:0:
259,229,19626,1,8,0:1:0:0:
259,229,19886,2,0,P|300:233|320:240,1,51.6200015753174,2|0,1:2|0:0,0:0:0:0:
122,108,20146,1,2,0:0:0:0:
122,108,20276,2,0,P|64:121|5:123,1,103.240003150635,2|0,1:2|1:2,0:0:0:0:
10,45,20665,2,0,P|41:37|73:36,1,51.6200015753174,8|0,0:1|1:2,0:0:0:0:
201,173,20925,1,0,1:2:0:0:
201,173,21055,1,0,1:2:0:0:
138,247,21185,6,0,P|105:197|130:98,1,154.860004725952,0|0,1:2|1:2,0:0:0:0:
190,66,21704,2,0,P|231:77|259:78,1,51.6200015753174,8|0,0:1|0:0,0:0:0:0:
394,203,21964,5,2,1:2:0:0:
394,203,22094,1,2,0:0:0:0:
391,126,22224,2,0,B|338:121|316:160|316:160|313:203|275:214,1,154.860004725952,2|2,1:2|0:0,0:0:0:0:
204,209,22743,2,0,P|175:207|153:197,1,51.6200015753174,8|0,0:1|1:0,0:0:0:0:
0,319,23003,5,2,1:2:0:0:
0,319,23133,1,2,1:2:0:0:
3,242,23263,2,0,B|56:237|78:276|78:276|81:319|119:330,1,154.860004725952,0|0,0:0|1:2,0:0:0:0:
192,312,23782,1,8,0:1:0:0:
192,312,24042,2,0,P|203:279|196:252,1,51.6200015753174,2|0,1:2|0:0,0:0:0:0:
107,167,24302,6,0,L|109:141,2,25.8100007876587,2|2|0,3:0|3:0|1:2,0:0:0:0:
240,75,24561,1,0,1:2:0:0:
177,31,24691,5,0,1:2:0:0:
166,33,24756,1,2,3:0:0:0:
155,34,24821,1,2,3:0:0:0:
289,154,24951,1,0,3:0:0:0:
340,50,25081,5,4,3:0:0:0:
206,179,25211,1,4,3:0:0:0:
371,271,25341,6,0,P|388:209|372:108,1,154.860004725952,6|0,1:2|1:2,0:0:0:0:
340,50,25860,1,8,0:1:0:0:
340,50,26120,2,0,P|300:66|277:66,1,51.6200015753174,2|0,1:2|0:0,0:0:0:0:
206,179,26380,1,2,0:0:0:0:
206,179,26509,2,0,P|144:158|94:160,1,103.240003150635,2|2,1:2|0:0,0:0:0:0:
207,15,26899,2,0,P|208:60|212:80,1,51.6200015753174,8|0,0:1|0:0,0:0:0:0:
301,317,27159,5,2,1:2:0:0:
316,238,27289,1,2,1:2:0:0:
301,317,27418,2,0,B|371:329|371:329|387:348|387:348|451:357,1,154.860004725952,2|0,1:2|1:2,0:0:0:0:
512,313,27938,1,8,0:1:0:0:
512,313,28198,2,0,P|505:269|506:244,1,51.6200015753174,2|0,1:2|0:0,0:0:0:0:
375,162,28457,1,2,0:0:0:0:
375,162,28587,2,0,P|387:82|385:37,1,103.240003150635,2|2,1:2|0:0,0:0:0:0:
509,182,28977,2,0,P|477:187|448:198,1,51.6200015753174,8|0,0:1|1:2,0:0:0:0:
301,317,29237,1,2,1:2:0:0:
301,317,29367,1,0,1:2:0:0:
238,266,29496,6,0,P|225:209|229:154,1,103.240003150635,2|2,1:2|0:0,0:0:0:0:
227,164,29886,1,0,1:2:0:0:
174,34,30016,1,8,0:1:0:0:
174,34,30146,2,0,P|210:38|231:55,1,51.6200015753174,0|0,1:2|0:0,0:0:0:0:
99,156,30405,6,0,P|40:166|-9:185,1,103.240003150635,2|0,0:0|1:2,0:0:0:0:
0,96,30795,2,0,P|34:90|63:78,1,51.6200015753174,2|0,0:0|0:0,0:0:0:0:
144,233,31055,2,0,P|178:239|207:251,1,51.6200015753174,8|0,0:1|0:0,0:0:0:0:
368,125,31315,1,0,1:2:0:0:
368,125,31444,1,0,1:2:0:0:
277,46,31574,6,2,L|280:85,2,25.8100007876587,2|2|2,3:0|3:0|3:0,3:0:0:0:
445,171,31834,2,2,L|443:196,2,25.8100007876587,2|2|2,3:0|3:0|3:0,3:0:0:0:
309,240,32094,2,2,L|311:265,2,25.8100007876587,2|2|2,3:0|3:0|3:0,3:0:0:0:
405,335,32354,2,2,L|403:360,2,25.8100007876587,2|2|2,3:0|3:0|3:0,3:0:0:0:
244,183,32613,5,2,3:0:0:0:
223,200,32786,1,2,3:0:0:0:
220,227,32960,1,2,3:0:0:0:
339,156,33133,5,4,3:0:0:0:
331,79,33306,1,8,3:0:0:0:
253,58,33480,1,8,3:0:0:0:
135,224,33652,6,0,P|91:238|28:280,1,117.47999964148,6|2,1:2|0:0,0:0:0:0:
133,138,34691,2,0,P|139:115|135:77,1,58.7399998207397,2|0,0:0|0:0,0:0:0:0:
212,187,35081,1,2,0:0:0:0:
212,187,35211,2,0,P|231:207|262:219,1,58.7399998207397,2|0,0:0|0:0,0:0:0:0:
278,226,35730,6,0,P|292:225|313:214,1,32.0400007822266,2|0,0:0|0:0,0:0:0:0:
321,207,36250,6,0,P|326:199|331:185,1,23.1399998587647,2|0,0:0|0:0,0:0:0:0:
328,86,36639,5,2,0:0:0:0:
328,86,36769,2,0,P|355:101|393:106,1,58.7399998207397,2|0,0:0|0:0,0:0:0:0:
242,120,37159,1,2,0:0:0:0:
242,120,37289,2,0,P|241:89|226:53,1,58.7399998207397,2|0,0:0|0:0,0:0:0:0:
224,51,37808,6,0,P|211:39|192:33,1,32.0400007822266,2|0,0:0|0:0,0:0:0:0:
181,33,38328,6,0,P|167:33|155:39,1,23.1399998587647,2|0,0:0|0:0,0:0:0:0:
70,112,38717,5,2,0:0:0:0:
70,112,38847,2,0,P|75:155|76:176,1,58.7399998207397,2|0,0:0|0:0,0:0:0:0:
225,281,39367,2,0,P|230:238|231:217,1,58.7399998207397,2|0,0:0|0:0,0:0:0:0:
388,76,39886,6,0,P|442:68|486:116,2,117.479999641479,2|2|2,0:0|0:0|0:0,0:0:0:0:
332,132,41444,2,0,P|336:169|339:205,1,71.644997594925,2|0,0:0|0:0,0:0:0:0:
338,217,41964,6,0,B|292:229|292:229|282:241|282:241|228:258,1,103.240003150635,6|0,1:2|0:0,0:0:0:0:
63,311,42354,1,8,0:0:0:0:
131,357,42483,2,0,P|144:308|138:243,1,103.240003150635,0|2,1:2|0:0,0:0:0:0:
107,186,42873,1,2,0:0:0:0:
223,79,43003,2,0,P|265:88|291:90,1,51.6200015753174,2|0,1:2|0:0,0:0:0:0:
212,180,43263,1,2,0:0:0:0:
212,180,43393,1,2,0:0:0:0:
108,102,43522,6,0,P|94:53|100:-11,1,103.240003150635,2|2,1:2|0:0,0:0:0:0:
97,1,43912,1,8,0:0:0:0:
212,180,44042,6,0,P|261:192|313:229,1,103.240003150635,0|0,1:2|0:0,0:0:0:0:
304,220,44431,1,8,0:0:0:0:
101,227,44561,6,0,P|65:263|7:290,1,103.240003150635,0|2,1:2|0:0,0:0:0:0:
19,287,44951,1,2,0:0:0:0:
187,378,45081,2,0,P|200:333|196:314,1,51.6200015753174,2|0,1:2|0:0,2:0:0:0:
178,257,45341,1,2,0:0:0:0:
178,257,45470,1,10,0:0:0:0:
318,119,45600,2,0,P|366:130|386:132,1,51.6200015753174,2|0,1:2|0:0,0:0:0:0:
167,44,45860,2,0,P|141:48|116:55,1,51.6200015753174,2|0,0:0|0:0,0:0:0:0:
222,164,46120,6,0,P|229:127|225:84,1,64.9700017844544,6|0,1:2|0:0,0:0:0:0:
232,163,46380,2,0,P|239:126|235:83,1,64.9700017844544,2|0,1:2|0:0,0:0:0:0:
384,284,46639,6,0,P|377:247|381:204,1,64.9700017844544,2|0,1:2|0:0,0:0:0:0:
374,283,46899,2,0,P|367:246|371:203,1,64.9700017844544,2|0,1:2|0:0,0:0:0:0:
146,323,47159,6,0,P|153:286|149:243,1,64.9700017844544,6|0,1:2|0:0,0:0:0:0:
223,336,47418,2,0,P|230:299|226:256,1,64.9700017844544,2|0,1:2|0:0,0:0:0:0:
484,351,47678,6,0,P|477:314|481:271,1,64.9700017844544,2|0,1:2|0:0,0:0:0:0:
378,370,47938,2,0,P|371:333|375:290,1,64.9700017844544,2|0,1:2|0:0,0:0:0:0:
265,102,48198,5,6,1:2:0:0:
434,225,48328,1,0,1:2:0:0:
228,271,48457,5,0,1:2:0:0:
394,101,48587,1,0,1:2:0:0:
167,7,48717,5,0,1:2:0:0:
167,23,48781,1,0,1:2:0:0:
167,39,48846,1,0,1:2:0:0:
168,55,48911,1,0,1:2:0:0:
168,71,48976,1,0,1:2:0:0:
168,88,49041,1,0,1:2:0:0:
169,104,49106,1,0,1:2:0:0:
169,120,49171,1,0,1:2:0:0:
169,136,49236,1,6,1:2:0:0:
91,282,49496,5,2,0:0:0:0:
91,282,49747,1,10,0:0:0:0:
53,301,49811,1,10,0:0:0:0:
13,284,49876,1,8,0:3:0:0:
2,242,49941,1,8,0:3:0:0:
27,207,50006,6,0,P|124:259|247:280,1,200.250007638932,14|0,0:0|0:0,0:0:0:0:
358,273,50277,6,0,B|306:270|285:305|285:305|286:350|229:367,1,148.185003617798,6|0,1:2|0:0,0:0:0:0:
253,356,50536,2,0,P|213:321|227:251,1,98.7900024118653,10|0,0:0|0:0,0:0:0:0:
411,188,50796,2,0,P|404:259|405:353,1,148.185003617798,2|0,1:2|0:0,0:0:0:0:
410,346,51056,1,10,0:0:0:0:
219,154,51186,6,0,B|158:114|110:178|110:178|162:159|190:227,1,197.580004823731,2|2,0:0|0:0,0:0:0:0:
429,110,51575,2,0,P|440:70|431:5,1,98.7900024118653,10|0,0:0|0:0,0:0:0:0:
294,105,51835,2,0,B|379:126|328:164|420:190,1,148.185003617798,2|0,1:2|0:0,0:0:0:0:
411,187,52095,6,0,B|355:211|355:211|340:249|340:249|285:272,1,152.190004760582,10|0,0:0|0:0,0:0:0:0:
146,263,52354,6,0,B|196:258|219:295|219:295|218:340|275:357,1,148.185003617798,2|0,1:2|0:0,0:0:0:0:
250,347,52614,2,0,P|290:312|276:242,1,98.7900024118653,10|0,0:0|0:0,0:0:0:0:
85,124,52874,2,0,B|40:117|14:99|14:99|16:133|-5:201,1,148.185003617798,2|0,1:2|0:0,0:0:0:0:
4,184,53134,1,10,0:0:0:0:
191,129,53264,6,0,B|229:105|261:102|261:102|238:77|210:12,1,148.185003617798,2|0,0:0|0:0,0:0:0:0:
209,29,53523,1,2,0:0:0:0:
95,207,53653,2,0,P|101:259|101:308,1,98.7900024118653,10|0,0:0|0:0,0:0:0:0:
328,383,53913,2,0,B|413:362|362:324|454:298,1,148.185003617798,2|0,1:2|0:0,0:0:0:0:
445,301,54173,6,0,B|389:277|389:277|374:239|374:239|319:216,1,152.190004760582,10|0,0:0|0:0,0:0:0:0:
180,225,54432,6,0,B|230:230|253:193|253:193|252:148|309:131,1,148.185003617798,2|0,1:2|0:0,0:0:0:0:
284,141,54692,2,0,P|324:176|310:246,1,98.7900024118653,10|0,0:0|0:0,0:0:0:0:
162,100,54952,2,0,P|167:49|166:-2,1,98.7900024118653,2|0,1:2|0:0,0:0:0:0:
284,141,55212,1,10,0:0:0:0:
406,0,55341,6,0,P|405:49|410:98,1,98.7900024118653,2|0,0:0|1:2,0:0:0:0:
285,293,55601,1,2,0:0:0:0:
137,184,55731,2,0,P|189:198|252:200,1,98.7900024118653,10|0,0:0|0:0,0:0:0:0:
394,358,55991,2,0,P|344:361|296:378,1,98.7900024118653,2|0,1:2|0:0,0:0:0:0:
77,255,56251,2,0,P|89:181|89:107,1,148.185003617798,10|0,0:0|0:0,0:0:0:0:
89,107,56510,6,0,B|143:117|171:73|171:73|170:67|170:67|197:14|254:26,1,197.580004823731,2|10,1:2|0:0,0:0:0:0:
437,206,56900,2,0,B|410:102|410:102|438:57|505:93,1,197.580004823731,2|0,0:0|0:0,0:0:0:0:
352,254,57289,1,10,0:0:0:0:
283,213,57419,6,0,B|224:202|196:246|196:246|197:252|197:252|170:305|113:293,1,197.580004823731,2|0,1:2|1:2,0:0:0:0:
254,384,57809,1,10,0:0:0:0:
254,384,58069,2,0,P|280:339|258:287,1,98.7900024118653,2|0,1:2|0:0,0:0:0:0:
146,125,58328,1,10,0:0:0:0:
248,25,58458,5,2,0:0:0:0:
248,25,58523,1,2,0:0:0:0:
248,25,58588,2,0,P|270:81|276:227,1,197.580004823731,2|8,1:2|0:0,0:0:0:0:
137,314,58978,1,0,0:0:0:0:
141,227,59108,2,0,B|225:239|188:281|268:296,1,148.185003617798,2|0,1:2|0:0,0:0:0:0:
342,271,59367,1,10,0:0:0:0:
414,84,59497,6,0,B|392:193|392:193|427:226|486:178,1,197.580004823731,2|0,0:0|0:0,0:0:0:0:
315,66,59887,2,0,P|240:89|202:89,1,98.7900024118653,8|0,0:0|0:0,0:0:0:0:
483,198,60147,2,0,P|474:266|473:313,1,98.7900024118653,2|0,1:2|0:0,0:0:0:0:
331,375,60406,2,0,P|307:341|320:276,1,98.7900024118653,10|0,0:0|0:0,0:0:0:0:
387,319,60666,6,0,P|277:335|160:374,1,197.580004823731,2|8,1:2|0:0,0:0:0:0:
5,161,61056,2,0,P|99:188|197:201,1,197.580004823731,2|0,0:0|0:0,0:0:0:0:
403,93,61445,1,10,0:0:0:0:
310,47,61575,6,0,B|303:164|351:107|341:260,1,197.580004823731,0|0,1:2|0:0,0:0:0:0:
194,359,61965,2,0,P|157:316|167:274,1,98.7900024118653,10|0,0:0|0:0,0:0:0:0:
348,248,62225,2,0,P|413:262|452:262,1,98.7900024118653,0|0,1:2|0:0,0:0:0:0:
189,125,62484,2,0,B|137:122|116:157|116:157|117:202|60:219,1,148.185003617798,10|0,0:0|0:0,0:0:0:0:
85,209,62744,6,0,B|160:235|160:235|183:269|183:269|261:292,1,197.580004823731,2|8,1:2|0:0,0:0:0:0:
257,290,63134,1,0,0:0:0:0:
454,187,63264,2,0,P|451:137|447:88,1,98.7900024118653,0|0,1:2|0:0,0:0:0:0:
296,214,63523,1,10,0:0:0:0:
449,300,63653,1,2,0:0:0:0:
384,224,63783,6,0,B|294:234|344:279|237:294,1,148.185003617798,2|0,1:2|0:0,0:0:0:0:
241,302,64043,2,0,P|182:303|152:270,1,98.7900024118653,10|0,0:0|0:0,0:0:0:0:
7,96,64302,6,0,P|12:169|17:243,1,148.185003617798,2|0,1:2|0:0,0:0:0:0:
96,232,64562,2,0,P|91:179|88:126,1,98.7900024118653,10|0,0:0|0:0,0:0:0:0:
276,15,64822,6,0,B|330:31|330:31|352:66|352:66|415:84,1,148.185003617798,6|0,1:2|0:0,0:0:0:0:
413,75,65082,1,10,0:0:0:0:
249,194,65212,1,2,0:0:0:0:
431,308,65341,1,0,1:2:0:0:
339,198,65471,1,0,1:2:0:0:
266,375,65601,1,8,0:0:0:0:
423,194,65731,1,6,1:2:0:0:
434,201,65991,5,6,1:2:0:0:
227,104,66121,2,0,P|169:122|103:129,1,98.7900024118653,10|0,0:0|0:0,0:0:0:0:
286,275,66380,5,0,1:2:0:0:
382,111,66510,1,0,1:2:0:0:
181,273,66640,5,4,0:3:0:0:
394,375,66770,1,4,0:3:0:0:
286,275,66900,6,0,P|214:295|161:375,1,148.185003617798,6|0,1:2|0:0,0:0:0:0:
168,349,67160,2,0,P|110:344|93:308,1,98.7900024118653,10|0,0:0|0:0,0:0:0:0:
262,78,67419,2,0,P|267:134|254:197,1,98.7900024118653,2|0,1:2|0:0,0:0:0:0:
458,312,67679,1,10,0:0:0:0:
383,377,67809,6,0,P|369:279|380:181,1,197.580004823731,2|2,0:0|0:0,0:0:0:0:
440,13,68199,2,0,P|494:22|513:67,1,98.7900024118653,10|0,0:0|0:0,0:0:0:0:
260,175,68458,2,0,P|191:165|185:78,1,148.185003617798,2|0,1:2|0:0,0:0:0:0:
174,97,68718,6,0,B|231:77|231:77|250:41|250:41|306:23,1,152.190004760582,10|0,0:0|0:0,0:0:0:0:
492,220,68978,6,0,P|420:240|367:320,1,148.185003617798,2|0,1:2|0:0,0:0:0:0:
374,294,69238,2,0,P|316:289|299:253,1,98.7900024118653,10|0,0:0|0:0,0:0:0:0:
298,25,69497,2,0,B|361:65|361:65|346:159,1,148.185003617798,2|0,1:2|0:0,0:0:0:0:
343,149,69757,1,10,0:0:0:0:
86,181,69887,6,0,B|89:106|89:106|178:72,1,148.185003617798,2|0,0:0|0:0,0:0:0:0:
170,80,70147,1,2,0:0:0:0:
299,257,70277,2,0,P|291:314|291:363,1,98.7900024118653,10|0,0:0|0:0,0:0:0:0:
65,286,70536,2,0,P|99:223|170:216,1,148.185003617798,2|0,1:2|0:0,0:0:0:0:
170,216,70796,6,0,B|121:200|121:200|102:164|102:164|45:144,1,152.190004760582,10|0,0:0|0:0,0:0:0:0:
279,29,71056,6,0,P|351:49|404:129,1,148.185003617798,2|0,1:2|0:0,0:0:0:0:
397,103,71316,2,0,P|455:98|472:62,1,98.7900024118653,10|0,0:0|0:0,0:0:0:0:
265,191,71575,2,0,P|199:205|167:217,1,98.7900024118653,2|0,1:2|0:0,0:0:0:0:
347,338,71835,1,10,0:0:0:0:
270,384,71965,6,0,P|254:341|274:284,1,98.7900024118653,2|0,0:0|1:2,0:0:0:0:
387,193,72225,1,2,0:0:0:0:
250,100,72354,2,0,P|200:114|145:117,1,98.7900024118653,10|0,0:0|0:0,0:0:0:0:
359,314,72614,2,0,P|408:317|455:331,1,98.7900024118653,2|0,1:2|0:0,0:0:0:0:
297,184,72874,2,0,P|303:118|298:25,1,148.185003617798,10|0,0:0|0:0,0:0:0:0:
299,36,73134,6,0,B|360:10|401:64|401:64|402:108|453:129,1,197.580004823731,2|8,1:2|0:0,0:0:0:0:
210,259,73523,2,0,P|135:270|16:300,1,197.580004823731,2|0,0:0|0:0,0:0:0:0:
153,117,73913,1,10,0:0:0:0:
57,70,74043,6,0,B|35:188|35:188|74:209|107:185,1,197.580004823731,0|0,1:2|1:2,0:0:0:0:
299,36,74432,2,0,P|353:53|408:58,1,98.7900024118653,10|0,0:0|0:0,0:0:0:0:
238,274,74692,2,0,P|210:224|224:178,1,98.7900024118653,2|0,1:2|0:0,0:0:0:0:
404,336,74952,1,10,0:0:0:0:
400,251,75082,5,2,0:0:0:0:
400,251,75147,1,2,0:0:0:0:
400,251,75212,2,0,B|286:269|349:349|228:367,1,197.580004823731,2|8,1:2|0:0,0:0:0:0:
68,222,75601,1,0,0:0:0:0:
134,168,75731,2,0,P|148:229|152:318,1,148.185003617798,2|0,1:2|0:0,0:0:0:0:
104,376,75991,1,10,0:0:0:0:
67,103,76121,6,0,P|122:123|270:138,1,197.580004823731,2|0,0:0|0:0,0:0:0:0:
404,245,76510,2,0,P|428:199|418:148,1,98.7900024118653,10|0,0:0|0:0,0:0:0:0:
240,264,76770,2,0,P|245:318|247:372,1,98.7900024118653,2|0,1:2|0:0,0:0:0:0:
479,368,77030,2,0,P|481:318|485:269,1,98.7900024118653,10|0,0:0|0:0,0:0:0:0:
344,153,77289,6,0,P|349:253|361:350,1,197.580004823731,2|8,1:2|0:0,0:0:0:0:
118,196,77679,2,0,P|130:97|134:-1,1,197.580004823731,2|0,0:0|0:0,0:0:0:0:
244,142,78069,1,8,0:0:0:0:
47,234,78199,6,0,B|108:208|149:262|149:262|150:306|201:327,1,197.580004823731,2|0,0:0|0:0,0:0:0:0:
339,173,78588,2,0,P|300:133|250:146,1,98.7900024118653,10|0,0:0|0:0,0:0:0:0:
362,360,78848,2,0,P|418:345|477:345,1,98.7900024118653,2|0,1:2|0:0,0:0:0:0:
275,215,79108,1,10,0:0:0:0:
275,215,79367,6,0,P|270:102|260:10,1,197.580004823731,6|8,1:2|0:0,0:0:0:0:
470,197,79757,2,0,B|409:171|368:225|368:225|367:269|316:290,1,197.580004823731,2|0,0:0|0:0,0:0:0:0:
116,351,80147,1,10,0:0:0:0:
160,284,80277,6,0,P|211:288|226:397,1,148.185003617798,0|0,1:2|0:0,0:0:0:0:
232,377,80536,1,0,1:2:0:0:
65,272,80666,2,0,P|69:202|67:167,1,98.7900024118653,10|0,0:0|0:0,0:0:0:0:
217,56,80926,2,0,P|215:105|219:154,1,98.7900024118653,2|0,1:2|0:0,0:0:0:0:
97,15,81186,2,0,P|48:35|-8:36,1,98.7900024118653,10|0,0:0|0:0,0:0:0:0:
230,160,81445,6,0,B|340:179|284:241|385:270,1,197.580004823731,6|0,1:2|0:0,0:0:0:0:
190,384,81835,6,0,P|169:327|189:287,1,98.7900024118653,6|0,1:2|0:0,0:0:0:0:
238,240,82095,1,0,0:0:0:0:
65,99,82225,6,0,P|123:109|149:146,1,98.7900024118653,6|0,1:2|0:0,0:0:0:0:
165,212,82485,1,0,0:0:0:0:
380,131,82614,6,0,P|341:176|296:180,1,98.7900024118653,6|0,1:2|0:0,0:0:0:0:
230,160,82874,1,0,0:0:0:0:
480,258,83004,5,8,3:0:0:0:
309,78,83134,1,4,3:0:0:0:
499,154,83264,5,0,1:2:0:0:
298,302,83393,1,0,1:2:0:0:
373,375,83523,6,0,P|379:319|377:258,1,99.6800012167969,2|0,0:0|0:0,0:0:0:0:
335,212,84043,1,2,0:0:0:0:
335,212,84173,2,0,P|331:173|330:107,1,99.6800012167969,2|0,0:0|0:0,0:0:0:0:
397,63,84562,6,0,P|350:67|310:20,1,99.6800012167969,6|0,1:2|0:0,0:0:0:0:
313,33,84952,1,0,0:0:0:0:
163,100,85082,1,8,0:1:0:0:
163,100,85341,2,0,P|143:104|121:123,1,49.8400006083984,2|2,0:0|0:0,0:0:0:0:
66,189,85601,6,0,B|145:173|98:137|191:114,1,135.279998348633,6|0,1:2|0:0,0:0:0:0:
274,229,85991,1,2,1:2:0:0:
274,229,86121,2,0,P|234:213|188:205,1,67.6399991743164,2|0,1:2|0:0,0:0:0:0:
276,2,86380,2,0,B|250:78|305:55|278:147,1,135.279998348633,2|0,1:2|0:0,0:0:0:0:
137,264,86770,5,2,1:2:0:0:
205,308,86900,2,0,P|214:263|203:179,1,101.459998761475,2|0,1:2|0:0,0:0:0:0:
208,200,87160,1,8,0:1:0:0:
410,334,87419,1,8,0:1:0:0:
410,334,87679,6,0,P|343:340|276:361,1,135.279998348633,2|0,1:2|0:0,0:0:0:0:
127,252,88069,1,2,1:2:0:0:
208,200,88199,2,0,P|204:238|204:285,1,67.6399991743164,2|0,1:2|0:0,0:0:0:0:
22,370,88458,6,0,P|29:300|29:213,1,135.279998348633,2|0,1:2|0:0,0:0:0:0:
170,112,88848,1,2,1:2:0:0:
103,68,88978,2,0,P|67:73|45:102,1,67.6399991743164,2|0,1:2|0:0,0:0:0:0:
203,267,89238,5,2,1:2:0:0:
