osu file format v14

[General]
AudioFilename: HALLOWEEN.mp3
AudioLeadIn: 0
PreviewTime: 186473
Countdown: 0
SampleSet: Soft
StackLeniency: 0.3
Mode: 0
LetterboxInBreaks: 0
WidescreenStoryboard: 0

[Editor]
Bookmarks: 2716
DistanceSpacing: 2.2
BeatDivisor: 4
GridSize: 4
TimelineZoom: 2.1

[Metadata]
Title:Halloween*Night
TitleUnicode:Halloween☆Night
Artist:8/pLanet!!
ArtistUnicode:8/pLanet!!
Creator:IMkoley
Version:Konya wa Dokodemo Minna de Halloween!
Source:8 beat story
Tags:
BeatmapID:1573456
BeatmapSetID:746590

[Difficulty]
HPDrainRate:6
CircleSize:4
OverallDifficulty:8.3
ApproachRate:9.3
SliderMultiplier:1.6
SliderTickRate:1

[Events]
//Background and Video events
0,0,"anime-halloween-wallpaper-flying-candies-and-big-pumpkins_1920x1080.jpg",0,0
//Break Periods
//Storyboard Layer 0 (Background)
//Storyboard Layer 1 (Fail)
//Storyboard Layer 2 (Pass)
//Storyboard Layer 3 (Foreground)
//Storyboard Sound Samples

[TimingPoints]
459,375,4,2,0,40,1,0
737,375,4,2,0,40,1,0
1015,375,4,2,0,40,1,0
1246,375,4,2,0,40,1,0
1509,375,4,2,0,40,1,0
1749,375,4,2,0,40,1,0
2002,750,4,2,0,40,1,0
2750,750,4,2,0,40,1,0
3453,375,4,2,0,40,1,0
3741,375,4,2,0,40,1,0
4011,375,4,2,0,40,1,0
4247,375,4,2,0,40,1,0
4501,375,4,2,0,40,1,0
4747,375,4,2,0,40,1,0
5003,1500,4,2,0,40,1,0
6493,375,4,2,0,40,1,0
17180,375,4,2,0,40,1,0
17555,375,4,2,0,40,1,0
17930,375,4,2,0,40,1,0
18305,375,4,2,0,40,1,0
18492,375,4,2,0,40,1,0
18493,-133.333333333333,4,2,0,40,0,0
19617,375,4,2,0,40,1,0
19617,-133.333333333333,4,2,0,40,0,0
19992,375,4,2,0,40,1,0
19992,-133.333333333333,4,2,0,40,0,0
20554,375,4,2,0,40,1,0
20554,-133.333333333333,4,2,0,40,0,0
21491,375,4,2,0,40,1,0
21491,-133.333333333333,4,2,0,40,0,0
22241,375,4,2,0,40,1,0
22241,-133.333333333333,4,2,0,40,0,0
22991,375,4,2,0,40,1,0
22991,-133.333333333333,4,2,0,40,0,0
23366,375,4,2,0,40,1,0
23366,-133.333333333333,4,2,0,40,0,0
24303,375,4,2,0,40,1,0
24303,-133.333333333333,4,2,0,40,0,0
24490,375,4,2,0,40,1,0
24490,-133.333333333333,4,2,0,40,0,0
25615,375,4,2,0,40,1,0
25615,-133.333333333333,4,2,0,40,0,0
25990,375,4,2,0,40,1,0
25990,-133.333333333333,4,2,0,40,0,0
26552,375,4,2,0,40,1,0
26552,-133.333333333333,4,2,0,40,0,0
27489,375,4,2,0,40,1,0
27489,-133.333333333333,4,2,0,40,0,0
28239,375,4,2,0,40,1,0
28239,-133.333333333333,4,2,0,40,0,0
28989,375,4,2,0,40,1,0
28989,-133.333333333333,4,2,0,40,0,0
29364,375,4,2,0,40,1,0
29364,-133.333333333333,4,2,0,40,0,0
29739,375,4,2,0,40,1,0
29739,-133.333333333333,4,2,0,40,0,0
30114,375,4,2,0,40,1,0
30114,-133.333333333333,4,2,0,40,0,0
30489,375,4,2,0,40,1,0
30489,-100,4,2,0,40,0,0
31989,-100,4,2,0,40,0,0
33489,-100,4,2,0,40,0,0
35364,-100,4,2,0,40,0,0
36489,-100,4,2,0,40,0,0
38176,-100,4,2,0,40,0,0
39489,-100,4,2,0,40,0,0
41364,-100,4,2,0,40,0,0
42489,-100,4,2,0,40,0,0
51489,-133.333333333333,4,2,0,40,0,0
52989,375,4,2,0,40,1,0
52989,-100,4,2,0,40,0,0
53270,375,4,2,0,40,1,0
53551,375,4,2,0,40,1,0
53738,375,4,2,0,40,1,0
54113,375,4,2,0,40,1,0
54488,-83.3333333333333,4,2,0,40,0,1
72863,-100,4,2,0,40,0,0
78113,-100,4,2,0,40,0,0
79613,-100,4,2,0,40,0,0
81113,-100,4,2,0,40,0,0
84113,-100,4,2,0,40,0,0
84488,-100,4,2,0,40,0,0
84863,-100,4,2,0,40,0,0
85050,-100,4,2,0,40,0,0
85238,-100,4,2,0,40,0,0
85425,-100,4,2,0,40,0,0
85800,-100,4,2,0,40,0,0
86175,-100,4,2,0,40,0,0
86738,-100,4,2,0,40,0,0
87113,-100,4,2,0,40,0,0
87863,-100,4,2,0,40,0,0
88613,-100,4,2,0,40,0,0
89363,-100,4,2,0,40,0,0
90113,-100,4,2,0,40,0,0
90863,-100,4,2,0,40,0,0
91613,-100,4,2,0,40,0,0
92363,-100,4,2,0,40,0,0
93113,-100,4,2,0,40,0,0
93863,-100,4,2,0,40,0,0
94613,-100,4,2,0,40,0,0
95363,-100,4,2,0,40,0,0
96113,-100,4,2,0,40,0,0
96488,-100,4,2,0,40,0,0
97238,-100,4,2,0,40,0,0
97988,-100,4,2,0,40,0,0
98363,-100,4,2,0,40,0,0
98738,-100,4,2,0,40,0,0
99113,-100,4,2,0,40,0,0
121988,375,4,2,0,40,1,0
122269,375,4,2,0,40,1,0
122549,375,4,2,0,40,1,0
122736,375,4,2,0,40,1,0
123111,375,4,2,0,40,1,0
123206,-83.3333333333333,4,2,0,40,0,1
141861,-100,4,2,0,40,0,0
147111,-100,4,2,0,40,0,0
166611,375,4,2,0,40,1,0
166986,375,4,2,0,40,1,0
167267,375,4,2,0,40,1,0
167548,375,4,2,0,40,1,0
167735,375,4,2,0,40,1,0
168110,375,4,2,0,40,1,0
168486,375,4,2,0,40,1,0
169986,375,4,2,0,40,1,0
170267,375,4,2,0,40,1,0
170548,375,4,2,0,40,1,0
170735,375,4,2,0,40,1,0
172047,375,4,2,0,40,1,0
172984,375,4,2,0,40,1,0
173265,375,4,2,0,40,1,0
173546,375,4,2,0,40,1,0
174296,375,4,2,0,40,1,0
174389,375,4,2,0,40,1,0
174482,375,4,2,0,40,1,0
175044,375,4,2,0,40,1,0
175981,375,4,2,0,40,1,0
176262,375,4,2,0,40,1,0
176543,375,4,2,0,40,1,0
177480,375,4,2,0,40,1,0
178042,375,4,2,0,40,1,0
178792,375,4,2,0,40,1,0
178979,375,4,2,0,40,1,0
179260,375,4,2,0,40,1,0
179541,375,4,2,0,40,1,0
180103,375,4,2,0,40,1,0
180290,375,4,2,0,40,1,0
180383,375,4,2,0,40,1,0
180476,375,4,2,0,40,1,0
180851,375,4,2,0,40,1,0
181226,375,4,2,0,40,1,0
181601,375,4,2,0,40,1,0
181976,375,4,2,0,40,1,0
182351,375,4,2,0,40,1,0
182726,375,4,2,0,40,1,0
183101,375,4,2,0,40,1,0
183476,375,4,2,0,40,1,0
183663,375,4,2,0,40,1,0
183851,375,4,2,0,40,1,0
184038,375,4,2,0,40,1,0
184225,375,4,2,0,40,1,0
184413,375,4,2,0,40,1,0
184600,375,4,2,0,40,1,0
184787,375,4,2,0,40,1,0
184975,375,4,2,0,40,1,0
185162,375,4,2,0,40,1,0
185349,375,4,2,0,40,1,0
185536,375,4,2,0,40,1,0
185724,375,4,2,0,40,1,0
185911,375,4,2,0,40,1,0
186473,375,4,2,0,40,1,0
187973,375,4,2,0,40,1,0
189473,375,4,2,0,40,1,0
190973,375,4,2,0,40,1,0
191254,375,4,2,0,40,1,0
191535,375,4,2,0,40,1,0
191722,375,4,2,0,40,1,0
192097,375,4,2,0,40,1,0
192284,375,4,2,0,40,1,0
192377,375,4,2,0,40,1,0
192471,375,4,2,0,40,1,0
192846,375,4,2,0,40,1,0
193221,375,4,2,0,40,1,0
193596,375,4,2,0,40,1,0
193971,375,4,2,0,40,1,0
194346,375,4,2,0,40,1,0
198471,375,4,2,0,40,1,0
198471,-83.3333333333333,4,2,0,40,0,1
210471,-100,4,2,0,40,0,0
231471,375,4,2,0,40,1,0
231749,375,4,2,0,40,1,0
232027,375,4,2,0,40,1,0
232258,375,4,2,0,40,1,0
232521,375,4,2,0,40,1,0
232761,375,4,2,0,40,1,0
233014,750,4,2,0,40,1,0
233762,750,4,2,0,40,1,0
234465,375,4,2,0,40,1,0
234753,375,4,2,0,40,1,0
235023,375,4,2,0,40,1,0
235259,375,4,2,0,40,1,0
235513,375,4,2,0,40,1,0
235759,375,4,2,0,40,1,0
236015,1500,4,2,0,40,1,0
237505,4000,4,2,0,40,1,0

[HitObjects]
52,168,459,6,0,P|60:120|128:88,1,120
304,232,1015,1,0,0:0:0:0:
148,112,1246,1,0,0:0:0:0:
372,80,1509,1,0,0:0:0:0:
232,232,1749,1,0,0:0:0:0:
60,104,2002,1,0,0:0:0:0:
340,244,2750,5,0,0:0:0:0:
108,112,3453,5,0,0:0:0:0:
348,156,3741,2,0,P|324:200|244:220,1,120,0|0,0:0|0:0,0:0:0:0:
136,76,4247,1,0,0:0:0:0:
248,260,4501,1,0,0:0:0:0:
448,200,4747,1,0,0:0:0:0:
256,192,5003,12,0,6493,0:0:0:0:
224,188,6868,6,0,P|172:144|168:112,1,80
324,96,7243,1,0,0:0:0:0:
324,96,7430,1,0,0:0:0:0:
344,256,7618,6,0,P|304:284|264:292,1,80
212,144,7993,1,0,0:0:0:0:
212,144,8180,1,0,0:0:0:0:
124,280,8368,6,0,P|212:304|216:300,1,80
340,268,8743,1,0,0:0:0:0:
340,268,8930,2,0,P|272:232|272:216,2,80
336,108,9493,1,0,0:0:0:0:
336,108,9680,1,0,0:0:0:0:
184,156,9868,6,0,P|160:204|128:228,1,80
284,296,10243,1,0,0:0:0:0:
256,140,10430,1,0,0:0:0:0:
412,180,10618,2,0,P|440:232|432:272,1,80
368,108,10993,1,0,0:0:0:0:
368,108,11180,6,0,P|328:152|308:160,1,80
188,264,11555,2,0,P|200:216|232:188,1,80
184,40,11930,2,0,P|232:88|248:112,1,80
348,292,12305,2,0,P|332:252|312:220,1,80
144,196,12868,6,0,P|148:152|176:104,1,80
308,56,13243,1,0,0:0:0:0:
332,212,13430,2,0,P|284:252|256:260,2,80
184,152,13993,1,0,0:0:0:0:
344,144,14180,6,0,P|372:104|412:80,2,80
216,240,14743,1,0,0:0:0:0:
376,244,14930,2,0,P|392:284|428:320,2,80
232,176,15493,6,0,P|156:172|132:156,1,80
280,68,15868,1,0,0:0:0:0:
96,328,16243,1,0,0:0:0:0:
384,240,16430,1,0,0:0:0:0:
352,220,16524,1,0,0:0:0:0:
324,188,16618,1,0,0:0:0:0:
143,103,16805,5,0,0:0:0:0:
160,140,16899,1,0,0:0:0:0:
164,180,16993,1,0,0:0:0:0:
400,72,17180,5,0,0:0:0:0:
40,88,17555,1,0,0:0:0:0:
424,340,17930,1,0,0:0:0:0:
40,200,18305,1,0,0:0:0:0:
340,184,18492,6,0,P|288:168|240:140,1,80
176,76,18867,1,0,0:0:0:0:
176,76,19054,1,0,0:0:0:0:
176,76,19242,2,0,P|212:128|224:132,1,60.0000022888184
128,296,19617,2,0,P|116:264|112:220,1,60.0000022888184
388,304,19992,1,0,0:0:0:0:
356,188,20179,6,0,P|332:140|332:116,1,60.0000022888184
72,92,20554,1,0,0:0:0:0:
248,256,20929,5,0,0:0:0:0:
236,224,21022,1,0,0:0:0:0:
236,188,21116,1,0,0:0:0:0:
240,152,21210,1,0,0:0:0:0:
256,120,21304,1,0,0:0:0:0:
284,100,21397,1,0,0:0:0:0:
272,280,21491,6,0,P|308:316|332:324,2,60.0000022888184
76,116,22241,6,0,P|104:152|136:160,1,60.0000022888184
368,108,22616,2,0,P|352:148|324:164,2,60.0000022888184
104,108,23366,5,0,0:0:0:0:
128,132,23459,1,0,0:0:0:0:
160,148,23553,1,0,0:0:0:0:
308,184,23647,5,0,0:0:0:0:
272,196,23741,1,0,0:0:0:0:
236,204,23834,1,0,0:0:0:0:
304,100,23928,5,0,0:0:0:0:
340,88,24022,1,0,0:0:0:0:
376,92,24116,1,0,0:0:0:0:
500,112,24209,5,0,0:0:0:0:
488,144,24303,1,0,0:0:0:0:
460,164,24396,1,0,0:0:0:0:
176,60,24490,6,0,P|120:76|100:92,1,60.0000022888184
220,144,24865,2,0,P|256:136|280:116,1,60.0000022888184
384,176,25240,2,0,P|340:200|280:216,1,90.0000034332277
180,48,25615,1,0,0:0:0:0:
224,288,25802,2,0,P|228:252|248:220,1,60.0000022888184
84,148,26177,6,0,P|128:124|164:124,1,60.0000022888184
384,208,26552,1,0,0:0:0:0:
224,32,26927,1,0,0:0:0:0:
232,296,27114,1,0,0:0:0:0:
256,264,27208,1,0,0:0:0:0:
268,228,27302,1,0,0:0:0:0:
308,36,27489,5,0,0:0:0:0:
196,144,27864,1,0,0:0:0:0:
324,236,28239,2,0,P|324:276|348:304,1,60.0000022888184
220,248,28614,1,0,0:0:0:0:
188,132,28801,1,0,0:0:0:0:
420,48,28989,1,0,0:0:0:0:
356,192,29364,5,0,0:0:0:0:
316,192,29457,1,0,0:0:0:0:
280,204,29551,1,0,0:0:0:0:
244,216,29645,1,0,0:0:0:0:
204,208,29739,5,0,0:0:0:0:
168,192,29832,1,0,0:0:0:0:
144,160,29926,1,0,0:0:0:0:
132,124,30020,1,0,0:0:0:0:
140,84,30114,5,0,0:0:0:0:
160,52,30207,1,0,0:0:0:0:
196,32,30301,1,0,0:0:0:0:
236,24,30395,1,0,0:0:0:0:
288,28,30489,1,0,0:0:0:0:
268,236,30864,6,0,L|328:296,1,80
211,179,31239,1,0,0:0:0:0:
351,103,31426,2,0,L|404:176,1,80
336,316,31801,2,0,L|388:240,1,80
72,88,32176,6,0,P|128:108|160:104,1,80
296,168,32551,1,0,0:0:0:0:
156,280,32739,1,0,0:0:0:0:
184,124,32926,6,0,P|208:88|244:72,1,80
388,132,33301,1,0,0:0:0:0:
100,332,33489,6,0,P|100:288|96:248,1,80
240,88,33864,2,0,P|236:128|248:176,1,80
436,332,34239,2,0,P|452:268|448:244,1,80
336,144,34614,2,0,P|280:124|252:104,1,80
216,268,34989,1,0,0:0:0:0:
108,76,35364,6,0,L|168:108,1,40
392,156,35551,2,0,L|356:174,1,40
104,224,35739,2,0,L|152:251,1,40
408,296,35926,2,0,L|373:315,1,40
224,64,36114,6,0,L|188:82,1,40
266,139,36301,2,0,L|304:159,1,40
144,232,36489,6,0,P|168:272|200:292,1,80
308,176,36864,2,0,P|340:124|372:116,1,80
200,84,37239,1,0,0:0:0:0:
352,300,37426,1,0,0:0:0:0:
156,160,37614,1,0,0:0:0:0:
404,168,37801,1,0,0:0:0:0:
96,276,37989,1,0,0:0:0:0:
248,272,38176,6,0,L|248:168,2,80
248,119,38739,1,0,0:0:0:0:
364,216,38926,2,0,L|368:300,1,80
367,143,39301,1,0,0:0:0:0:
248,119,39489,6,0,P|168:92|160:92,1,80
284,200,39864,2,0,P|336:208|368:204,1,80
268,324,40239,1,0,0:0:0:0:
180,112,40426,2,0,P|200:152|224:188,1,80
340,272,40801,2,0,P|332:208|316:188,1,80
188,128,41176,2,0,P|220:96|260:96,1,80
292,100,41457,5,0,0:0:0:0:
332,124,41551,1,0,0:0:0:0:
368,156,41645,1,0,0:0:0:0:
388,200,41739,1,0,0:0:0:0:
364,240,41832,1,0,0:0:0:0:
320,256,41926,6,0,L|256:288,1,40
224,184,42114,2,0,L|180:160,1,40
120,280,42301,2,0,L|56:288,2,40
280,292,42676,5,0,0:0:0:0:
256,132,42864,2,0,P|316:164|352:188,1,80
164,176,43239,1,0,0:0:0:0:
236,36,43426,2,0,P|164:68|144:80,2,80
364,132,43989,1,0,0:0:0:0:
320,284,44176,2,0,P|256:244|240:224,1,80
168,104,44551,5,0,0:0:0:0:
164,264,44739,1,0,0:0:0:0:
292,168,44926,6,0,P|300:120|316:88,1,80
292,168,45301,2,0,P|272:208|240:224,1,80
292,168,45676,1,0,0:0:0:0:
148,100,45864,1,0,0:0:0:0:
308,260,46051,1,0,0:0:0:0:
72,268,46239,1,0,0:0:0:0:
208,188,46426,6,0,P|244:152|296:144,1,80
400,152,46801,2,0,P|356:116|320:104,1,80
316,236,47176,1,0,0:0:0:0:
260,120,47364,2,0,P|224:96|184:88,1,80
236,208,47739,1,0,0:0:0:0:
120,260,47926,6,0,P|172:284|212:284,2,80
124,132,48489,2,0,P|160:92|192:84,1,80
304,132,48864,1,0,0:0:0:0:
260,252,49051,2,0,P|176:288|168:284,1,80
132,180,49426,1,0,0:0:0:0:
132,180,49614,1,0,0:0:0:0:
240,112,49801,6,0,P|284:76|332:60,2,80
188,228,50364,1,0,0:0:0:0:
112,128,50551,2,0,P|80:84|56:68,2,80
108,256,51114,1,0,0:0:0:0:
224,308,51301,1,0,0:0:0:0:
256,192,51489,12,0,52989,0:0:0:0:
100,84,53270,5,0,0:0:0:0:
376,280,53551,1,0,0:0:0:0:
112,252,53738,1,0,0:0:0:0:
388,104,54113,1,0,0:0:0:0:
140,236,54488,6,0,P|112:192|112:136,1,95.9999970703126
296,104,54863,1,0,0:0:0:0:
216,332,55050,1,0,0:0:0:0:
380,236,55238,2,0,P|416:184|420:112,1,95.9999970703126
184,80,55613,2,0,P|152:144|168:200,1,95.9999970703126
292,300,55988,2,0,L|312:188,1,95.9999970703126
104,116,56363,1,0,0:0:0:0:
276,196,56550,1,0,0:0:0:0:
88,260,56738,5,0,0:0:0:0:
340,56,56925,1,0,0:0:0:0:
208,320,57113,1,0,0:0:0:0:
72,64,57300,1,0,0:0:0:0:
244,152,57488,6,0,P|276:204|328:240,1,95.9999970703126
448,100,57863,2,0,P|392:64|332:56,1,95.9999970703126
172,60,58238,2,0,P|116:88|80:140,1,95.9999970703126
268,200,58613,1,0,0:0:0:0:
240,12,58800,1,0,0:0:0:0:
356,164,58988,2,0,P|364:116|380:72,1,95.9999970703126
188,84,59363,2,0,P|192:140|176:184,1,95.9999970703126
68,336,59738,6,0,L|56:284,1,47.9999985351563
256,248,59925,2,0,L|220:204,1,47.9999985351563
96,116,60113,2,0,L|148:84,1,47.9999985351563
376,128,60300,2,0,L|332:92,1,47.9999985351563
156,296,60488,1,0,0:0:0:0:
108,140,60863,6,0,P|148:108|204:96,1,95.9999970703126
360,184,61238,2,0,P|300:184|260:160,1,95.9999970703126
124,296,61613,1,0,0:0:0:0:
292,76,61800,1,0,0:0:0:0:
352,296,61988,1,0,0:0:0:0:
128,156,62175,2,0,P|180:184|220:192,2,95.9999970703126
312,212,62738,2,0,P|368:220|444:116,1,191.999994140625
260,76,63300,5,0,0:0:0:0:
124,212,63488,1,0,0:0:0:0:
316,228,63675,2,0,P|336:184|364:132,2,95.9999970703126
80,156,64144,5,0,0:0:0:0:
116,192,64238,1,0,0:0:0:0:
164,196,64331,1,0,0:0:0:0:
212,204,64425,1,0,0:0:0:0:
256,220,64519,1,0,0:0:0:0:
292,252,64613,1,0,0:0:0:0:
244,68,64800,6,0,P|176:68|144:72,1,95.9999970703126
340,71,65175,1,0,0:0:0:0:
76,344,65363,1,0,0:0:0:0:
480,148,65550,2,0,P|424:184|400:208,1,95.9999970703126
168,112,65925,2,0,P|224:184|264:216,1,95.9999970703126
420,184,66300,1,0,0:0:0:0:
196,272,66488,6,0,P|200:212|212:176,2,95.9999970703126
360,64,67050,1,0,0:0:0:0:
112,180,67238,1,0,0:0:0:0:
284,264,67425,2,0,P|280:192|312:152,1,95.9999970703126
128,72,67800,1,0,0:0:0:0:
320,96,67988,2,0,P|344:148|372:176,2,95.9999970703126
128,100,68550,1,0,0:0:0:0:
416,284,68738,5,0,0:0:0:0:
44,196,68925,1,0,0:0:0:0:
388,16,69113,1,0,0:0:0:0:
220,324,69300,1,0,0:0:0:0:
52,48,69488,6,0,P|112:24|160:24,2,95.9999970703126
228,124,70050,1,0,0:0:0:0:
392,228,70238,1,0,0:0:0:0:
200,216,70425,2,0,P|156:196|108:156,1,95.9999970703126
312,156,70800,2,0,P|384:136|416:132,2,95.9999970703126
172,24,71363,1,0,0:0:0:0:
88,336,71550,5,0,0:0:0:0:
404,36,71738,1,0,0:0:0:0:
300,344,71925,1,0,0:0:0:0:
88,48,72113,1,0,0:0:0:0:
468,328,72300,1,0,0:0:0:0:
44,208,72488,1,0,0:0:0:0:
472,168,72675,1,0,0:0:0:0:
312,176,72863,6,0,P|264:172|224:152,1,80
364,60,73238,2,0,P|408:88|416:112,1,80
260,68,73613,2,0,P|208:72|168:88,1,80
232,232,73988,1,0,0:0:0:0:
232,232,74175,1,0,0:0:0:0:
420,72,74363,1,0,0:0:0:0:
420,72,74550,2,0,P|376:88|344:84,1,80
56,228,75113,1,0,0:0:0:0:
168,112,75300,5,0,0:0:0:0:
208,92,75394,1,0,0:0:0:0:
252,80,75488,1,0,0:0:0:0:
296,80,75581,2,0,L|356:84,1,40
196,220,75769,5,0,0:0:0:0:
232,196,75863,1,0,0:0:0:0:
272,176,75956,1,0,0:0:0:0:
316,172,76050,2,0,L|372:184,1,40
232,280,76238,5,0,0:0:0:0:
188,288,76331,1,0,0:0:0:0:
144,292,76425,1,0,0:0:0:0:
104,276,76519,2,0,L|60:248,1,40
156,120,76800,6,0,P|196:88|236:80,1,80
64,52,77175,1,0,0:0:0:0:
32,208,77363,1,0,0:0:0:0:
256,112,77550,1,0,0:0:0:0:
188,248,77738,1,0,0:0:0:0:
380,212,77925,1,0,0:0:0:0:
332,60,78113,2,0,P|272:84|236:76,1,80
100,68,78488,2,0,P|80:112|264:200,1,320
124,288,79425,1,0,0:0:0:0:
296,80,79613,5,0,0:0:0:0:
388,212,79800,2,0,P|356:252|128:92,1,400
272,72,80925,1,0,0:0:0:0:
424,348,81113,1,0,0:0:0:0:
272,304,81300,6,0,P|216:228|220:160,1,160
348,68,81863,1,0,0:0:0:0:
400,272,82050,1,0,0:0:0:0:
284,84,82238,1,0,0:0:0:0:
224,272,82425,1,0,0:0:0:0:
112,64,82613,1,0,0:0:0:0:
32,204,82800,2,0,P|84:240|448:28,1,560
447,33,84206,1,0,0:0:0:0:
447,33,84300,1,0,0:0:0:0:
447,33,84394,1,0,0:0:0:0:
447,33,84488,6,0,P|456:88|384:172,1,160
252,104,85050,1,0,0:0:0:0:
472,296,85425,1,0,0:0:0:0:
32,124,85800,1,0,0:0:0:0:
352,96,86175,6,0,P|292:120|288:160,2,80
192,80,86738,1,0,0:0:0:0:
252,228,86925,2,0,P|216:252|176:256,1,80
192,80,87300,1,0,0:0:0:0:
220,116,87394,1,0,0:0:0:0:
260,132,87488,1,0,0:0:0:0:
304,136,87581,1,0,0:0:0:0:
344,120,87675,1,0,0:0:0:0:
376,88,87769,1,0,0:0:0:0:
420,92,87863,6,0,P|448:132|452:176,1,80
300,204,88238,1,0,0:0:0:0:
300,204,88425,1,0,0:0:0:0:
156,132,88613,6,0,P|164:84|212:68,1,80
340,280,88988,1,0,0:0:0:0:
340,280,89175,1,0,0:0:0:0:
192,76,89363,6,0,P|136:64|108:68,1,80
248,152,89738,1,0,0:0:0:0:
408,148,89925,2,0,P|384:108|372:68,2,80
292,260,90488,1,0,0:0:0:0:
292,260,90675,1,0,0:0:0:0:
240,108,90863,6,0,P|200:152|168:160,1,80
76,280,91238,1,0,0:0:0:0:
236,272,91425,1,0,0:0:0:0:
328,140,91613,2,0,P|352:96|392:72,1,80
236,272,91988,1,0,0:0:0:0:
76,280,92175,1,0,0:0:0:0:
164,64,92363,5,0,0:0:0:0:
436,236,92550,1,0,0:0:0:0:
272,272,92738,1,0,0:0:0:0:
360,32,92925,1,0,0:0:0:0:
372,324,93113,1,0,0:0:0:0:
372,324,93300,1,0,0:0:0:0:
264,204,93488,2,0,P|184:160|180:148,1,80
352,144,93863,6,0,P|384:72|412:56,2,80
200,96,94425,1,0,0:0:0:0:
228,252,94613,2,0,P|272:272|320:284,2,80
228,252,95175,1,0,0:0:0:0:
124,132,95363,2,0,P|88:168|88:200,1,80
240,148,95738,6,0,P|288:88|288:72,1,80
448,80,96113,2,0,P|420:136|396:156,1,80
252,116,96488,2,0,P|180:104|268:176,1,320
416,244,97425,5,0,0:0:0:0:
384,220,97519,1,0,0:0:0:0:
368,184,97613,1,0,0:0:0:0:
228,108,97800,1,0,0:0:0:0:
196,304,97988,1,0,0:0:0:0:
364,64,98175,1,0,0:0:0:0:
128,152,98363,1,0,0:0:0:0:
284,180,98550,2,0,P|332:200|380:208,1,80
200,184,98925,2,0,P|160:208|116:220,1,80
100,224,99206,1,0,0:0:0:0:
64,208,99300,1,0,0:0:0:0:
40,176,99394,1,0,0:0:0:0:
32,140,99488,6,0,P|32:100|48:48,1,80
160,172,99863,1,0,0:0:0:0:
160,172,100050,1,0,0:0:0:0:
256,300,100238,2,0,P|288:264|304:208,1,80
396,104,100613,2,0,P|392:164|400:192,2,80
248,48,101175,5,0,0:0:0:0:
384,244,101363,1,0,0:0:0:0:
148,284,101550,1,0,0:0:0:0:
248,48,101738,1,0,0:0:0:0:
384,244,101925,1,0,0:0:0:0:
148,284,102113,1,0,0:0:0:0:
248,48,102300,1,0,0:0:0:0:
384,244,102488,6,0,P|312:240|272:220,2,80
208,148,103050,1,0,0:0:0:0:
388,64,103238,2,0,P|360:108|328:132,1,80
196,268,103613,2,0,P|216:220|240:200,1,80
276,188,103894,5,0,0:0:0:0:
312,172,103988,1,0,0:0:0:0:
344,148,104081,1,0,0:0:0:0:
368,116,104175,5,0,0:0:0:0:
404,96,104269,1,0,0:0:0:0:
444,88,104363,1,0,0:0:0:0:
436,128,104456,5,0,0:0:0:0:
428,168,104550,1,0,0:0:0:0:
420,208,104644,1,0,0:0:0:0:
400,244,104738,5,0,0:0:0:0:
364,264,104831,1,0,0:0:0:0:
324,276,104925,1,0,0:0:0:0:
284,284,105019,5,0,0:0:0:0:
244,288,105113,1,0,0:0:0:0:
208,276,105206,2,0,L|160:248,1,40
284,140,105394,2,0,L|224:160,1,40
100,92,105675,5,0,0:0:0:0:
128,248,105863,1,0,0:0:0:0:
260,340,106050,2,0,P|260:284|276:224,1,80
212,108,106425,2,0,P|204:164|192:196,2,80
368,312,106988,1,0,0:0:0:0:
88,80,107175,5,0,0:0:0:0:
336,196,107363,1,0,0:0:0:0:
120,316,107550,1,0,0:0:0:0:
220,56,107738,1,0,0:0:0:0:
236,320,107925,5,0,0:0:0:0:
76,148,108113,1,0,0:0:0:0:
384,260,108300,1,0,0:0:0:0:
104,272,108488,6,0,P|104:232|144:176,2,80
428,56,109238,1,0,0:0:0:0:
364,204,109425,2,0,P|332:240|296:248,1,80
164,168,109800,2,0,P|224:152|260:156,1,80
60,308,110269,1,0,0:0:0:0:
292,248,110550,1,0,0:0:0:0:
36,68,110738,1,0,0:0:0:0:
400,168,110925,1,0,0:0:0:0:
400,168,111019,1,0,0:0:0:0:
400,168,111113,6,0,P|324:168|308:160,2,80
312,300,111675,1,0,0:0:0:0:
124,28,111863,2,0,P|116:72|120:112,1,80
236,220,112238,1,0,0:0:0:0:
124,28,112425,1,0,0:0:0:0:
144,188,112613,2,0,P|184:144|208:148,1,80
76,248,112988,2,0,P|44:272|24:240,1,80
136,132,113363,1,0,0:0:0:0:
296,124,113550,2,0,P|332:164|376:184,1,80
196,148,113925,6,0,P|184:196|168:224,1,80
220,72,114300,1,0,0:0:0:0:
300,212,114488,1,0,0:0:0:0:
152,272,114675,2,0,P|208:280|240:284,1,80
120,168,115050,2,0,P|88:216|76:248,1,80
224,164,115425,2,0,P|240:112|232:68,1,80
140,212,115800,1,0,0:0:0:0:
252,328,115988,2,0,P|296:300|356:300,1,80
244,156,116363,1,0,0:0:0:0:
440,312,116550,2,0,P|400:256|360:144,1,160
248,64,117113,5,0,0:0:0:0:
216,220,117300,2,0,P|180:256|124:276,1,80
260,148,117675,1,0,0:0:0:0:
296,304,117863,2,0,P|356:328|380:328,1,80
264,208,118238,1,0,0:0:0:0:
120,136,118425,1,0,0:0:0:0:
260,60,118613,1,0,0:0:0:0:
208,212,118800,6,0,P|224:276|240:280,1,80
116,164,119175,2,0,P|112:216|88:232,1,80
200,112,119550,2,0,P|200:168|220:184,1,80
124,52,119925,2,0,P|120:104|100:128,1,80
248,52,120300,2,0,P|272:96|296:112,1,80
324,140,120581,5,0,0:0:0:0:
324,140,120675,1,0,0:0:0:0:
324,140,120769,1,0,0:0:0:0:
324,140,120863,1,0,0:0:0:0:
324,140,120956,1,0,0:0:0:0:
324,140,121050,1,0,0:0:0:0:
324,140,121144,1,0,0:0:0:0:
324,140,121238,1,0,0:0:0:0:
324,140,121331,1,0,0:0:0:0:
324,140,121425,2,0,L|340:156,7,20
92,312,121988,5,0,0:0:0:0:
392,48,122269,1,0,0:0:0:0:
52,196,122549,1,0,0:0:0:0:
432,208,122736,1,0,0:0:0:0:
164,36,123111,1,0,0:0:0:0:
404,168,123486,6,0,P|368:208|288:220,2,95.9999970703126
192,112,124048,1,0,0:0:0:0:
260,324,124236,2,0,P|292:264|320:248,1,95.9999970703126
152,100,124611,2,0,P|134:144|97:173,1,95.9999970703126
316,132,124986,2,0,P|356:176|400:196,1,95.9999970703126
184,276,125361,1,0,0:0:0:0:
88,76,125548,1,0,0:0:0:0:
420,272,125736,5,0,0:0:0:0:
52,304,125923,1,0,0:0:0:0:
456,32,126111,1,0,0:0:0:0:
36,184,126298,1,0,0:0:0:0:
488,192,126486,6,0,L|440:196,2,47.9999985351563
304,72,126861,1,0,0:0:0:0:
188,260,127048,2,0,P|240:296|288:308,1,95.9999970703126
152,120,127423,1,0,0:0:0:0:
152,120,127517,1,0,0:0:0:0:
152,120,127611,2,0,P|172:176|164:232,1,95.9999970703126
364,104,127986,2,0,L|452:40,2,95.9999970703126
252,292,128548,1,0,0:0:0:0:
68,60,128736,5,0,0:0:0:0:
464,224,128923,1,0,0:0:0:0:
160,36,129111,1,0,0:0:0:0:
432,336,129298,1,0,0:0:0:0:
48,136,129486,1,0,0:0:0:0:
424,32,129673,1,0,0:0:0:0:
316,124,129861,6,0,P|272:144|236:176,1,95.9999970703126
456,212,130236,2,0,P|428:156|396:132,1,95.9999970703126
276,320,130611,1,0,0:0:0:0:
276,320,130798,1,0,0:0:0:0:
332,208,130986,2,0,P|280:160|216:144,2,95.9999970703126
112,220,131548,2,0,P|172:256|216:256,1,95.9999970703126
168,128,131923,1,0,0:0:0:0:
168,128,132111,1,0,0:0:0:0:
340,264,132298,5,0,0:0:0:0:
340,264,132392,1,0,0:0:0:0:
340,264,132486,2,0,P|312:212|308:172,2,95.9999970703126
168,128,133048,1,0,0:0:0:0:
168,128,133142,1,0,0:0:0:0:
168,128,133236,2,0,P|148:184|120:204,2,95.9999970703126
380,72,133798,2,0,P|304:104|276:128,2,95.9999970703126
380,292,134361,5,0,0:0:0:0:
344,276,134454,1,0,0:0:0:0:
324,244,134548,1,0,0:0:0:0:
308,208,134642,1,0,0:0:0:0:
312,168,134736,1,0,0:0:0:0:
324,132,134829,1,0,0:0:0:0:
340,96,134923,1,0,0:0:0:0:
364,68,135017,1,0,0:0:0:0:
120,204,135111,1,0,0:0:0:0:
228,88,135486,6,0,P|284:56|344:72,2,95.9999970703126
60,236,136048,1,0,0:0:0:0:
280,244,136236,2,0,P|252:320|228:332,2,95.9999970703126
436,84,136798,2,0,P|380:124|340:128,1,95.9999970703126
164,240,137173,1,0,0:0:0:0:
164,240,137361,1,0,0:0:0:0:
164,240,137548,1,0,0:0:0:0:
348,84,137736,5,0,0:0:0:0:
88,332,137923,1,0,0:0:0:0:
176,28,138111,1,0,0:0:0:0:
456,324,138298,1,0,0:0:0:0:
280,220,138486,6,0,P|284:164|312:116,2,95.9999970703126
144,176,139048,1,0,0:0:0:0:
332,324,139236,2,0,P|260:324|212:300,2,95.9999970703126
396,92,139798,1,0,0:0:0:0:
332,224,139986,1,0,0:0:0:0:
208,100,140173,2,0,P|148:128|128:168,1,95.9999970703126
332,224,140548,1,0,0:0:0:0:
120,108,140736,5,0,0:0:0:0:
448,296,140923,1,0,0:0:0:0:
76,352,141111,1,0,0:0:0:0:
348,64,141298,1,0,0:0:0:0:
224,332,141486,1,0,0:0:0:0:
224,332,141673,1,0,0:0:0:0:
96,236,141861,6,0,P|92:172|160:68,2,160
364,60,142986,1,0,0:0:0:0:
156,304,143361,1,0,0:0:0:0:
292,220,143548,2,0,P|268:168|264:140,1,80
152,72,143923,1,0,0:0:0:0:
152,72,144111,1,0,0:0:0:0:
164,208,144298,6,0,P|192:244|196:296,2,80
256,24,144861,1,0,0:0:0:0:
380,212,145048,2,0,P|333:228|312:264,2,80
280,108,145611,1,0,0:0:0:0:
148,164,145798,2,0,P|120:208|92:216,1,80
95,215,146079,1,0,0:0:0:0:
95,215,146173,1,0,0:0:0:0:
448,56,146361,1,0,0:0:0:0:
76,304,146548,1,0,0:0:0:0:
500,256,146736,1,0,0:0:0:0:
56,56,146923,1,0,0:0:0:0:
156,160,147111,6,0,P|192:208|232:216,1,80
392,200,147486,2,0,P|392:140|280:108,1,160
284,236,148048,1,0,0:0:0:0:
284,236,148236,1,0,0:0:0:0:
284,236,148423,1,0,0:0:0:0:
188,128,148611,6,0,P|172:76|124:56,1,80
296,80,148986,2,0,P|340:56|448:76,1,160
376,200,149548,1,0,0:0:0:0:
376,200,149736,1,0,0:0:0:0:
376,200,149923,1,0,0:0:0:0:
240,148,150111,6,0,P|176:112|140:104,2,80
164,272,150673,1,0,0:0:0:0:
284,192,150861,2,0,P|300:144|320:120,3,80
184,64,151611,1,0,0:0:0:0:
140,200,151798,6,0,P|156:256|176:272,1,80
300,204,152173,2,0,P|284:144|260:128,1,80
416,140,152548,2,0,P|392:80|368:72,1,80
240,64,152923,2,0,P|196:68|156:112,1,80
292,296,153298,2,0,P|340:304|376:296,1,80
370,298,153579,5,0,0:0:0:0:
370,298,153673,1,0,0:0:0:0:
370,298,153767,1,0,0:0:0:0:
370,298,153861,1,0,0:0:0:0:
208,116,154048,1,0,0:0:0:0:
40,340,154423,1,0,0:0:0:0:
456,40,154798,1,0,0:0:0:0:
188,144,155173,6,0,P|224:216|240:220,2,80
360,296,155736,2,0,P|380:252|380:204,1,80
280,36,156111,1,0,0:0:0:0:
156,136,156298,2,0,P|96:156|84:184,1,80
316,264,156673,6,0,P|360:236|400:192,1,80
320,96,157048,1,0,0:0:0:0:
320,96,157236,1,0,0:0:0:0:
188,124,157423,2,0,P|128:100|92:104,1,80
264,228,157798,2,0,P|304:248|344:248,2,80
168,324,158361,2,0,P|112:312|84:296,1,80
108,48,158736,5,0,0:0:0:0:
192,156,158923,2,0,P|244:200|276:208,1,80
376,264,159298,2,0,P|412:228|420:188,1,80
260,296,159673,2,0,P|192:296|152:272,1,80
252,68,160048,2,0,P|200:48|160:52,1,80
348,240,160423,1,0,0:0:0:0:
128,252,160611,1,0,0:0:0:0:
128,252,160798,1,0,0:0:0:0:
348,240,160986,6,0,P|344:192|364:164,1,80
176,64,161361,2,0,P|100:68|80:80,1,80
240,256,161736,2,0,P|268:288|312:308,2,80
272,124,162298,1,0,0:0:0:0:
140,164,162486,5,0,0:0:0:0:
108,188,162579,1,0,0:0:0:0:
88,224,162673,1,0,0:0:0:0:
84,264,162767,1,0,0:0:0:0:
92,304,162861,2,0,L|128:336,3,40
164,332,163236,1,0,0:0:0:0:
204,324,163329,1,0,0:0:0:0:
236,300,163423,1,0,0:0:0:0:
260,268,163517,1,0,0:0:0:0:
284,236,163611,2,0,L|324:204,3,40
304,172,163986,5,0,0:0:0:0:
272,152,164079,1,0,0:0:0:0:
240,128,164173,1,0,0:0:0:0:
212,100,164267,1,0,0:0:0:0:
188,68,164361,5,0,0:0:0:0:
172,32,164454,1,0,0:0:0:0:
136,52,164548,1,0,0:0:0:0:
112,84,164642,1,0,0:0:0:0:
80,112,164736,5,0,0:0:0:0:
48,136,164829,1,0,0:0:0:0:
68,172,164923,1,0,0:0:0:0:
92,204,165017,1,0,0:0:0:0:
92,244,165111,2,0,L|120:280,1,40
152,296,165298,1,0,0:0:0:0:
192,304,165392,1,0,0:0:0:0:
232,300,165486,6,0,P|264:256|304:252,1,80
344,100,165861,1,0,0:0:0:0:
388,252,166048,2,0,P|400:208|400:160,1,80
256,108,166423,2,0,P|248:172|256:204,1,80
328,328,166798,1,0,0:0:0:0:
168,316,166986,6,0,P|128:272|112:200,1,120
432,60,167548,1,0,0:0:0:0:
152,320,167735,1,0,0:0:0:0:
248,48,168110,1,0,0:0:0:0:
488,340,168485,1,0,0:0:0:0:
256,192,169048,6,0,L|256:104,1,80
412,148,169423,2,0,P|376:188|384:236,1,80
136,200,169798,2,0,P|152:152|136:116,1,80
400,276,170267,1,0,0:0:0:0:
120,252,170548,1,0,0:0:0:0:
280,68,170735,2,0,P|260:120|240:172,1,80
132,296,171297,6,0,P|128:236|136:192,2,80
188,144,171860,1,0,0:0:0:0:
416,104,172047,2,0,P|368:80|328:72,1,80
436,204,172422,2,0,P|364:212|328:192,1,80
100,168,172797,2,0,P|140:136|184:136,1,80
424,296,173265,1,0,0:0:0:0:
64,88,173546,2,0,P|92:132|120:152,1,80
312,164,173921,2,0,P|320:100|296:84,1,80
112,304,174296,5,0,0:0:0:0:
112,304,174389,1,0,0:0:0:0:
112,304,174482,2,0,P|132:232|296:184,1,240
274,176,175231,1,0,0:0:0:0:
408,264,175419,2,0,P|424:200|440:160,2,80
200,56,175981,1,0,0:0:0:0:
196,340,176262,1,0,0:0:0:0:
436,40,176543,1,0,0:0:0:0:
320,280,176730,1,0,0:0:0:0:
232,144,176918,6,0,P|196:108|148:100,2,80
392,200,177480,2,0,P|368:136|208:40,1,240
280,288,178229,2,0,P|196:284|56:168,1,240
380,80,178979,1,0,0:0:0:0:
56,280,179260,1,0,0:0:0:0:
508,132,179541,2,0,P|476:168|432:184,2,80
352,96,180103,5,0,0:0:0:0:
248,220,180290,1,0,0:0:0:0:
248,220,180383,1,0,0:0:0:0:
248,220,180476,2,0,P|304:256|400:256,1,160
68,72,181226,1,0,0:0:0:0:
416,304,181601,1,0,0:0:0:0:
64,256,181976,1,0,0:0:0:0:
300,120,182351,6,0,P|232:108|132:72,1,160
340,272,183101,1,0,0:0:0:0:
36,172,183476,5,0,0:0:0:0:
408,84,183663,1,0,0:0:0:0:
408,84,183851,1,0,0:0:0:0:
80,80,184038,5,0,0:0:0:0:
448,200,184225,1,0,0:0:0:0:
448,200,184413,1,0,0:0:0:0:
104,248,184600,5,0,0:0:0:0:
416,68,184787,1,0,0:0:0:0:
416,68,184974,1,0,0:0:0:0:
84,120,185162,5,0,0:0:0:0:
444,240,185349,1,0,0:0:0:0:
444,240,185536,1,0,0:0:0:0:
32,240,185724,5,0,0:0:0:0:
368,96,185911,1,0,0:0:0:0:
104,188,186473,6,0,P|168:240|196:248,2,80
244,116,187035,2,0,P|284:84|328:88,1,80
280,240,187410,1,0,0:0:0:0:
280,240,187504,1,0,0:0:0:0:
280,240,187598,2,0,P|232:276|196:280,1,80
296,72,187973,2,0,P|228:72|204:96,1,80
372,208,188348,1,0,0:0:0:0:
212,188,188535,1,0,0:0:0:0:
132,328,188723,1,0,0:0:0:0:
392,332,188910,1,0,0:0:0:0:
64,68,189098,1,0,0:0:0:0:
256,192,189285,1,0,0:0:0:0:
348,60,189473,6,0,P|304:36|260:24,1,80
204,64,189754,1,0,0:0:0:0:
204,64,189848,1,0,0:0:0:0:
268,212,190035,2,0,P|224:248|184:256,1,80
256,104,190410,2,0,P|288:80|332:72,1,80
336,232,190785,1,0,0:0:0:0:
176,220,190973,6,0,P|120:184|100:112,1,120
436,268,191535,1,0,0:0:0:0:
96,268,191722,2,0,L|92:192,3,40
216,76,192097,1,0,0:0:0:0:
324,248,192284,1,0,0:0:0:0:
324,248,192377,1,0,0:0:0:0:
324,248,192470,1,0,0:0:0:0:
64,60,192846,6,0,P|104:104|220:116,2,160
320,252,193971,2,0,P|296:176|304:88,1,160
148,132,194533,2,0,P|128:180|104:208,1,80
110,201,194908,1,0,0:0:0:0:
110,201,195096,1,0,0:0:0:0:
256,264,195283,2,0,L|304:280,1,40
293,276,195471,2,0,P|304:224|380:144,1,160
220,100,196033,6,0,P|168:80|140:76,1,80
232,212,196408,1,0,0:0:0:0:
436,320,196596,1,0,0:0:0:0:
360,96,196783,1,0,0:0:0:0:
232,360,196971,5,0,0:0:0:0:
224,12,197158,1,0,0:0:0:0:
504,192,197346,1,0,0:0:0:0:
8,188,197533,1,0,0:0:0:0:
320,68,197721,1,0,0:0:0:0:
124,336,197908,1,0,0:0:0:0:
404,100,198096,2,0,P|440:116|483:139,1,80
256,228,198471,6,0,P|200:256|148:256,2,95.9999970703126
392,92,199033,1,0,0:0:0:0:
332,276,199221,2,0,P|304:208|268:152,1,95.9999970703126
112,120,199596,1,0,0:0:0:0:
228,272,199783,1,0,0:0:0:0:
272,84,199971,2,0,P|344:120|356:140,1,95.9999970703126
176,212,200346,1,0,0:0:0:0:
452,344,200533,5,0,0:0:0:0:
76,52,200721,1,0,0:0:0:0:
468,40,200908,1,0,0:0:0:0:
12,360,201096,1,0,0:0:0:0:
456,192,201283,1,0,0:0:0:0:
284,84,201471,6,0,P|232:80|184:92,1,95.9999970703126
284,84,201752,1,0,0:0:0:0:
284,84,201846,1,0,0:0:0:0:
288,284,202033,2,0,P|216:320|188:312,1,95.9999970703126
288,284,202314,1,0,0:0:0:0:
288,284,202408,2,0,P|344:264|400:276,1,95.9999970703126
268,100,202783,1,0,0:0:0:0:
108,224,202971,2,0,P|80:272|84:328,2,95.9999970703126
192,40,203533,1,0,0:0:0:0:
504,364,203721,5,0,0:0:0:0:
36,64,203908,1,0,0:0:0:0:
252,352,204096,1,0,0:0:0:0:
496,24,204283,1,0,0:0:0:0:
24,204,204471,1,0,0:0:0:0:
224,204,204658,6,0,P|268:252|324:276,1,95.9999970703126
472,168,205033,2,0,P|416:104|364:84,1,95.9999970703126
24,192,205408,2,0,P|48:136|80:88,1,95.9999970703126
352,288,205783,1,0,0:0:0:0:
192,96,205971,1,0,0:0:0:0:
392,64,206158,2,0,P|376:136|360:156,1,95.9999970703126
80,184,206533,1,0,0:0:0:0:
288,80,206721,2,0,P|352:152|372:156,1,95.9999970703126
80,184,207096,1,0,0:0:0:0:
252,288,207283,6,0,P|232:268|228:236,1,47.9999985351563
227,249,207471,2,0,P|220:188|316:88,1,191.999994140625
368,280,208033,1,0,0:0:0:0:
96,116,208221,1,0,0:0:0:0:
264,304,208408,1,0,0:0:0:0:
440,88,208596,1,0,0:0:0:0:
220,96,208783,6,0,P|192:140|164:156,1,47.9999985351563
336,240,208971,2,0,P|376:212|404:212,1,47.9999985351563
176,232,209158,2,0,P|156:288|140:296,1,47.9999985351563
348,88,209346,2,0,P|400:48|416:48,1,47.9999985351563
180,116,209533,2,0,P|128:88|104:88,1,47.9999985351563
292,204,209721,2,0,L|316:256,1,47.9999985351563
264,32,209908,1,0,0:0:0:0:
228,128,210096,6,0,P|168:152|132:144,1,80
80,128,210471,2,0,B|84:196|132:280|132:280|164:192|128:104,1,320
292,188,211408,1,0,0:0:0:0:
144,104,211596,5,0,0:0:0:0:
152,272,211783,2,0,B|240:320|240:320|184:236|184:236|272:256|272:256|352:352,1,400
48,160,212908,1,0,0:0:0:0:
424,348,213096,1,0,0:0:0:0:
272,304,213283,6,0,P|216:228|220:160,1,160
76,256,213846,1,0,0:0:0:0:
400,272,214033,1,0,0:0:0:0:
284,84,214221,1,0,0:0:0:0:
224,272,214408,1,0,0:0:0:0:
112,64,214596,1,0,0:0:0:0:
32,204,214783,2,0,B|92:192|92:192|104:232|104:232|148:212|148:212|144:180|144:180|188:180|188:180|192:212|192:212|220:212|220:212|220:172|220:172|268:172|268:172|272:216|272:216|328:212|328:212|328:168|328:168|368:168,1,560
65,351,216189,1,0,0:0:0:0:
65,351,216283,1,0,0:0:0:0:
65,351,216377,1,0,0:0:0:0:
65,351,216471,6,0,P|56:296|128:212,1,160
260,280,217033,1,0,0:0:0:0:
40,88,217408,1,0,0:0:0:0:
480,260,217783,1,0,0:0:0:0:
160,288,218158,6,0,P|220:264|224:224,2,80
320,304,218721,1,0,0:0:0:0:
260,156,218908,2,0,P|296:132|336:128,1,80
320,304,219283,1,0,0:0:0:0:
292,268,219377,1,0,0:0:0:0:
252,252,219471,1,0,0:0:0:0:
208,248,219564,1,0,0:0:0:0:
168,264,219658,1,0,0:0:0:0:
136,296,219752,1,0,0:0:0:0:
92,292,219846,6,0,P|64:252|60:208,1,80
212,180,220221,1,0,0:0:0:0:
212,180,220408,1,0,0:0:0:0:
356,252,220596,6,0,P|348:300|300:316,1,80
172,104,220971,1,0,0:0:0:0:
172,104,221158,1,0,0:0:0:0:
320,308,221346,6,0,P|376:320|404:316,1,80
264,232,221721,1,0,0:0:0:0:
104,236,221908,2,0,P|128:276|140:316,2,80
220,124,222471,1,0,0:0:0:0:
220,124,222658,1,0,0:0:0:0:
272,276,222846,6,0,P|312:232|344:224,1,80
436,104,223221,1,0,0:0:0:0:
276,112,223408,1,0,0:0:0:0:
184,244,223596,2,0,P|160:288|120:312,1,80
276,112,223971,1,0,0:0:0:0:
436,104,224158,1,0,0:0:0:0:
348,320,224346,5,0,0:0:0:0:
76,148,224533,1,0,0:0:0:0:
240,112,224721,1,0,0:0:0:0:
152,352,224908,1,0,0:0:0:0:
140,60,225096,1,0,0:0:0:0:
140,60,225283,1,0,0:0:0:0:
248,180,225471,2,0,P|328:224|332:236,1,80
160,240,225846,6,0,P|128:312|100:328,2,80
312,288,226408,1,0,0:0:0:0:
284,132,226596,2,0,P|240:112|192:100,2,80
284,132,227158,1,0,0:0:0:0:
388,252,227346,2,0,P|424:216|424:184,1,80
272,236,227721,6,0,P|224:296|224:312,1,80
64,304,228096,2,0,P|92:248|116:228,1,80
260,268,228471,2,0,P|332:280|244:208,1,320
96,140,229408,5,0,0:0:0:0:
128,164,229502,1,0,0:0:0:0:
144,200,229596,1,0,0:0:0:0:
284,276,229783,1,0,0:0:0:0:
256,192,229971,12,0,231471,0:0:0:0:
12,84,231749,5,0,0:0:0:0:
388,300,232027,1,0,0:0:0:0:
180,308,232258,1,0,0:0:0:0:
308,96,232521,1,0,0:0:0:0:
104,192,232761,1,0,0:0:0:0:
392,272,233014,1,0,0:0:0:0:
88,96,233762,1,0,0:0:0:0:
256,288,234465,6,0,P|272:240|340:176,1,120
68,112,235023,2,0,P|116:168|152:184,1,100
368,104,235513,1,0,0:0:0:0:
156,192,235759,1,0,0:0:0:0:
256,192,236015,12,0,237505,0:0:0:0:
