osu file format v14

[General]
AudioFilename: audio.mp3
AudioLeadIn: 0
PreviewTime: 13433
Countdown: 0
SampleSet: Normal
StackLeniency: 0.2
Mode: 1
LetterboxInBreaks: 0
WidescreenStoryboard: 0

[Editor]
DistanceSpacing: 1.7
BeatDivisor: 4
GridSize: 32
TimelineZoom: 2.4

[Metadata]
Title:Crazy Backup Dancers
TitleUnicode:クレイジーバックダンサーズ
Artist:8bitfrog
ArtistUnicode:8bitfrog
Creator:Axer
Version:fake 8bitoni
Source:
Tags:
BeatmapID:2157101
BeatmapSetID:1031569

[Difficulty]
HPDrainRate:7
CircleSize:2
OverallDifficulty:5
ApproachRate:10
SliderMultiplier:1.4
SliderTickRate:1

[Events]
//Background and Video events
0,0,"AetherReimu.jpg",0,100
//Break Periods
//Storyboard Layer 0 (Background)
//Storyboard Layer 1 (Fail)
//Storyboard Layer 2 (Pass)
//Storyboard Layer 3 (Foreground)
//Storyboard Layer 4 (Overlay)
//Storyboard Sound Samples

[TimingPoints]
100,333.333333333333,4,1,0,40,1,0
24099,-86.9565217391304,4,1,0,60,0,1
34766,-100,4,1,0,60,0,0

[HitObjects]
256,192,100,5,0,0:0:0:0:
256,192,655,1,8,0:0:0:0:
256,192,711,1,8,0:0:0:0:
256,192,766,1,0,0:0:0:0:
256,192,1322,1,8,0:0:0:0:
256,192,1377,1,8,0:0:0:0:
256,192,1433,1,0,0:0:0:0:
256,192,1933,1,8,0:0:0:0:
256,192,2099,1,0,0:0:0:0:
256,192,2433,1,0,0:0:0:0:
256,192,2766,1,8,0:0:0:0:
256,192,3266,1,8,0:0:0:0:
256,192,3433,1,0,0:0:0:0:
256,192,3766,1,0,0:0:0:0:
256,192,4099,1,8,0:0:0:0:
256,192,4266,1,0,0:0:0:0:
256,192,4766,1,0,0:0:0:0:
256,192,5099,1,0,0:0:0:0:
256,192,5433,1,8,0:0:0:0:
256,192,5599,1,0,0:0:0:0:
256,192,5766,1,0,0:0:0:0:
256,192,5933,1,8,0:0:0:0:
256,192,6099,1,8,0:0:0:0:
256,192,6266,1,0,0:0:0:0:
256,192,6433,1,0,0:0:0:0:
256,192,6599,1,8,0:0:0:0:
256,192,6766,1,8,0:0:0:0:
256,192,6933,1,0,0:0:0:0:
256,192,7099,1,0,0:0:0:0:
256,192,7266,1,8,0:0:0:0:
256,192,7433,1,8,0:0:0:0:
256,192,7599,1,0,0:0:0:0:
256,192,7766,1,0,0:0:0:0:
256,192,7933,1,8,0:0:0:0:
256,192,8099,1,0,0:0:0:0:
256,192,8599,1,0,0:0:0:0:
256,192,9099,1,0,0:0:0:0:
256,192,9433,1,0,0:0:0:0:
256,192,9766,1,8,0:0:0:0:
256,192,10099,1,8,0:0:0:0:
256,192,10433,1,0,0:0:0:0:
256,192,10599,1,0,0:0:0:0:
256,192,10683,1,0,0:0:0:0:
256,192,10766,1,8,0:0:0:0:
256,192,10933,1,0,0:0:0:0:
256,192,11099,1,0,0:0:0:0:
256,192,11183,1,8,0:0:0:0:
256,192,11266,1,0,0:0:0:0:
256,192,11349,1,0,0:0:0:0:
256,192,11433,1,8,0:0:0:0:
256,192,11516,1,8,0:0:0:0:
256,192,11599,1,0,0:0:0:0:
256,192,11683,1,8,0:0:0:0:
256,192,11766,1,0,0:0:0:0:
256,192,11849,1,0,0:0:0:0:
256,192,11933,1,8,0:0:0:0:
256,192,12016,1,0,0:0:0:0:
256,192,12099,1,8,0:0:0:0:
256,192,12183,1,0,0:0:0:0:
256,192,12266,1,8,0:0:0:0:
256,192,12349,1,0,0:0:0:0:
256,192,12433,1,8,0:0:0:0:
256,192,12516,1,8,0:0:0:0:
256,192,12599,1,0,0:0:0:0:
256,192,12683,1,0,0:0:0:0:
256,192,12766,1,8,0:0:0:0:
256,192,12849,1,8,0:0:0:0:
256,192,12933,1,0,0:0:0:0:
256,192,13016,1,8,0:0:0:0:
256,192,13099,1,8,0:0:0:0:
256,192,13183,1,0,0:0:0:0:
256,192,13266,1,8,0:0:0:0:
256,192,13349,1,0,0:0:0:0:
256,192,13433,1,0,0:0:0:0:
256,192,13599,1,0,0:0:0:0:
256,192,13683,1,0,0:0:0:0:
256,192,13766,1,8,0:0:0:0:
256,192,13933,1,0,0:0:0:0:
256,192,14099,1,0,0:0:0:0:
256,192,14183,1,0,0:0:0:0:
256,192,14266,1,0,0:0:0:0:
256,192,14349,1,0,0:0:0:0:
256,192,14433,1,8,0:0:0:0:
256,192,14599,1,0,0:0:0:0:
256,192,14766,1,0,0:0:0:0:
256,192,14933,1,0,0:0:0:0:
256,192,15016,1,0,0:0:0:0:
256,192,15099,1,8,0:0:0:0:
256,192,15266,1,0,0:0:0:0:
256,192,15433,1,0,0:0:0:0:
256,192,15516,1,0,0:0:0:0:
256,192,15599,1,0,0:0:0:0:
256,192,15683,1,0,0:0:0:0:
256,192,15766,1,8,0:0:0:0:
256,192,15933,1,8,0:0:0:0:
256,192,16099,1,0,0:0:0:0:
256,192,16266,1,0,0:0:0:0:
256,192,16349,1,0,0:0:0:0:
256,192,16433,1,8,0:0:0:0:
256,192,16599,1,0,0:0:0:0:
256,192,16766,1,0,0:0:0:0:
256,192,16849,1,0,0:0:0:0:
256,192,16933,1,0,0:0:0:0:
256,192,17016,1,0,0:0:0:0:
256,192,17099,1,8,0:0:0:0:
256,192,17266,1,0,0:0:0:0:
256,192,17433,1,8,0:0:0:0:
256,192,17766,1,8,0:0:0:0:
256,192,18099,1,0,0:0:0:0:
256,192,18183,1,0,0:0:0:0:
256,192,18266,1,0,0:0:0:0:
256,192,18349,1,0,0:0:0:0:
256,192,18433,1,8,0:0:0:0:
256,192,18599,1,8,0:0:0:0:
256,192,18766,1,0,0:0:0:0:
256,192,18933,1,0,0:0:0:0:
256,192,19016,1,0,0:0:0:0:
256,192,19099,1,8,0:0:0:0:
256,192,19266,1,0,0:0:0:0:
256,192,19433,1,0,0:0:0:0:
256,192,19516,1,0,0:0:0:0:
256,192,19599,1,0,0:0:0:0:
256,192,19683,1,0,0:0:0:0:
256,192,19766,1,8,0:0:0:0:
256,192,19933,1,0,0:0:0:0:
256,192,20099,1,0,0:0:0:0:
256,192,20266,1,0,0:0:0:0:
256,192,20349,1,0,0:0:0:0:
256,192,20433,1,8,0:0:0:0:
256,192,20599,1,0,0:0:0:0:
256,192,20766,1,0,0:0:0:0:
256,192,20849,1,0,0:0:0:0:
256,192,20933,1,0,0:0:0:0:
256,192,21016,1,0,0:0:0:0:
256,192,21099,1,8,0:0:0:0:
256,192,21266,1,8,0:0:0:0:
256,192,21433,1,0,0:0:0:0:
256,192,21599,1,0,0:0:0:0:
256,192,21683,1,0,0:0:0:0:
256,192,21766,1,8,0:0:0:0:
256,192,21933,1,0,0:0:0:0:
256,192,22099,1,0,0:0:0:0:
256,192,22183,1,0,0:0:0:0:
256,192,22266,1,0,0:0:0:0:
256,192,22349,1,0,0:0:0:0:
256,192,22433,1,8,0:0:0:0:
256,192,22599,1,0,0:0:0:0:
256,192,22766,1,8,0:0:0:0:
256,192,23099,1,8,0:0:0:0:
256,192,23433,1,0,0:0:0:0:
256,192,23516,1,0,0:0:0:0:
256,192,23599,1,0,0:0:0:0:
256,192,23683,1,0,0:0:0:0:
256,192,23766,1,8,0:0:0:0:
256,192,23933,1,8,0:0:0:0:
256,192,24099,1,0,0:0:0:0:
256,192,24141,1,0,0:0:0:0:
256,192,24266,1,8,0:0:0:0:
256,192,24308,1,8,0:0:0:0:
256,192,24433,1,0,0:0:0:0:
256,192,24474,1,0,0:0:0:0:
256,192,24599,1,0,0:0:0:0:
256,192,24641,1,0,0:0:0:0:
256,192,24766,1,8,0:0:0:0:
256,192,24808,1,8,0:0:0:0:
256,192,24933,1,8,0:0:0:0:
256,192,24974,1,8,0:0:0:0:
256,192,25099,1,0,0:0:0:0:
256,192,25141,1,0,0:0:0:0:
256,192,25266,1,8,0:0:0:0:
256,192,25308,1,8,0:0:0:0:
256,192,25433,1,8,0:0:0:0:
256,192,25474,1,8,0:0:0:0:
256,192,25599,1,0,0:0:0:0:
256,192,25641,1,0,0:0:0:0:
256,192,25766,1,8,0:0:0:0:
256,192,25808,1,8,0:0:0:0:
256,192,25933,1,0,0:0:0:0:
256,192,25974,1,0,0:0:0:0:
256,192,26099,1,8,0:0:0:0:
256,192,26141,1,8,0:0:0:0:
256,192,26266,1,8,0:0:0:0:
256,192,26308,1,8,0:0:0:0:
256,192,26433,1,0,0:0:0:0:
256,192,26474,1,0,0:0:0:0:
256,192,26599,1,0,0:0:0:0:
256,192,26766,1,0,0:0:0:0:
256,192,26808,1,0,0:0:0:0:
256,192,26933,1,8,0:0:0:0:
256,192,26974,1,8,0:0:0:0:
256,192,27099,1,0,0:0:0:0:
256,192,27141,1,0,0:0:0:0:
256,192,27266,1,0,0:0:0:0:
256,192,27308,1,0,0:0:0:0:
256,192,27433,1,8,0:0:0:0:
256,192,27474,1,8,0:0:0:0:
256,192,27599,1,8,0:0:0:0:
256,192,27641,1,8,0:0:0:0:
256,192,27766,1,0,0:0:0:0:
256,192,27808,1,0,0:0:0:0:
256,192,27933,1,8,0:0:0:0:
256,192,27974,1,8,0:0:0:0:
256,192,28099,1,8,0:0:0:0:
256,192,28141,1,8,0:0:0:0:
256,192,28266,1,0,0:0:0:0:
256,192,28308,1,0,0:0:0:0:
256,192,28433,1,8,0:0:0:0:
256,192,28474,1,8,0:0:0:0:
256,192,28599,1,0,0:0:0:0:
256,192,28641,1,0,0:0:0:0:
256,192,28766,1,8,0:0:0:0:
256,192,28808,1,8,0:0:0:0:
256,192,28933,1,8,0:0:0:0:
256,192,28974,1,8,0:0:0:0:
256,192,29099,1,8,0:0:0:0:
256,192,29141,1,8,0:0:0:0:
256,192,29266,1,0,0:0:0:0:
256,192,29433,1,0,0:0:0:0:
256,192,29474,1,0,0:0:0:0:
256,192,29599,1,8,0:0:0:0:
256,192,29641,1,8,0:0:0:0:
256,192,29766,1,0,0:0:0:0:
256,192,29808,1,0,0:0:0:0:
256,192,29933,1,0,0:0:0:0:
256,192,29974,1,0,0:0:0:0:
256,192,30099,1,8,0:0:0:0:
256,192,30141,1,8,0:0:0:0:
256,192,30266,1,8,0:0:0:0:
256,192,30308,1,8,0:0:0:0:
256,192,30433,1,0,0:0:0:0:
256,192,30474,1,0,0:0:0:0:
256,192,30599,1,8,0:0:0:0:
256,192,30641,1,8,0:0:0:0:
256,192,30766,1,8,0:0:0:0:
256,192,30808,1,8,0:0:0:0:
256,192,30933,1,0,0:0:0:0:
256,192,30974,1,0,0:0:0:0:
256,192,31099,1,8,0:0:0:0:
256,192,31141,1,8,0:0:0:0:
256,192,31266,1,0,0:0:0:0:
256,192,31308,1,0,0:0:0:0:
256,192,31433,1,8,0:0:0:0:
256,192,31474,1,8,0:0:0:0:
256,192,31599,1,8,0:0:0:0:
256,192,31641,1,8,0:0:0:0:
256,192,31766,1,0,0:0:0:0:
256,192,31808,1,0,0:0:0:0:
256,192,31933,1,0,0:0:0:0:
256,192,32099,1,0,0:0:0:0:
256,192,32141,1,0,0:0:0:0:
256,192,32266,1,8,0:0:0:0:
256,192,32308,1,8,0:0:0:0:
256,192,32433,1,0,0:0:0:0:
256,192,32474,1,0,0:0:0:0:
256,192,32599,1,0,0:0:0:0:
256,192,32641,1,0,0:0:0:0:
256,192,32766,1,8,0:0:0:0:
256,192,32808,1,8,0:0:0:0:
256,192,32933,1,8,0:0:0:0:
256,192,32974,1,8,0:0:0:0:
256,192,33099,1,0,0:0:0:0:
256,192,33141,1,0,0:0:0:0:
256,192,33266,1,8,0:0:0:0:
256,192,33308,1,8,0:0:0:0:
256,192,33433,1,8,0:0:0:0:
256,192,33474,1,8,0:0:0:0:
256,192,33599,1,0,0:0:0:0:
256,192,33641,1,0,0:0:0:0:
256,192,33766,1,8,0:0:0:0:
256,192,33808,1,8,0:0:0:0:
256,192,33933,1,0,0:0:0:0:
256,192,33974,1,0,0:0:0:0:
256,192,34099,1,8,0:0:0:0:
256,192,34141,1,8,0:0:0:0:
256,192,34266,1,8,0:0:0:0:
256,192,34308,1,8,0:0:0:0:
256,192,34433,1,8,0:0:0:0:
256,192,34474,1,8,0:0:0:0:
256,192,34599,1,0,0:0:0:0:
256,192,34766,1,0,0:0:0:0:
256,192,34933,1,8,0:0:0:0:
256,192,35099,1,0,0:0:0:0:
256,192,35266,1,8,0:0:0:0:
256,192,35433,1,8,0:0:0:0:
256,192,35599,1,0,0:0:0:0:
256,192,35766,1,0,0:0:0:0:
256,192,35933,1,8,0:0:0:0:
256,192,36099,1,8,0:0:0:0:
256,192,36266,1,0,0:0:0:0:
256,192,36433,1,0,0:0:0:0:
256,192,36599,1,8,0:0:0:0:
256,192,36766,1,8,0:0:0:0:
256,192,36933,1,0,0:0:0:0:
256,192,37099,1,8,0:0:0:0:
256,192,37266,1,8,0:0:0:0:
256,192,37433,1,8,0:0:0:0:
256,192,37599,1,0,0:0:0:0:
256,192,37766,1,0,0:0:0:0:
256,192,37933,1,8,0:0:0:0:
256,192,38099,1,8,0:0:0:0:
256,192,38266,1,0,0:0:0:0:
256,192,38433,1,0,0:0:0:0:
256,192,38599,1,8,0:0:0:0:
256,192,38766,1,8,0:0:0:0:
256,192,38933,1,0,0:0:0:0:
256,192,39099,1,0,0:0:0:0:
256,192,39266,1,8,0:0:0:0:
256,192,39433,1,8,0:0:0:0:
256,192,39766,1,8,0:0:0:0:
256,192,39933,1,8,0:0:0:0:
256,192,40099,1,4,0:0:0:0:
256,192,40266,12,0,42766,0:0:0:0:
