osu file format v14

[General]
AudioFilename: audio.mp3
AudioLeadIn: 0
PreviewTime: 24990
Countdown: 0
SampleSet: Normal
StackLeniency: 0.7
Mode: 1
LetterboxInBreaks: 0
WidescreenStoryboard: 0

[Editor]
Bookmarks: 96990,109552
DistanceSpacing: 1.6
BeatDivisor: 4
GridSize: 32
TimelineZoom: 2.4

[Metadata]
Title:Cosmic Cat
TitleUnicode:Cosmic Cat
Artist:8bit Moonside
ArtistUnicode:8bit Moonside
Creator:Arrival
Version:Inner Oni
Source:beatmania IIDX 22 PENDUAL
Tags:future bass electro bamani konami dirty androids
BeatmapID:1631450
BeatmapSetID:776480

[Difficulty]
HPDrainRate:6
CircleSize:2
OverallDifficulty:6
ApproachRate:0
SliderMultiplier:1.4
SliderTickRate:1

[Events]
//Background and Video events
0,0,"cropped-1920-1080-858112.jpg",0,10
//Break Periods
//Storyboard Layer 0 (Background)
//Storyboard Layer 1 (Fail)
//Storyboard Layer 2 (Pass)
//Storyboard Layer 3 (Foreground)
//Storyboard Layer 4 (Overlay)
//Storyboard Sound Samples

[TimingPoints]
1049,375,4,1,0,60,1,0
1049,-133.333333333333,4,1,0,60,0,0
12861,-119.047619047619,4,1,0,60,0,0
12924,-111.111111111111,4,1,0,60,0,0
12986,-105.263157894737,4,1,0,60,0,0
13049,-100,4,1,0,80,0,0
25049,-80,4,1,0,100,0,0
49236,-100,4,1,0,80,0,0
73611,-100,4,1,0,60,0,0
97049,-80,4,1,0,100,0,0
109611,-74.0740740740741,4,1,0,100,0,1
110174,-74.0740740740741,4,1,0,100,0,1
121049,-74.0740740740741,4,1,0,80,0,0

[HitObjects]
256,128,1049,5,0,0:0:0:0:
256,128,1330,1,0,0:0:0:0:
256,128,1611,1,2,0:0:0:0:
256,128,1892,1,0,0:0:0:0:
256,128,2174,1,0,0:0:0:0:
256,128,2361,1,0,0:0:0:0:
256,128,2549,1,0,0:0:0:0:
256,128,2830,1,0,0:0:0:0:
256,128,3111,1,2,0:0:0:0:
256,128,3392,1,0,0:0:0:0:
256,128,3674,1,0,0:0:0:0:
256,128,4049,1,0,0:0:0:0:
256,128,4330,1,0,0:0:0:0:
256,128,4611,1,2,0:0:0:0:
256,128,4892,1,0,0:0:0:0:
256,128,5080,1,0,0:0:0:0:
256,128,5174,1,0,0:0:0:0:
256,128,5361,1,0,0:0:0:0:
256,128,5549,1,0,0:0:0:0:
256,128,5830,1,0,0:0:0:0:
256,128,6111,1,2,0:0:0:0:
256,128,6392,1,0,0:0:0:0:
256,128,6486,1,2,0:0:0:0:
256,128,7049,1,0,0:0:0:0:
256,128,7330,1,0,0:0:0:0:
256,128,7611,1,2,0:0:0:0:
256,128,7892,1,0,0:0:0:0:
256,128,8174,1,0,0:0:0:0:
256,128,8361,1,0,0:0:0:0:
256,128,8549,1,0,0:0:0:0:
256,128,8830,1,0,0:0:0:0:
256,128,9111,1,2,0:0:0:0:
256,128,9392,1,0,0:0:0:0:
256,128,9674,1,0,0:0:0:0:
256,128,10049,1,0,0:0:0:0:
256,128,10330,1,0,0:0:0:0:
256,128,10611,1,2,0:0:0:0:
256,128,10892,1,0,0:0:0:0:
256,128,11080,1,0,0:0:0:0:
256,128,11174,1,0,0:0:0:0:
256,128,11361,1,0,0:0:0:0:
256,128,11549,1,0,0:0:0:0:
256,128,11830,1,0,0:0:0:0:
256,128,12111,1,2,0:0:0:0:
256,128,12392,1,0,0:0:0:0:
256,128,12486,1,2,0:0:0:0:
256,128,12861,1,2,0:0:0:0:
256,128,12924,1,2,0:0:0:0:
256,128,12986,1,2,0:0:0:0:
256,128,13049,1,0,0:0:0:0:
256,128,13330,1,0,0:0:0:0:
256,128,13424,1,2,0:0:0:0:
256,128,13611,1,0,0:0:0:0:
256,128,13799,1,2,0:0:0:0:
256,128,13892,1,2,0:0:0:0:
256,128,13986,1,0,0:0:0:0:
256,128,14174,1,2,0:0:0:0:
256,128,14361,1,0,0:0:0:0:
256,128,14455,1,2,0:0:0:0:
256,128,14549,1,0,0:0:0:0:
256,128,14830,1,2,0:0:0:0:
256,128,14924,1,0,0:0:0:0:
256,128,15111,1,0,0:0:0:0:
256,128,15205,1,2,0:0:0:0:
256,128,15299,1,2,0:0:0:0:
256,128,15392,1,0,0:0:0:0:
256,128,15580,1,0,0:0:0:0:
256,128,15674,1,2,0:0:0:0:
256,128,15861,1,2,0:0:0:0:
256,128,15955,1,2,0:0:0:0:
256,128,16049,1,0,0:0:0:0:
256,128,16330,1,0,0:0:0:0:
256,128,16424,1,2,0:0:0:0:
256,128,16611,1,0,0:0:0:0:
256,128,16799,1,2,0:0:0:0:
256,128,16892,1,0,0:0:0:0:
256,128,17080,1,0,0:0:0:0:
256,128,17174,1,2,0:0:0:0:
256,128,17361,1,0,0:0:0:0:
256,128,17455,1,2,0:0:0:0:
256,128,17549,1,0,0:0:0:0:
256,128,17736,1,0,0:0:0:0:
256,128,17924,1,2,0:0:0:0:
256,128,18017,1,0,0:0:0:0:
256,128,18111,1,2,0:0:0:0:
256,128,18205,1,2,0:0:0:0:
256,128,18299,1,0,0:0:0:0:
256,128,18486,1,2,0:0:0:0:
256,128,18674,1,0,0:0:0:0:
256,128,18861,1,2,0:0:0:0:
256,128,18924,1,2,0:0:0:0:
256,128,18986,1,2,0:0:0:0:
256,128,19049,1,0,0:0:0:0:
256,128,19330,1,0,0:0:0:0:
256,128,19424,1,2,0:0:0:0:
256,128,19611,1,0,0:0:0:0:
256,128,19799,1,2,0:0:0:0:
256,128,19892,1,2,0:0:0:0:
256,128,19986,1,0,0:0:0:0:
256,128,20174,1,2,0:0:0:0:
256,128,20361,1,0,0:0:0:0:
256,128,20455,1,2,0:0:0:0:
256,128,20549,1,0,0:0:0:0:
256,128,20830,1,0,0:0:0:0:
256,128,20924,1,2,0:0:0:0:
256,128,21111,1,2,0:0:0:0:
256,128,21205,1,0,0:0:0:0:
256,128,21299,1,0,0:0:0:0:
256,128,21392,1,2,0:0:0:0:
256,128,21486,1,0,0:0:0:0:
256,128,21549,1,0,0:0:0:0:
256,128,21611,1,0,0:0:0:0:
256,128,21674,1,2,0:0:0:0:
256,128,21736,1,0,0:0:0:0:
256,128,21799,1,0,0:0:0:0:
256,128,21861,1,2,0:0:0:0:
256,128,21924,1,2,0:0:0:0:
256,128,21986,1,2,0:0:0:0:
256,128,22049,1,0,0:0:0:0:
256,128,22330,1,0,0:0:0:0:
256,128,22424,1,0,0:0:0:0:
256,128,22611,1,2,0:0:0:0:
256,128,22799,1,0,0:0:0:0:
256,128,22892,1,2,0:0:0:0:
256,128,23080,1,2,0:0:0:0:
256,128,23174,1,0,0:0:0:0:
256,128,23361,1,2,0:0:0:0:
256,128,23549,1,0,0:0:0:0:
256,128,23642,1,0,0:0:0:0:
256,128,23736,1,2,0:0:0:0:
256,128,23924,1,0,0:0:0:0:
256,128,24111,1,2,0:0:0:0:
256,128,24205,1,0,0:0:0:0:
256,128,24299,1,2,0:0:0:0:
256,128,24392,1,2,0:0:0:0:
256,128,24486,1,0,0:0:0:0:
256,128,24674,1,6,0:0:0:0:
256,128,25049,1,4,0:0:0:0:
256,128,25330,1,6,0:0:0:0:
256,128,25611,1,4,0:0:0:0:
256,128,25892,1,6,0:0:0:0:
256,128,26174,1,2,0:0:0:0:
256,128,26236,1,0,0:0:0:0:
256,128,26299,1,0,0:0:0:0:
256,128,26361,1,2,0:0:0:0:
256,128,26455,1,2,0:0:0:0:
256,128,26549,1,0,0:0:0:0:
256,128,26830,1,6,0:0:0:0:
256,128,27111,1,4,0:0:0:0:
256,128,27392,1,2,0:0:0:0:
256,128,27486,1,0,0:0:0:0:
256,128,27580,1,0,0:0:0:0:
256,128,27674,1,2,0:0:0:0:
256,128,27767,1,0,0:0:0:0:
256,128,27861,1,2,0:0:0:0:
256,128,27955,1,2,0:0:0:0:
256,128,28049,1,0,0:0:0:0:
256,128,28330,1,6,0:0:0:0:
256,128,28611,1,4,0:0:0:0:
256,128,28892,1,6,0:0:0:0:
256,128,29080,1,0,0:0:0:0:
256,128,29174,1,2,0:0:0:0:
256,128,29236,1,0,0:0:0:0:
256,128,29299,1,0,0:0:0:0:
256,128,29361,1,2,0:0:0:0:
256,128,29455,1,2,0:0:0:0:
256,128,29549,1,0,0:0:0:0:
256,128,29830,1,2,0:0:0:0:
256,128,29924,1,0,0:0:0:0:
256,128,30111,1,2,0:0:0:0:
256,128,30205,1,2,0:0:0:0:
256,128,30299,1,0,0:0:0:0:
256,128,30486,1,0,0:0:0:0:
256,128,30674,1,2,0:0:0:0:
256,128,30861,1,2,0:0:0:0:
256,128,30924,1,2,0:0:0:0:
256,128,30986,1,2,0:0:0:0:
256,128,31049,1,0,0:0:0:0:
256,128,31330,1,6,0:0:0:0:
256,128,31611,1,4,0:0:0:0:
256,128,31892,1,6,0:0:0:0:
256,128,32080,1,2,0:0:0:0:
256,128,32174,1,0,0:0:0:0:
256,128,32236,1,0,0:0:0:0:
256,128,32299,1,0,0:0:0:0:
256,128,32361,1,2,0:0:0:0:
256,128,32455,1,2,0:0:0:0:
256,128,32549,1,0,0:0:0:0:
256,128,32830,1,6,0:0:0:0:
256,128,33111,1,4,0:0:0:0:
256,128,33392,1,2,0:0:0:0:
256,128,33486,1,0,0:0:0:0:
256,128,33580,1,0,0:0:0:0:
256,128,33674,1,2,0:0:0:0:
256,128,33767,1,0,0:0:0:0:
256,128,33861,1,2,0:0:0:0:
256,128,33955,1,2,0:0:0:0:
256,128,34049,1,0,0:0:0:0:
256,128,34236,1,2,0:0:0:0:
256,128,34330,1,2,0:0:0:0:
256,128,34424,1,0,0:0:0:0:
256,128,34611,1,0,0:0:0:0:
256,128,34799,1,2,0:0:0:0:
256,128,34892,1,0,0:0:0:0:
256,128,35080,1,2,0:0:0:0:
256,128,35174,1,2,0:0:0:0:
256,128,35267,1,0,0:0:0:0:
256,128,35361,1,0,0:0:0:0:
256,128,35455,1,2,0:0:0:0:
256,128,35549,1,0,0:0:0:0:
256,128,35736,1,2,0:0:0:0:
256,128,35799,1,2,0:0:0:0:
256,128,35861,1,2,0:0:0:0:
256,128,35924,1,0,0:0:0:0:
256,128,36017,1,2,0:0:0:0:
256,128,36205,1,2,0:0:0:0:
256,128,36299,1,0,0:0:0:0:
256,128,36392,1,0,0:0:0:0:
256,128,36486,1,2,0:0:0:0:
256,128,36580,1,0,0:0:0:0:
256,128,36674,1,2,0:0:0:0:
256,128,36767,1,2,0:0:0:0:
256,128,36861,1,0,0:0:0:0:
256,128,36955,1,2,0:0:0:0:
256,128,37049,1,0,0:0:0:0:
256,128,37236,1,2,0:0:0:0:
256,128,37330,1,0,0:0:0:0:
256,128,37517,1,0,0:0:0:0:
256,128,37611,1,2,0:0:0:0:
256,128,37705,1,0,0:0:0:0:
256,128,37799,1,0,0:0:0:0:
256,128,37892,1,2,0:0:0:0:
256,128,38080,1,0,0:0:0:0:
256,128,38174,1,2,0:0:0:0:
256,128,38361,1,2,0:0:0:0:
256,128,38455,1,2,0:0:0:0:
256,128,38549,1,0,0:0:0:0:
256,128,38736,1,0,0:0:0:0:
256,128,38830,1,2,0:0:0:0:
256,128,39017,1,2,0:0:0:0:
256,128,39111,1,0,0:0:0:0:
256,128,39205,1,2,0:0:0:0:
256,128,39392,1,2,0:0:0:0:
256,128,39486,1,0,0:0:0:0:
256,128,39580,1,0,0:0:0:0:
256,128,39674,1,2,0:0:0:0:
256,128,39767,1,0,0:0:0:0:
256,128,39861,1,2,0:0:0:0:
256,128,39955,1,2,0:0:0:0:
256,128,40049,1,0,0:0:0:0:
256,128,40236,1,2,0:0:0:0:
256,128,40330,1,0,0:0:0:0:
256,128,40517,1,0,0:0:0:0:
256,128,40611,1,2,0:0:0:0:
256,128,40705,1,0,0:0:0:0:
256,128,40799,1,0,0:0:0:0:
256,128,40892,1,2,0:0:0:0:
256,128,40986,1,0,0:0:0:0:
256,128,41080,1,0,0:0:0:0:
256,128,41174,1,2,0:0:0:0:
256,128,41361,1,2,0:0:0:0:
256,128,41455,1,2,0:0:0:0:
256,128,41549,1,0,0:0:0:0:
256,128,41736,1,0,0:0:0:0:
256,128,41830,1,2,0:0:0:0:
256,128,41924,1,0,0:0:0:0:
256,128,42017,1,0,0:0:0:0:
256,128,42111,1,2,0:0:0:0:
256,128,42299,1,2,0:0:0:0:
256,128,42392,1,0,0:0:0:0:
256,128,42486,1,0,0:0:0:0:
256,128,42674,1,2,0:0:0:0:
256,128,42861,1,2,0:0:0:0:
256,128,42924,1,2,0:0:0:0:
256,128,42986,1,2,0:0:0:0:
256,128,43049,1,0,0:0:0:0:
256,128,43236,1,0,0:0:0:0:
256,128,43330,1,0,0:0:0:0:
256,128,43424,1,2,0:0:0:0:
256,128,43611,1,0,0:0:0:0:
256,128,43799,1,0,0:0:0:0:
256,128,43892,1,2,0:0:0:0:
256,128,43986,1,0,0:0:0:0:
256,128,44174,1,2,0:0:0:0:
256,128,44361,1,2,0:0:0:0:
256,128,44455,1,2,0:0:0:0:
256,128,44549,1,0,0:0:0:0:
256,128,44642,1,0,0:0:0:0:
256,128,44830,1,0,0:0:0:0:
256,128,44924,1,2,0:0:0:0:
256,128,45111,1,2,0:0:0:0:
256,128,45205,1,2,0:0:0:0:
256,128,45299,1,0,0:0:0:0:
256,128,45392,1,2,0:0:0:0:
256,128,45486,1,0,0:0:0:0:
256,128,45674,1,2,0:0:0:0:
256,128,45861,1,2,0:0:0:0:
256,128,45955,1,2,0:0:0:0:
256,128,46049,1,0,0:0:0:0:
256,128,46142,1,2,0:0:0:0:
256,128,46330,1,2,0:0:0:0:
256,128,46424,1,0,0:0:0:0:
256,128,46611,1,0,0:0:0:0:
256,128,46705,1,2,0:0:0:0:
256,128,46799,1,2,0:0:0:0:
256,128,46892,1,0,0:0:0:0:
256,128,47080,1,0,0:0:0:0:
256,128,47174,1,2,0:0:0:0:
256,128,47361,1,0,0:0:0:0:
256,128,47549,1,0,0:0:0:0:
256,128,47642,1,0,0:0:0:0:
256,128,47736,1,2,0:0:0:0:
256,128,47799,1,2,0:0:0:0:
256,128,47861,1,2,0:0:0:0:
256,128,47924,1,0,0:0:0:0:
256,128,48017,1,2,0:0:0:0:
256,128,48205,1,2,0:0:0:0:
256,128,48299,1,0,0:0:0:0:
256,128,48392,1,2,0:0:0:0:
256,128,48486,1,2,0:0:0:0:
256,128,48580,1,0,0:0:0:0:
256,128,48674,1,2,0:0:0:0:
256,128,48736,1,0,0:0:0:0:
256,128,48799,1,0,0:0:0:0:
256,128,48861,1,2,0:0:0:0:
256,128,48924,1,2,0:0:0:0:
256,128,48986,1,2,0:0:0:0:
256,128,49049,1,0,0:0:0:0:
256,128,49330,1,0,0:0:0:0:
256,128,49424,1,2,0:0:0:0:
256,128,49611,1,0,0:0:0:0:
256,128,49892,1,0,0:0:0:0:
256,128,50080,1,2,0:0:0:0:
256,128,50174,1,0,0:0:0:0:
256,128,50361,1,0,0:0:0:0:
256,128,50549,1,2,0:0:0:0:
256,128,50830,1,0,0:0:0:0:
256,128,50924,1,2,0:0:0:0:
256,128,51111,1,0,0:0:0:0:
256,128,51392,1,0,0:0:0:0:
256,128,51486,1,2,0:0:0:0:
256,128,51580,1,2,0:0:0:0:
256,128,51674,1,0,0:0:0:0:
256,128,51767,1,0,0:0:0:0:
256,128,51861,1,2,0:0:0:0:
256,128,52049,1,0,0:0:0:0:
256,128,52330,1,0,0:0:0:0:
256,128,52424,1,2,0:0:0:0:
256,128,52611,1,0,0:0:0:0:
256,128,52892,1,2,0:0:0:0:
256,128,53080,1,2,0:0:0:0:
256,128,53174,1,0,0:0:0:0:
256,128,53361,1,0,0:0:0:0:
256,128,53549,1,2,0:0:0:0:
256,128,53830,1,0,0:0:0:0:
256,128,53924,1,2,0:0:0:0:
256,128,54111,1,0,0:0:0:0:
256,128,54392,1,2,0:0:0:0:
256,128,54486,1,0,0:0:0:0:
256,128,54580,1,0,0:0:0:0:
256,128,54674,1,2,0:0:0:0:
256,128,54861,1,2,0:0:0:0:
256,128,54955,1,2,0:0:0:0:
256,128,55049,1,0,0:0:0:0:
256,128,55330,1,0,0:0:0:0:
256,128,55424,1,2,0:0:0:0:
256,128,55611,1,0,0:0:0:0:
256,128,55892,1,0,0:0:0:0:
256,128,56080,1,2,0:0:0:0:
256,128,56174,1,0,0:0:0:0:
256,128,56361,1,0,0:0:0:0:
256,128,56549,1,2,0:0:0:0:
256,128,56830,1,0,0:0:0:0:
256,128,56924,1,2,0:0:0:0:
256,128,57111,1,0,0:0:0:0:
256,128,57392,1,2,0:0:0:0:
256,128,57486,1,0,0:0:0:0:
256,128,57580,1,2,0:0:0:0:
256,128,57674,1,0,0:0:0:0:
256,128,57767,1,0,0:0:0:0:
256,128,57861,1,2,0:0:0:0:
256,128,58049,1,0,0:0:0:0:
256,128,58330,1,0,0:0:0:0:
256,128,58424,1,2,0:0:0:0:
256,128,58611,1,0,0:0:0:0:
256,128,58892,1,2,0:0:0:0:
256,128,59080,1,2,0:0:0:0:
256,128,59174,1,0,0:0:0:0:
256,128,59361,1,2,0:0:0:0:
256,128,59455,1,2,0:0:0:0:
256,128,59549,1,0,0:0:0:0:
256,128,59830,1,2,0:0:0:0:
256,128,59924,1,0,0:0:0:0:
256,128,60017,1,2,0:0:0:0:
256,128,60111,1,2,0:0:0:0:
256,128,60299,1,2,0:0:0:0:
256,128,60392,1,2,0:0:0:0:
256,128,60486,1,0,0:0:0:0:
256,128,60580,1,0,0:0:0:0:
256,128,60674,1,2,0:0:0:0:
256,128,60736,1,0,0:0:0:0:
256,128,60799,1,0,0:0:0:0:
256,128,60861,1,2,0:0:0:0:
256,128,60924,1,2,0:0:0:0:
256,128,60986,1,2,0:0:0:0:
256,128,61049,1,0,0:0:0:0:
256,128,61330,1,0,0:0:0:0:
256,128,61424,1,2,0:0:0:0:
256,128,61611,1,0,0:0:0:0:
256,128,61799,1,2,0:0:0:0:
256,128,61892,1,2,0:0:0:0:
256,128,61986,1,0,0:0:0:0:
256,128,62174,1,2,0:0:0:0:
256,128,62361,1,0,0:0:0:0:
256,128,62455,1,0,0:0:0:0:
256,128,62549,1,2,0:0:0:0:
256,128,62736,1,0,0:0:0:0:
256,128,62830,1,2,0:0:0:0:
256,128,63017,1,2,0:0:0:0:
256,128,63111,1,0,0:0:0:0:
256,128,63299,1,0,0:0:0:0:
256,128,63392,1,2,0:0:0:0:
256,128,63486,1,0,0:0:0:0:
256,128,63580,1,0,0:0:0:0:
256,128,63674,1,2,0:0:0:0:
256,128,63861,1,2,0:0:0:0:
256,128,63955,1,2,0:0:0:0:
256,128,64049,1,0,0:0:0:0:
256,128,64330,1,0,0:0:0:0:
256,128,64424,1,2,0:0:0:0:
256,128,64517,1,0,0:0:0:0:
256,128,64611,1,0,0:0:0:0:
256,128,64705,1,2,0:0:0:0:
256,128,64892,1,2,0:0:0:0:
256,128,64986,1,0,0:0:0:0:
256,128,65080,1,2,0:0:0:0:
256,128,65174,1,2,0:0:0:0:
256,128,65361,1,2,0:0:0:0:
256,128,65455,1,2,0:0:0:0:
256,128,65549,1,0,0:0:0:0:
256,128,65736,1,0,0:0:0:0:
256,128,65830,1,0,0:0:0:0:
256,128,65924,1,2,0:0:0:0:
256,128,66017,1,0,0:0:0:0:
256,128,66111,1,0,0:0:0:0:
256,128,66205,1,2,0:0:0:0:
256,128,66392,1,2,0:0:0:0:
256,128,66486,1,0,0:0:0:0:
256,128,66580,1,2,0:0:0:0:
256,128,66674,1,2,0:0:0:0:
256,128,66767,1,0,0:0:0:0:
256,128,66861,1,2,0:0:0:0:
256,128,66924,1,2,0:0:0:0:
256,128,66986,1,2,0:0:0:0:
256,128,67049,1,0,0:0:0:0:
256,128,67330,1,0,0:0:0:0:
256,128,67424,1,2,0:0:0:0:
256,128,67611,1,0,0:0:0:0:
256,128,67799,1,2,0:0:0:0:
256,128,67892,1,2,0:0:0:0:
256,128,67986,1,0,0:0:0:0:
256,128,68174,1,2,0:0:0:0:
256,128,68361,1,0,0:0:0:0:
256,128,68455,1,0,0:0:0:0:
256,128,68549,1,2,0:0:0:0:
256,128,68736,1,2,0:0:0:0:
256,128,68830,1,0,0:0:0:0:
256,128,68924,1,2,0:0:0:0:
256,128,69017,1,2,0:0:0:0:
256,128,69111,1,0,0:0:0:0:
256,128,69299,1,2,0:0:0:0:
256,128,69392,1,2,0:0:0:0:
256,128,69486,1,0,0:0:0:0:
256,128,69580,1,0,0:0:0:0:
256,128,69674,1,2,0:0:0:0:
256,128,69861,1,2,0:0:0:0:
256,128,70049,1,4,0:0:0:0:
256,128,70236,1,0,0:0:0:0:
256,128,70330,1,2,0:0:0:0:
256,128,70424,1,0,0:0:0:0:
256,128,70611,1,6,0:0:0:0:
256,128,70893,1,0,0:0:0:0:
256,128,70986,1,2,0:0:0:0:
256,128,71174,1,4,0:0:0:0:
256,128,71361,1,2,0:0:0:0:
256,128,71455,1,2,0:0:0:0:
256,128,71549,1,0,0:0:0:0:
256,128,71736,1,2,0:0:0:0:
256,128,71830,1,2,0:0:0:0:
256,128,71924,1,0,0:0:0:0:
256,128,72017,1,2,0:0:0:0:
256,128,72111,1,2,0:0:0:0:
256,128,72299,1,0,0:0:0:0:
256,128,72392,1,2,0:0:0:0:
256,128,72486,1,2,0:0:0:0:
256,128,72580,1,2,0:0:0:0:
256,128,72674,1,0,0:0:0:0:
256,128,72736,1,0,0:0:0:0:
256,128,72799,1,0,0:0:0:0:
256,128,72861,1,2,0:0:0:0:
256,128,72924,1,2,0:0:0:0:
256,128,72986,1,2,0:0:0:0:
256,128,73049,1,0,0:0:0:0:
256,128,73799,1,2,0:0:0:0:
256,128,74174,1,0,0:0:0:0:
256,128,74361,1,2,0:0:0:0:
256,128,74736,1,2,0:0:0:0:
256,128,75017,1,2,0:0:0:0:
256,128,75299,1,2,0:0:0:0:
256,128,75861,1,0,0:0:0:0:
256,128,76049,1,0,0:0:0:0:
256,128,76236,1,0,0:0:0:0:
256,128,76799,1,2,0:0:0:0:
256,128,77174,1,0,0:0:0:0:
256,128,77361,1,2,0:0:0:0:
256,128,77736,1,2,0:0:0:0:
256,128,78111,1,2,0:0:0:0:
256,128,78158,1,2,0:0:0:0:
256,128,78299,1,2,0:0:0:0:
256,128,78486,1,0,0:0:0:0:
256,128,78861,1,2,0:0:0:0:
256,128,78924,1,2,0:0:0:0:
256,128,78986,1,2,0:0:0:0:
256,128,79049,1,0,0:0:0:0:
256,128,79236,1,0,0:0:0:0:
256,128,79799,1,2,0:0:0:0:
256,128,80174,1,0,0:0:0:0:
256,128,80361,1,2,0:0:0:0:
256,128,80736,1,2,0:0:0:0:
256,128,81017,1,2,0:0:0:0:
256,128,81299,1,2,0:0:0:0:
256,128,81861,1,0,0:0:0:0:
256,128,82049,1,0,0:0:0:0:
256,128,82236,1,0,0:0:0:0:
256,128,82799,1,2,0:0:0:0:
256,128,83174,1,0,0:0:0:0:
256,128,83361,1,2,0:0:0:0:
256,128,83736,1,2,0:0:0:0:
256,128,83924,1,0,0:0:0:0:
256,128,84111,1,2,0:0:0:0:
256,128,84299,1,2,0:0:0:0:
256,128,84486,1,0,0:0:0:0:
256,128,84861,1,2,0:0:0:0:
256,128,84924,1,2,0:0:0:0:
256,128,84986,1,2,0:0:0:0:
256,128,85049,1,0,0:0:0:0:
256,128,85236,1,0,0:0:0:0:
256,128,85424,1,2,0:0:0:0:
256,128,85705,1,2,0:0:0:0:
256,128,85799,1,0,0:0:0:0:
256,128,85986,1,0,0:0:0:0:
256,128,86174,1,2,0:0:0:0:
256,128,86361,1,0,0:0:0:0:
256,128,86455,1,0,0:0:0:0:
256,128,86549,1,2,0:0:0:0:
256,128,86736,1,0,0:0:0:0:
256,128,86924,1,2,0:0:0:0:
256,128,87017,1,0,0:0:0:0:
256,128,87205,1,0,0:0:0:0:
256,128,87299,1,2,0:0:0:0:
256,128,87486,1,0,0:0:0:0:
256,128,87674,1,2,0:0:0:0:
256,128,87861,1,0,0:0:0:0:
256,128,87955,1,0,0:0:0:0:
256,128,88049,1,0,0:0:0:0:
256,128,88236,1,0,0:0:0:0:
256,128,88424,1,2,0:0:0:0:
256,128,88705,1,2,0:0:0:0:
256,128,88799,1,0,0:0:0:0:
256,128,88986,1,2,0:0:0:0:
256,128,89080,1,2,0:0:0:0:
256,128,89174,1,0,0:0:0:0:
256,128,89361,1,2,0:0:0:0:
256,128,89549,1,0,0:0:0:0:
256,128,89736,1,2,0:0:0:0:
256,128,89799,1,2,0:0:0:0:
256,128,89861,1,2,0:0:0:0:
256,128,89924,1,0,0:0:0:0:
256,128,90017,1,2,0:0:0:0:
256,128,90205,1,0,0:0:0:0:
256,128,90299,1,2,0:0:0:0:
256,128,90392,1,2,0:0:0:0:
256,128,90486,1,0,0:0:0:0:
256,128,90674,1,2,0:0:0:0:
256,128,90861,1,2,0:0:0:0:
256,128,90924,1,2,0:0:0:0:
256,128,90986,1,2,0:0:0:0:
256,128,91049,1,0,0:0:0:0:
256,128,91236,1,0,0:0:0:0:
256,128,91424,1,2,0:0:0:0:
256,128,91705,1,2,0:0:0:0:
256,128,91799,1,0,0:0:0:0:
256,128,91986,1,0,0:0:0:0:
256,128,92174,1,2,0:0:0:0:
256,128,92361,1,0,0:0:0:0:
256,128,92455,1,0,0:0:0:0:
256,128,92549,1,2,0:0:0:0:
256,128,92736,1,0,0:0:0:0:
256,128,92924,1,0,0:0:0:0:
256,128,93017,1,2,0:0:0:0:
256,128,93205,1,2,0:0:0:0:
256,128,93299,1,0,0:0:0:0:
256,128,93486,1,2,0:0:0:0:
256,128,93549,1,0,0:0:0:0:
256,128,93611,1,0,0:0:0:0:
256,128,93674,1,2,0:0:0:0:
256,128,93736,1,0,0:0:0:0:
256,128,93799,1,0,0:0:0:0:
256,128,93861,1,2,0:0:0:0:
256,128,93924,1,2,0:0:0:0:
256,128,93986,1,2,0:0:0:0:
256,128,94049,1,0,0:0:0:0:
256,128,94330,1,2,0:0:0:0:
256,128,94424,1,0,0:0:0:0:
256,128,94611,1,0,0:0:0:0:
256,128,94799,1,2,0:0:0:0:
256,128,94986,1,0,0:0:0:0:
256,128,95080,1,0,0:0:0:0:
256,128,95174,1,2,0:0:0:0:
256,128,95361,1,0,0:0:0:0:
256,128,95549,1,2,0:0:0:0:
256,128,95642,1,2,0:0:0:0:
256,128,95736,1,2,0:0:0:0:
256,128,95830,1,0,0:0:0:0:
256,128,95924,1,2,0:0:0:0:
256,128,96017,1,2,0:0:0:0:
256,128,96111,1,0,0:0:0:0:
256,128,96299,1,0,0:0:0:0:
256,128,96486,1,2,0:0:0:0:
256,128,97049,1,0,0:0:0:0:
256,128,97236,1,0,0:0:0:0:
256,128,97330,1,2,0:0:0:0:
256,128,97517,1,2,0:0:0:0:
256,128,97611,1,0,0:0:0:0:
256,128,97799,1,0,0:0:0:0:
256,128,97892,1,2,0:0:0:0:
256,128,97986,1,0,0:0:0:0:
256,128,98080,1,0,0:0:0:0:
256,128,98174,1,2,0:0:0:0:
256,128,98361,1,2,0:0:0:0:
256,128,98455,1,2,0:0:0:0:
256,128,98549,1,0,0:0:0:0:
256,128,98736,1,0,0:0:0:0:
256,128,98830,1,2,0:0:0:0:
256,128,99017,1,2,0:0:0:0:
256,128,99111,1,0,0:0:0:0:
256,128,99299,1,0,0:0:0:0:
256,128,99392,1,2,0:0:0:0:
256,128,99486,1,0,0:0:0:0:
256,128,99580,1,0,0:0:0:0:
256,128,99674,1,2,0:0:0:0:
256,128,99767,1,2,0:0:0:0:
256,128,99861,1,0,0:0:0:0:
256,128,99955,1,2,0:0:0:0:
256,128,100049,1,0,0:0:0:0:
256,128,100236,1,2,0:0:0:0:
256,128,100330,1,0,0:0:0:0:
256,128,100517,1,0,0:0:0:0:
256,128,100611,1,2,0:0:0:0:
256,128,100799,1,2,0:0:0:0:
256,128,100892,1,0,0:0:0:0:
256,128,100986,1,0,0:0:0:0:
256,128,101080,1,0,0:0:0:0:
256,128,101174,1,2,0:0:0:0:
256,128,101361,1,2,0:0:0:0:
256,128,101455,1,2,0:0:0:0:
256,128,101549,1,0,0:0:0:0:
256,128,101736,1,0,0:0:0:0:
256,128,101830,1,2,0:0:0:0:
256,128,101924,1,0,0:0:0:0:
256,128,102017,1,0,0:0:0:0:
256,128,102111,1,2,0:0:0:0:
256,128,102298,1,2,0:0:0:0:
256,128,102392,1,2,0:0:0:0:
256,128,102486,1,0,0:0:0:0:
256,128,102674,1,2,0:0:0:0:
256,128,102861,1,2,0:0:0:0:
256,128,102924,1,2,0:0:0:0:
256,128,102986,1,2,0:0:0:0:
256,128,103049,1,0,0:0:0:0:
256,128,103236,1,0,0:0:0:0:
256,128,103330,1,2,0:0:0:0:
256,128,103424,1,0,0:0:0:0:
256,128,103518,1,0,0:0:0:0:
256,128,103611,1,2,0:0:0:0:
256,128,103705,1,0,0:0:0:0:
256,128,103799,1,0,0:0:0:0:
256,128,103892,1,2,0:0:0:0:
256,128,104080,1,2,0:0:0:0:
256,128,104174,1,2,0:0:0:0:
256,128,104267,1,0,0:0:0:0:
256,128,104361,1,2,0:0:0:0:
256,128,104455,1,2,0:0:0:0:
256,128,104549,1,0,0:0:0:0:
256,128,104736,1,0,0:0:0:0:
256,128,104830,1,2,0:0:0:0:
256,128,105017,1,2,0:0:0:0:
256,128,105111,1,0,0:0:0:0:
256,128,105205,1,2,0:0:0:0:
256,128,105392,1,2,0:0:0:0:
256,128,105486,1,0,0:0:0:0:
256,128,105580,1,0,0:0:0:0:
256,128,105674,1,2,0:0:0:0:
256,128,105767,1,0,0:0:0:0:
256,128,105861,1,2,0:0:0:0:
256,128,105955,1,2,0:0:0:0:
256,128,106049,1,0,0:0:0:0:
256,128,106236,1,2,0:0:0:0:
256,128,106330,1,0,0:0:0:0:
256,128,106517,1,0,0:0:0:0:
256,128,106611,1,2,0:0:0:0:
256,128,106705,1,2,0:0:0:0:
256,128,106799,1,0,0:0:0:0:
256,128,106986,1,2,0:0:0:0:
256,128,107174,1,2,0:0:0:0:
256,128,107267,1,2,0:0:0:0:
256,128,107361,1,0,0:0:0:0:
256,128,107455,1,2,0:0:0:0:
256,128,107549,1,0,0:0:0:0:
256,128,107736,1,2,0:0:0:0:
256,128,107799,1,2,0:0:0:0:
256,128,107861,1,2,0:0:0:0:
256,128,107924,1,0,0:0:0:0:
256,128,108017,1,2,0:0:0:0:
256,128,108205,1,2,0:0:0:0:
256,128,108299,1,0,0:0:0:0:
256,128,108392,1,0,0:0:0:0:
256,128,108486,1,2,0:0:0:0:
256,128,108580,1,0,0:0:0:0:
256,128,108674,1,2,0:0:0:0:
256,128,108767,1,2,0:0:0:0:
256,128,108861,1,0,0:0:0:0:
256,128,108924,1,2,0:0:0:0:
256,128,108986,1,2,0:0:0:0:
256,128,109049,1,0,0:0:0:0:
256,128,109142,1,0,0:0:0:0:
256,128,109236,1,0,0:0:0:0:
256,128,109330,1,2,0:0:0:0:
256,128,109611,1,4,0:0:0:0:
256,128,109892,1,2,0:0:0:0:
256,128,109986,1,0,0:0:0:0:
256,128,110174,1,6,0:0:0:0:
256,128,110361,1,2,0:0:0:0:
256,128,110455,1,2,0:0:0:0:
256,128,110549,1,0,0:0:0:0:
256,128,110736,1,0,0:0:0:0:
256,128,110830,1,0,0:0:0:0:
256,128,110924,1,2,0:0:0:0:
256,128,111111,1,0,0:0:0:0:
256,128,111205,1,2,0:0:0:0:
256,128,111392,1,2,0:0:0:0:
256,128,111486,1,0,0:0:0:0:
256,128,111580,1,0,0:0:0:0:
256,128,111674,1,2,0:0:0:0:
256,128,111861,1,2,0:0:0:0:
256,128,111955,1,2,0:0:0:0:
256,128,112049,1,0,0:0:0:0:
256,128,112236,1,2,0:0:0:0:
256,128,112330,1,0,0:0:0:0:
256,128,112424,1,2,0:0:0:0:
256,128,112611,1,2,0:0:0:0:
256,128,112705,1,2,0:0:0:0:
256,128,112892,1,2,0:0:0:0:
256,128,112986,1,0,0:0:0:0:
256,128,113174,1,2,0:0:0:0:
256,128,113267,1,2,0:0:0:0:
256,128,113361,1,0,0:0:0:0:
256,128,113455,1,2,0:0:0:0:
256,128,113549,1,0,0:0:0:0:
256,128,113736,1,2,0:0:0:0:
256,128,113830,1,0,0:0:0:0:
256,128,114017,1,0,0:0:0:0:
256,128,114111,1,2,0:0:0:0:
256,128,114205,1,2,0:0:0:0:
256,128,114299,1,0,0:0:0:0:
256,128,114361,1,2,0:0:0:0:
256,128,114424,1,2,0:0:0:0:
256,128,114486,1,0,0:0:0:0:
256,128,114674,1,2,0:0:0:0:
256,128,115049,1,4,0:0:0:0:
256,128,115611,1,0,0:0:0:0:
256,128,115674,1,0,0:0:0:0:
256,128,115736,1,0,0:0:0:0:
256,128,115799,1,2,0:0:0:0:
256,128,115924,1,0,0:0:0:0:
256,128,116049,1,0,0:0:0:0:
256,128,116174,1,2,0:0:0:0:
256,128,116299,1,0,0:0:0:0:
256,128,116361,1,0,0:0:0:0:
256,128,116424,1,2,0:0:0:0:
256,128,116549,1,0,0:0:0:0:
256,128,117111,1,0,0:0:0:0:
256,128,117299,1,2,0:0:0:0:
256,128,117392,1,2,0:0:0:0:
256,128,117486,1,0,0:0:0:0:
256,128,117580,1,2,0:0:0:0:
256,128,117674,1,0,0:0:0:0:
256,128,117767,1,0,0:0:0:0:
256,128,117861,1,2,0:0:0:0:
256,128,117955,1,2,0:0:0:0:
256,128,118049,1,0,0:0:0:0:
256,128,118142,1,0,0:0:0:0:
256,128,118236,1,0,0:0:0:0:
256,128,118330,1,2,0:0:0:0:
256,128,118424,1,0,0:0:0:0:
256,128,118517,1,2,0:0:0:0:
256,128,118611,1,0,0:0:0:0:
256,128,118705,1,0,0:0:0:0:
256,128,118799,1,2,0:0:0:0:
256,128,118892,1,0,0:0:0:0:
256,128,118986,1,2,0:0:0:0:
256,128,119080,1,2,0:0:0:0:
256,128,119174,1,0,0:0:0:0:
256,128,119267,1,2,0:0:0:0:
256,128,119361,1,2,0:0:0:0:
256,128,119455,1,2,0:0:0:0:
256,128,119549,1,0,0:0:0:0:
256,128,119736,1,2,0:0:0:0:
256,128,119799,1,2,0:0:0:0:
256,128,119861,1,2,0:0:0:0:
256,128,119924,1,0,0:0:0:0:
256,128,120017,1,2,0:0:0:0:
256,128,120205,1,2,0:0:0:0:
256,128,120299,1,0,0:0:0:0:
256,128,120392,1,2,0:0:0:0:
256,128,120486,1,2,0:0:0:0:
256,128,120580,1,0,0:0:0:0:
256,128,120674,1,2,0:0:0:0:
256,128,120736,1,0,0:0:0:0:
256,128,120799,1,0,0:0:0:0:
256,128,120861,1,0,0:0:0:0:
256,128,120924,1,0,0:0:0:0:
256,128,120986,1,0,0:0:0:0:
256,128,121049,1,2,0:0:0:0:
