osu file format v14

[General]
AudioFilename: audio.mp3
AudioLeadIn: 0
PreviewTime: 65300
Countdown: 0
SampleSet: Soft
StackLeniency: 0.3
Mode: 0
LetterboxInBreaks: 0
SkinPreference:Default
WidescreenStoryboard: 1

[Editor]
Bookmarks: 431,99957
DistanceSpacing: 1.3
BeatDivisor: 6
GridSize: 4
TimelineZoom: 1.5

[Metadata]
Title:Go Go Go Go! (Radio Edit) (Nightcore & Cut Ver.)
TitleUnicode:Go Go Go Go! (Radio Edit) (Nightcore & Cut Ver.)
Artist:89ers
ArtistUnicode:89ers
Creator:Gero
Version:T-T-T-Tell Me Why!
Source:
Tags:Yeah Boy! English Electronic Trance Techno Happy Hardcore Sped Up Ver. Short Version Speed Paul Hutsch Jonawaga Jonarwhal
BeatmapID:3635433
BeatmapSetID:1775229

[Difficulty]
HPDrainRate:6
CircleSize:4
OverallDifficulty:7.5
ApproachRate:9
SliderMultiplier:1.8
SliderTickRate:1

[Events]
//Background and Video events
0,0,"BG.jpg",0,0
//Break Periods
//Storyboard Layer 0 (Background)
//Storyboard Layer 1 (Fail)
//Storyboard Layer 2 (Pass)
//Storyboard Layer 3 (Foreground)
//Storyboard Layer 4 (Overlay)
//Storyboard Sound Samples

[TimingPoints]
431,355.450236966825,4,2,1,40,1,0
431,-142.857142857143,4,2,1,40,0,0
6118,-125,4,2,1,50,0,0
17196,-125,4,2,1,5,0,0
17492,-111.111111111111,4,2,1,60,0,0
28867,-111.111111111111,4,2,1,40,0,0
30999,-111.111111111111,4,2,2,45,0,0
31710,-100,4,2,2,60,0,0
62990,-125,4,2,1,40,0,0
65122,-1000,4,2,2,40,0,0
65833,-83.3333333333333,4,2,2,90,0,1
77089,-83.3333333333333,4,2,2,90,0,0
77208,-83.3333333333333,4,2,2,90,0,1
88464,-83.3333333333333,4,2,2,90,0,0
88582,-83.3333333333333,4,2,2,90,0,1
94269,-100,4,2,1,60,0,0
95691,-100,4,2,1,50,0,0
98535,-100,4,2,1,30,0,0

[Colours]
Combo1 : 56,174,214
Combo2 : 255,64,69
Combo3 : 232,129,66
Combo4 : 214,70,217
SliderBorder : 250,34,34
SliderTrackOverride : 92,92,222

[HitObjects]
175,10,431,5,2,0:0:0:0:
199,144,786,1,0,0:0:0:0:
67,167,1141,1,2,0:0:0:0:
44,32,1497,1,0,0:0:0:0:
175,10,1852,5,2,0:0:0:0:
44,32,2208,1,0,0:0:0:0:
67,167,2563,1,2,0:0:0:0:
199,144,2919,1,0,0:0:0:0:
337,374,3274,5,2,0:0:0:0:
313,240,3630,1,0,0:0:0:0:
445,217,3985,1,2,0:0:0:0:
468,352,4340,1,0,0:0:0:0:
337,374,4696,5,2,0:0:0:0:
468,352,5051,1,0,0:0:0:0:
445,217,5407,1,2,0:0:0:0:
313,240,5762,1,0,0:0:0:0:
337,10,6118,6,0,L|431:27,1,96,2|0,0:0|0:0,0:0:0:0:
425,45,6473,2,0,L|331:28,1,96
256,192,6829,2,0,L|273:98,1,96,2|0,0:0|0:0,0:0:0:0:
291,104,7184,2,0,L|274:198,1,96
438,273,7540,6,0,L|421:367,1,96,2|0,0:0|0:0,0:0:0:0:
403,361,7895,2,0,L|420:267,1,96
256,192,8251,2,0,L|350:209,1,96,2|0,0:0|0:0,0:0:0:0:
344,227,8606,2,0,L|250:210,1,96
175,374,8961,6,0,L|81:357,1,96,2|0,0:0|0:0,0:0:0:0:
87,339,9316,2,0,L|181:356,1,96
256,192,9672,2,0,L|239:286,1,96,2|0,0:0|0:0,0:0:0:0:
221,280,10027,2,0,L|238:186,1,96
74,111,10383,6,0,L|91:17,1,96,2|0,0:0|0:0,0:0:0:0:
109,23,10738,2,0,L|92:117,1,96
256,192,11094,2,0,L|162:175,1,96,2|0,0:0|0:0,0:0:0:0:
168,157,11449,2,0,L|262:174,1,96
337,10,11805,6,0,L|431:27,1,96,2|0,0:0|0:0,0:0:0:0:
331,28,12160,2,0,L|425:45,1,96
256,192,12516,2,0,L|273:98,1,96,2|0,0:0|0:0,0:0:0:0:
274,198,12871,2,0,L|291:104,1,96
438,273,13227,6,0,L|421:367,1,96,2|0,0:0|0:0,0:0:0:0:
420,267,13582,2,0,L|403:361,1,96
256,192,13938,2,0,L|350:209,1,96,2|0,0:0|0:0,0:0:0:0:
250,210,14293,2,0,L|344:227,1,96
175,374,14649,6,0,L|81:357,1,96,2|0,0:0|0:0,0:0:0:0:
181,356,15004,2,0,L|87:339,1,96
256,192,15360,2,0,L|239:286,1,96,2|0,0:0|0:0,0:0:0:0:
238,186,15715,2,0,L|221:280,1,96
74,111,16071,6,0,L|91:17,1,96,2|0,0:0|0:0,0:0:0:0:
92,117,16426,2,0,L|109:23,1,96
256,192,16782,2,0,L|162:175,1,96,2|0,0:0|0:0,0:0:0:0:
262,174,17137,2,0,L|168:157,1,96
336,8,17492,6,0,B|366:28|366:28|390:44|402:84|378:120|342:120,1,161.999995056153,2|8,0:0|0:0,0:0:0:0:
176,8,18203,2,0,B|145:28|145:28|121:44|109:84|133:120|169:120,1,161.999995056153,0|8,0:0|0:0,0:0:0:0:
336,376,18914,2,0,B|366:355|366:355|390:339|402:299|378:263|342:263,1,161.999995056153,2|8,0:0|0:0,0:0:0:0:
176,376,19625,2,0,B|145:355|145:355|121:339|109:299|133:263|169:263,1,161.999995056153,0|8,0:0|0:0,0:0:0:0:
336,8,20336,6,0,B|377:-16|413:4|413:8|413:12|449:32|490:8,1,161.999995056153,2|8,0:0|0:0,0:0:0:0:
256,192,21047,2,0,B|215:216|179:196|179:192|179:188|143:168|102:192,1,161.999995056153,0|8,0:0|0:0,0:0:0:0:
336,376,21758,2,0,B|377:400|413:380|413:376|413:372|449:352|490:376,1,161.999995056153,2|8,0:0|0:0,0:0:0:0:
256,192,22468,2,0,B|215:168|179:188|179:192|179:196|143:216|102:192,1,161.999995056153,0|8,0:0|0:0,0:0:0:0:
336,8,23179,6,0,B|364:52|336:96|336:96|404:96,1,161.999995056153,2|8,0:0|0:0,0:0:0:0:
176,8,23890,2,0,B|148:52|176:96|176:96|107:96,1,161.999995056153,0|8,0:0|0:0,0:0:0:0:
404,248,24601,2,0,B|432:172|432:172|404:96,1,161.999995056153,2|8,0:0|0:0,0:0:0:0:
108,248,25312,2,0,B|80:172|80:172|108:96,1,161.999995056153,0|8,0:0|0:0,0:0:0:0:
404,248,26023,6,0,P|256:304|108:248,1,323.999990112305,2|0,0:0|0:0,0:0:0:0:
316,192,27089,1,8,0:0:0:0:
108,136,27445,2,0,P|256:80|404:136,1,323.999990112305,2|0,0:0|0:0,0:0:0:0:
196,192,28511,1,8,0:0:0:0:
404,248,28867,5,0,0:0:0:0:
256,192,28985,12,2,30288,0:0:0:0:
172,192,30999,5,10,1:3:0:0:
196,226,31118,1,10,1:3:0:0:
234,246,31236,1,10,1:3:0:0:
278,246,31355,1,10,1:3:0:0:
316,226,31473,1,10,1:3:0:0:
340,192,31592,1,10,1:3:0:0:
256,88,31710,6,0,P|249:59|256:30,1,60,4|0,3:0|0:0,0:0:0:0:
340,88,31947,1,2,0:3:0:0:
340,88,32066,2,0,P|333:59|340:30,1,60,8|0,0:0|0:0,0:0:0:0:
424,88,32303,1,0,0:0:0:0:
424,88,32421,2,0,P|417:59|424:30,2,60,4|0|2,3:0|0:0|0:3,0:0:0:0:
508,88,32776,2,0,L|448:192,1,120,8|0,0:0|0:0,0:0:0:0:
256,296,33132,6,0,P|249:325|256:354,1,60,4|0,3:0|0:0,0:0:0:0:
340,296,33369,1,2,0:3:0:0:
340,296,33487,2,0,P|333:325|340:354,1,60,8|0,0:0|0:0,0:0:0:0:
424,296,33724,1,0,0:0:0:0:
424,296,33843,2,0,P|417:325|424:354,2,60,4|0|2,3:0|0:0|0:3,0:0:0:0:
508,296,34198,2,0,L|448:192,1,120,8|0,0:0|0:0,0:0:0:0:
256,88,34554,6,0,P|227:81|198:88,1,60,4|0,3:0|0:0,0:0:0:0:
82,171,34791,1,2,0:3:0:0:
82,171,34909,2,0,P|111:164|140:171,1,60,8|0,0:0|0:0,0:0:0:0:
256,256,35146,1,0,0:0:0:0:
256,256,35265,2,0,P|227:249|198:256,2,60,4|0|2,3:0|0:0|0:3,0:0:0:0:
140,341,35620,2,0,B|140:303|114:281|85:281|85:281|56:281,1,120,8|0,0:0|0:0,0:0:0:0:
256,88,35976,6,0,P|285:81|314:88,1,60,4|0,3:0|0:0,0:0:0:0:
430,171,36212,1,2,0:3:0:0:
430,171,36331,2,0,P|401:164|372:171,1,60,8|0,0:0|0:0,0:0:0:0:
256,256,36568,1,0,0:0:0:0:
256,256,36686,2,0,P|285:249|314:256,2,60,4|0|2,3:0|0:0|0:3,0:0:0:0:
430,341,37042,2,0,P|401:334|372:341,1,60,8|0,0:0|0:0,0:0:0:0:
198,341,37279,5,8,0:0:0:0:
198,341,37397,2,0,L|138:341,1,60,4|0,3:0|0:0,0:0:0:0:
78,256,37634,1,2,0:3:0:0:
78,256,37753,2,0,L|138:256,1,60,8|0,0:0|0:0,0:0:0:0:
198,171,37990,1,0,0:0:0:0:
198,171,38108,2,0,L|138:171,2,60,4|0|2,3:0|0:0|0:3,0:0:0:0:
138,86,38464,2,0,P|83:65|28:86,1,120,8|0,0:0|0:0,0:0:0:0:
256,86,38819,6,0,B|263:57|263:57|256:28,1,60,4|0,3:0|0:0,0:0:0:0:
356,86,39056,1,2,0:3:0:0:
356,86,39175,2,0,B|363:57|363:57|356:28,1,60,8|0,0:0|0:0,0:0:0:0:
456,86,39412,1,0,0:0:0:0:
456,86,39530,2,0,B|463:57|463:57|456:28,2,60,4|0|2,3:0|0:0|0:3,0:0:0:0:
406,175,39885,2,0,B|384:231|384:231|406:287,1,120,8|0,0:0|0:0,0:0:0:0:
306,175,40241,6,0,L|284:231,1,60,4|0,3:0|0:0,0:0:0:0:
206,175,40478,1,2,0:3:0:0:
206,175,40596,2,0,L|184:231,1,60,8|0,0:0|0:0,0:0:0:0:
106,175,40833,1,0,0:0:0:0:
106,175,40952,2,0,L|84:231,1,60,4|0,3:0|0:0,0:0:0:0:
6,175,41189,1,2,0:3:0:0:
6,175,41307,2,0,L|49:63,1,120,8|0,0:0|0:0,0:0:0:0:
206,175,41663,6,0,L|228:231,1,60,4|0,3:0|0:0,0:0:0:0:
306,175,41900,1,2,0:3:0:0:
306,175,42018,2,0,L|328:231,1,60,8|0,0:0|0:0,0:0:0:0:
406,175,42255,5,0,0:0:0:0:
406,175,42374,2,0,L|428:231,1,60,2|0,0:0|0:0,0:0:0:0:
419,175,42729,6,0,L|441:231,1,60,8|0,0:0|0:0,0:0:0:0:
93,175,43085,6,0,B|93:127|93:127|84:119|84:119|93:111|93:111|93:63,1,120,4|0,3:0|0:0,0:0:0:0:
148,7,43440,1,8,0:0:0:0:
236,136,43677,1,0,0:0:0:0:
236,136,43795,2,0,B|236:184|236:184|245:192|245:192|236:200|236:200|236:248,1,120,4|0,3:0|0:0,0:0:0:0:
181,304,44151,1,8,0:0:0:0:
337,304,44388,5,0,0:0:0:0:
337,304,44506,2,0,P|393:323|449:304,1,120,4|0,3:0|0:0,0:0:0:0:
337,80,44862,2,0,P|393:61|449:80,1,120,8|0,0:0|0:0,0:0:0:0:
393,250,45217,2,0,B|364:232|364:232|338:232,2,60,4|0|0,3:0|0:0|0:0,0:0:0:0:
393,134,45573,2,0,B|364:152|364:152|338:152,2,60,8|0|0,0:0|0:0|0:0,0:0:0:0:
268,192,45928,6,0,B|221:192|221:192|213:196|213:196|213:188|213:188|205:192|205:192|158:192,1,120,4|0,3:0|0:0,0:0:0:0:
78,192,46284,1,8,0:0:0:0:
243,68,46521,1,0,0:0:0:0:
243,68,46639,2,0,B|290:68|290:68|298:72|298:72|298:64|298:64|306:68|306:68|353:68,1,120,4|0,3:0|0:0,0:0:0:0:
433,68,46994,1,8,0:0:0:0:
268,192,47231,5,0,0:0:0:0:
268,192,47350,2,0,B|248:220|264:248|268:248|272:248|288:276|268:304,1,120,4|0,3:0|0:0,0:0:0:0:
433,192,47705,2,0,B|453:220|437:248|433:248|429:248|413:276|433:304,1,120,8|0,0:0|0:0,0:0:0:0:
268,192,48061,2,0,B|208:192,2,60,4|0|0,3:0|0:0|0:0,0:0:0:0:
433,192,48416,2,0,B|493:192,2,60,8|0|0,0:0|0:0|0:0,0:0:0:0:
268,92,48772,6,0,B|224:92|224:92|180:92|160:126,1,120,4|0,3:0|0:0,0:0:0:0:
81,126,49127,1,8,0:0:0:0:
81,258,49364,1,0,0:0:0:0:
160,257,49483,2,0,B|180:292|224:292|224:292|268:292,1,120,4|0,3:0|0:0,0:0:0:0:
346,292,49838,1,8,0:0:0:0:
500,292,50075,5,0,0:0:0:0:
500,292,50194,2,0,P|507:263|500:234,1,60,2|0,3:0|0:0,0:0:0:0:
423,130,50431,2,0,P|416:159|423:188,1,60,2|8,3:0|0:0,0:0:0:0:
346,292,50667,2,0,P|353:263|346:234,1,60,2|0,3:0|0:0,0:0:0:0:
269,130,50904,2,0,P|262:159|269:188,2,60,2|0|0,3:0|0:0|0:0,0:0:0:0:
329,78,51260,2,0,L|209:78,1,120,8|0,0:0|0:0,0:0:0:0:
69,130,51615,5,4,3:0:0:0:
69,155,51734,1,0,0:0:0:0:
69,180,51852,1,0,0:0:0:0:
69,205,51971,2,0,B|93:205|93:205|109:237|109:237|125:205|125:205|149:205,1,120,8|0,0:0|0:0,0:0:0:0:
256,130,52326,5,4,3:0:0:0:
256,105,52445,1,0,0:0:0:0:
256,80,52563,1,0,0:0:0:0:
256,55,52682,2,0,B|232:55|232:55|216:23|216:23|200:55|200:55|176:55,1,120,8|0,0:0|0:0,0:0:0:0:
69,130,53037,5,4,3:0:0:0:
69,155,53156,1,0,0:0:0:0:
69,180,53274,1,0,0:0:0:0:
69,205,53393,2,0,B|93:205|93:205|109:237|109:237|125:205|125:205|149:205,1,120,8|0,0:0|0:0,0:0:0:0:
296,130,53748,2,0,B|272:130|272:130|256:98|256:98|240:130|240:130|216:130,1,120,4|0,3:0|0:0,0:0:0:0:
362,205,54103,1,8,0:0:0:0:
362,205,54459,6,0,B|374:185|374:185|402:185|402:185|410:182|410:182|418:185|418:185|446:185|446:185|458:205,1,120,4|0,0:1|0:0,0:0:0:0:
410,265,54814,1,8,0:0:0:0:
256,265,55051,1,0,0:0:0:0:
256,265,55170,2,0,B|244:245|244:245|216:245|216:245|208:242|208:242|200:245|200:245|172:245|172:245|160:265,1,120,4|0,3:0|0:0,0:0:0:0:
208,325,55525,1,8,0:0:0:0:
362,325,55762,5,0,0:0:0:0:
362,325,55881,2,0,B|374:345|374:345|402:345|402:345|410:348|410:348|418:345|418:345|446:345|446:345|458:325,1,120,4|0,3:0|0:0,0:0:0:0:
458,306,56236,2,0,B|446:326|446:326|418:326|418:326|410:329|410:329|402:326|402:326|374:326|374:326|362:306,1,120,8|0,0:0|0:0,0:0:0:0:
362,205,56592,2,0,B|374:185|374:185|402:185|402:185|410:182|410:182|418:185|418:185|446:185|446:185|458:205,1,120,4|0,3:0|0:0,0:0:0:0:
458,224,56947,2,0,B|446:204|446:204|418:204|418:204|410:201|410:201|402:204|402:204|374:204|374:204|362:224,1,120,8|0,0:0|0:0,0:0:0:0:
150,205,57303,6,0,B|138:185|138:185|110:185|110:185|102:182|102:182|94:185|94:185|66:185|66:185|54:205,1,120,4|0,3:0|0:0,0:0:0:0:
102,265,57658,1,8,0:0:0:0:
256,265,57895,1,0,0:0:0:0:
256,265,58013,2,0,B|268:245|268:245|296:245|296:245|304:242|304:242|312:245|312:245|340:245|340:245|352:265,1,120,4|0,3:0|0:0,0:0:0:0:
304,325,58369,1,8,0:0:0:0:
150,325,58606,5,0,0:0:0:0:
150,325,58724,2,0,B|138:345|138:345|110:345|110:345|102:348|102:348|94:345|94:345|66:345|66:345|54:325,1,120,4|0,3:0|0:0,0:0:0:0:
54,306,59080,2,0,B|66:326|66:326|94:326|94:326|102:329|102:329|110:326|110:326|138:326|138:326|150:306,1,120,8|0,0:0|0:0,0:0:0:0:
150,205,59435,2,0,B|138:185|138:185|110:185|110:185|102:182|102:182|94:185|94:185|66:185|66:185|54:205,1,120,4|0,3:0|0:0,0:0:0:0:
54,224,59791,2,0,B|66:204|66:204|94:204|94:204|102:201|102:201|110:204|110:204|138:204|138:204|150:224,1,120,8|0,0:0|0:0,0:0:0:0:
362,205,60146,6,0,B|382:177|382:145|362:121|362:121|343:98,1,120,4|0,3:0|0:0,0:0:0:0:
300,32,60502,1,8,0:0:0:0:
150,205,60739,1,0,0:0:0:0:
150,205,60857,2,0,B|130:177|130:145|150:121|150:121|168:98,1,120,4|0,3:0|0:0,0:0:0:0:
212,32,61212,1,8,0:0:0:0:
362,205,61449,5,0,0:0:0:0:
362,205,61568,2,0,B|362:253|362:253|354:261|354:261|346:269|346:269|346:318,1,120,4|0,3:0|0:0,0:0:0:0:
344,205,61923,2,0,B|344:253|344:253|336:261|336:261|328:269|328:269|328:318,1,120,8|0,0:0|0:0,0:0:0:0:
150,205,62279,2,0,B|150:253|150:253|158:261|158:261|166:269|166:269|166:318,1,120,4|0,3:0|0:0,0:0:0:0:
168,205,62634,2,0,B|168:253|168:253|176:261|176:261|184:269|184:269|184:318,1,120,8|0,0:0|0:0,0:0:0:0:
361,204,62990,6,0,P|342:161|303:134,1,96,4|0,0:1|0:0,0:0:0:0:
256,76,63345,1,8,0:0:0:0:
150,205,63582,1,0,0:0:0:0:
150,204,63701,2,0,P|169:161|208:134,1,96,4|0,3:0|0:0,0:0:0:0:
256,76,64056,1,8,0:0:0:0:
362,205,64293,5,0,0:0:0:0:
362,205,64412,1,2,0:0:0:0:
150,205,64649,1,0,0:0:0:0:
150,205,64767,1,2,0:0:0:0:
256,76,65004,5,0,0:0:0:0:
256,76,65122,2,2,L|256:58,1,18,2|2,0:0|0:0,0:1:0:0:
322,351,65833,6,0,P|336:319|368:304,2,71.9999978027344,4|0|2,1:0|0:0|0:3,0:0:0:0:
256,192,66189,2,0,P|287:206|302:238,2,71.9999978027344,8|0|0,0:0|0:0|0:0,0:0:0:0:
437,169,66544,2,0,P|422:200|390:215,2,71.9999978027344,4|0|2,3:0|0:0|0:3,0:0:0:0:
368,304,66900,1,8,0:0:0:0:
368,304,67018,1,0,0:0:0:0:
368,304,67137,1,0,0:0:0:0:
302,239,67255,6,0,L|194:347,1,143.999995605469,4|2,3:0|0:3,0:0:0:0:
133,273,67611,2,0,B|98:265|98:265|63:273,1,71.9999978027344,8|0,0:0|0:0,0:0:0:0:
12,192,67848,1,0,0:0:0:0:
63,111,67966,6,0,B|88:60|136:60|136:60|185:60,1,143.999995605469,4|2,3:0|0:3,0:0:0:0:
328,120,68321,2,0,L|256:120,2,71.9999978027344,8|0|0,0:0|0:0|0:0,0:0:0:0:
471,180,68677,5,6,3:0:0:0:
435,180,68795,1,0,0:0:0:0:
399,180,68914,1,2,0:3:0:0:
471,198,69032,5,10,0:0:0:0:
435,198,69151,1,0,0:0:0:0:
399,198,69269,1,0,0:0:0:0:
256,240,69388,5,6,3:0:0:0:
292,240,69506,1,0,0:0:0:0:
328,240,69625,1,2,0:3:0:0:
256,258,69743,5,10,0:0:0:0:
292,258,69862,1,0,0:0:0:0:
328,258,69980,1,0,0:0:0:0:
471,300,70099,6,0,L|399:300,1,71.9999978027344,4|0,3:0|0:0,0:0:0:0:
327,360,70336,1,2,0:3:0:0:
256,300,70454,2,0,P|192:328|128:300,1,143.999995605469,8|0,0:0|0:0,0:0:0:0:
192,135,70810,2,0,B|203:172|234:192|234:192|203:212|192:249,1,143.999995605469,4|2,3:0|0:3,0:0:0:0:
128,84,71165,2,0,P|192:56|256:84,1,143.999995605469,8|0,0:0|0:0,0:0:0:0:
392,135,71521,5,6,3:0:0:0:
356,147,71639,1,0,0:0:0:0:
320,135,71758,1,2,0:3:0:0:
392,153,71876,5,10,0:0:0:0:
356,165,71994,1,0,0:0:0:0:
320,153,72113,1,0,0:0:0:0:
168,192,72231,5,6,3:0:0:0:
204,180,72350,1,0,0:0:0:0:
240,192,72468,1,2,0:3:0:0:
168,174,72587,5,10,0:0:0:0:
204,162,72705,1,0,0:0:0:0:
240,174,72824,1,0,0:0:0:0:
392,231,72942,6,0,B|357:238|357:238|322:231,1,71.9999978027344,4|0,3:0|0:0,0:0:0:0:
240,288,73179,1,2,0:3:0:0:
322,345,73298,2,0,B|358:369|390:349|390:345|390:341|422:321|458:345,1,143.999995605469,8|0,0:0|0:0,0:0:0:0:
240,288,73653,2,0,B|204:312|172:292|172:288|172:284|140:264|104:288,1,143.999995605469,4|2,3:0|0:3,0:0:0:0:
322,231,74009,2,0,B|358:255|390:235|390:231|390:227|422:207|458:231,1,143.999995605469,8|0,0:0|0:0,0:0:0:0:
240,174,74364,6,0,B|168:174,2,71.9999978027344,4|0|2,3:0|0:0|0:3,0:0:0:0:
394,117,74720,2,0,B|322:117,2,71.9999978027344,8|0|0,0:0|0:0|0:0,0:0:0:0:
240,195,75075,2,0,B|168:195,2,71.9999978027344,4|0|2,3:0|0:0|0:3,0:0:0:0:
394,138,75431,2,0,B|322:138,2,71.9999978027344,8|0|0,0:0|0:0|0:0,0:0:0:0:
240,216,75786,6,0,B|168:216,1,71.9999978027344,4|0,3:0|0:0,0:0:0:0:
101,282,76023,1,2,0:3:0:0:
101,282,76141,2,0,P|76:216|101:150,1,143.999995605469,10|0,0:0|0:0,0:0:0:0:
204,54,76497,2,0,B|240:42|256:7|256:7|272:42|308:54,1,143.999995605469,2|0,0:0|0:0,0:0:0:0:
411,150,76852,2,0,P|436:216|411:282,1,143.999995605469,10|0,0:0|0:0,0:0:0:0:
190,351,77208,6,0,B|177:317|177:317|143:304,2,71.9999978027344,4|0|2,1:0|0:0|0:3,0:0:0:0:
256,192,77563,2,0,B|222:204|222:204|209:238,2,71.9999978027344,8|0|0,0:0|0:0|0:0,0:0:0:0:
75,169,77919,2,0,B|87:202|87:202|121:215,2,71.9999978027344,4|0|2,3:0|0:0|0:3,0:0:0:0:
143,304,78274,1,8,0:0:0:0:
143,304,78393,1,0,0:0:0:0:
143,304,78511,1,0,0:0:0:0:
209,238,78630,6,0,L|317:346,1,143.999995605469,4|2,3:0|0:3,0:0:0:0:
379,273,78985,2,0,B|414:260|449:273,1,71.9999978027344,8|0,0:0|0:0,0:0:0:0:
500,192,79222,1,0,0:0:0:0:
449,111,79340,6,0,P|385:139|321:111,1,143.999995605469,4|2,3:0|0:3,0:0:0:0:
188,36,79696,2,0,P|221:23|254:36,2,71.9999978027344,8|0|0,0:0|0:0|0:0,0:0:0:0:
48,123,80051,5,6,3:0:0:0:
73,149,80170,1,0,0:0:0:0:
99,174,80288,1,2,0:3:0:0:
61,111,80407,5,10,0:0:0:0:
86,136,80525,1,0,0:0:0:0:
111,161,80644,1,0,0:0:0:0:
175,48,80762,5,6,3:0:0:0:
200,74,80881,1,0,0:0:0:0:
226,99,80999,1,2,0:3:0:0:
188,36,81118,5,10,0:0:0:0:
213,61,81236,1,0,0:0:0:0:
238,86,81355,1,0,0:0:0:0:
365,11,81473,6,0,B|365:47|365:47|390:72,1,71.9999978027344,4|0,3:0|0:0,0:0:0:0:
456,138,81710,1,2,0:3:0:0:
390,203,81829,2,0,L|327:332,1,143.999995605469,8|0,0:0|0:0,0:0:0:0:
207,203,82184,2,0,P|256:159|305:203,1,143.999995605469,4|2,3:0|0:3,0:0:0:0:
184,332,82540,2,0,L|122:203,1,143.999995605469,8|0,0:0|0:0,0:0:0:0:
64,50,82895,5,6,3:0:0:0:
76,86,83013,1,0,0:0:0:0:
64,122,83132,1,2,0:3:0:0:
82,50,83250,5,10,0:0:0:0:
94,86,83369,1,0,0:0:0:0:
82,122,83487,1,0,0:0:0:0:
121,274,83606,5,6,3:0:0:0:
109,238,83724,1,0,0:0:0:0:
121,202,83843,1,2,0:3:0:0:
103,274,83961,5,10,0:0:0:0:
91,238,84080,1,0,0:0:0:0:
103,202,84198,1,0,0:0:0:0:
160,50,84317,6,0,B|167:85|167:85|160:120,1,71.9999978027344,4|0,3:0|0:0,0:0:0:0:
220,192,84554,1,2,0:3:0:0:
280,120,84672,2,0,B|338:120|338:120|346:124|346:124|354:128|354:128|422:128,1,143.999995605469,8|0,0:0|0:0,0:0:0:0:
280,264,85028,2,0,B|338:264|338:264|346:260|346:260|354:256|354:256|422:256,1,143.999995605469,4|2,3:0|0:3,0:0:0:0:
220,192,85383,2,0,B|162:192|162:192|154:196|154:196|146:200|146:200|77:200,1,143.999995605469,8|0,0:0|0:0,0:0:0:0:
220,336,85739,6,0,B|148:336,2,71.9999978027344,4|0|2,3:0|0:0|0:3,0:0:0:0:
374,279,86094,2,0,B|302:279,2,71.9999978027344,8|0|0,0:0|0:0|0:0,0:0:0:0:
220,357,86449,2,0,B|148:357,2,71.9999978027344,4|0|2,3:0|0:0|0:3,0:0:0:0:
374,300,86805,2,0,B|302:300,2,71.9999978027344,8|0|0,0:0|0:0|0:0,0:0:0:0:
220,378,87160,6,0,B|148:378,1,71.9999978027344,4|0,3:0|0:0,0:0:0:0:
96,300,87397,1,2,0:3:0:0:
96,300,87516,2,0,B|72:264|92:232|96:232|100:232|120:200|96:164,1,143.999995605469,10|0,0:0|0:0,0:0:0:0:
204,80,87871,2,0,B|220:112|256:128|256:128|292:112|308:80,1,143.999995605469,2|0,0:0|0:0,0:0:0:0:
416,164,88227,2,0,B|392:200|412:232|416:232|420:232|440:264|416:300,1,143.999995605469,10|0,0:0|0:0,0:0:0:0:
256,378,88582,6,0,L|256:306,2,71.9999978027344,4|0|2,1:0|0:0|0:3,0:0:0:0:
176,306,88938,2,0,B|200:282|200:282|200:243,2,71.9999978027344,8|0|0,0:0|0:0|0:0,0:0:0:0:
336,306,89293,2,0,B|312:282|312:282|312:243,2,71.9999978027344,4|0|2,3:0|0:0|0:3,0:0:0:0:
256,167,89649,1,8,0:0:0:0:
256,167,89767,1,0,0:0:0:0:
256,167,89885,1,0,0:0:0:0:
200,91,90004,6,0,B|220:58|256:49|256:49|292:58|312:91,1,143.999995605469,4|2,3:0|0:3,0:0:0:0:
256,167,90359,2,0,B|248:202|248:202|256:237,1,71.9999978027344,8|0,0:0|0:0,0:0:0:0:
175,288,90596,1,0,0:0:0:0:
94,237,90715,6,0,B|94:267|94:267|58:288|58:288|94:309|94:309|94:339,1,143.999995605469,4|2,3:0|0:3,0:0:0:0:
175,288,91070,2,0,L|175:216,2,71.9999978027344,8|0|0,0:0|0:0|0:0,0:0:0:0:
337,288,91426,5,6,3:0:0:0:
337,252,91544,1,0,0:0:0:0:
337,216,91663,1,2,0:3:0:0:
319,288,91781,5,10,0:0:0:0:
319,252,91900,1,0,0:0:0:0:
319,216,92018,1,0,0:0:0:0:
277,73,92137,5,6,3:0:0:0:
277,109,92255,1,0,0:0:0:0:
277,145,92374,1,2,0:3:0:0:
259,73,92492,5,10,0:0:0:0:
259,109,92611,1,0,0:0:0:0:
259,145,92729,1,0,0:0:0:0:
175,288,92848,6,0,L|175:216,1,71.9999978027344,4|0,3:0|0:0,0:0:0:0:
112,145,93085,1,2,0:3:0:0:
175,74,93203,2,0,P|112:44|49:74,1,143.999995605469,8|0,0:0|0:0,0:0:0:0:
112,239,93558,2,0,B|143:232|143:232|143:152|143:152|112:145,1,143.999995605469,4|2,3:0|0:3,0:0:0:0:
49,310,93914,2,0,P|112:340|175:310,1,143.999995605469,8|0,0:0|0:0,0:0:0:0:
312,192,94269,6,0,B|352:160|396:184|396:192|396:200|440:224|480:192,1,180,2|8,0:0|0:0,0:0:0:0:
200,192,94980,2,0,B|160:160|116:184|116:192|116:200|72:224|32:192,1,180,2|8,0:0|0:0,0:0:0:0:
312,192,95691,6,0,P|331:136|312:80,1,120,2|0,0:0|0:0,0:0:0:0:
200,80,96047,2,0,P|181:136|200:192,1,120,8|0,0:0|0:0,0:0:0:0:
324,192,96402,2,0,P|343:136|324:80,1,120,2|0,0:0|0:0,0:0:0:0:
188,80,96758,2,0,P|169:136|188:192,1,120,8|0,0:0|0:0,0:0:0:0:
324,192,97113,6,0,P|256:387|188:192,1,540,2|8,0:0|0:0,0:0:0:0:
256,278,98535,2,0,P|188:83|120:278,1,540,2|8,0:0|0:0,0:0:0:0:
188,192,99957,5,4,3:0:0:0:
