osu file format v14

[General]
AudioFilename: audio.mp3
AudioLeadIn: 0
PreviewTime: 65300
Countdown: 0
SampleSet: Soft
StackLeniency: 0.3
Mode: 0
LetterboxInBreaks: 0
SkinPreference:Default
WidescreenStoryboard: 1

[Editor]
Bookmarks: 431,99957
DistanceSpacing: 1.6
BeatDivisor: 6
GridSize: 4
TimelineZoom: 1.5

[Metadata]
Title:Go Go Go Go! (Radio Edit) (Nightcore & Cut Ver.)
TitleUnicode:Go Go Go Go! (Radio Edit) (Nightcore & Cut Ver.)
Artist:89ers
ArtistUnicode:89ers
Creator:Gero
Version:H-H-H-Hard!
Source:
Tags:Yeah Boy! English Electronic Trance Techno Happy Hardcore Sped Up Ver. Short Version Speed Paul Hutsch Jonawaga Jonarwhal
BeatmapID:3635130
BeatmapSetID:1775229

[Difficulty]
HPDrainRate:5
CircleSize:4
OverallDifficulty:6
ApproachRate:8
SliderMultiplier:1.6
SliderTickRate:1

[Events]
//Background and Video events
0,0,"BG.jpg",0,0
//Break Periods
//Storyboard Layer 0 (Background)
//Storyboard Layer 1 (Fail)
//Storyboard Layer 2 (Pass)
//Storyboard Layer 3 (Foreground)
//Storyboard Layer 4 (Overlay)
//Storyboard Sound Samples

[TimingPoints]
431,355.450236966825,4,2,1,40,1,0
431,-142.857142857143,4,2,1,40,0,0
6118,-125,4,2,1,50,0,0
17492,-111.111111111111,4,2,1,60,0,0
28867,-111.111111111111,4,2,1,40,0,0
30999,-111.111111111111,4,2,2,45,0,0
31710,-100,4,2,2,60,0,0
62990,-125,4,2,1,40,0,0
65122,-125,4,2,2,40,0,0
65833,-83.3333333333333,4,2,2,90,0,1
77089,-83.3333333333333,4,2,2,90,0,0
77208,-83.3333333333333,4,2,2,90,0,1
88464,-83.3333333333333,4,2,2,90,0,0
88582,-83.3333333333333,4,2,2,90,0,1
94269,-100,4,2,1,60,0,0
95691,-100,4,2,1,50,0,0
98535,-100,4,2,1,30,0,0

[Colours]
Combo1 : 56,174,214
Combo2 : 255,64,69
Combo3 : 232,129,66
Combo4 : 214,70,217
SliderBorder : 250,34,34
SliderTrackOverride : 92,92,222

[HitObjects]
164,272,431,6,0,P|112:290|60:272,2,111.999996582031,2|0|2,0:0|0:0|0:0,0:0:0:0:
256,192,1497,1,0,0:0:0:0:
348,272,1852,2,0,P|400:290|452:272,2,111.999996582031,2|0|2,0:0|0:0|0:0,0:0:0:0:
256,192,2919,1,0,0:0:0:0:
348,112,3274,6,0,P|400:94|452:112,2,111.999996582031,2|0|2,0:0|0:0|0:0,0:0:0:0:
256,192,4340,1,0,0:0:0:0:
164,112,4696,2,0,P|112:94|60:112,2,111.999996582031,2|0|2,0:0|0:0|0:0,0:0:0:0:
256,192,5762,1,0,0:0:0:0:
348,112,6118,6,0,L|348:27,1,85.3333333333333,2|0,0:0|0:0,0:0:0:0:
390,27,6473,2,0,L|390:113,1,85.3333333333333
433,113,6829,1,2,0:0:0:0:
332,192,7184,1,0,0:0:0:0:
433,271,7540,6,0,L|433:357,1,85.3333333333333,2|0,0:0|0:0,0:0:0:0:
391,356,7895,2,0,L|391:271,1,85.3333333333333
348,270,8250,1,2,0:0:0:0:
256,356,8606,1,0,0:0:0:0:
164,270,8961,6,0,P|124:283|84:270,1,85.3333333333333,2|0,0:0|0:0,0:0:0:0:
84,227,9317,2,0,P|124:240|164:227,1,85.3333333333333
164,184,9673,2,0,P|124:197|84:184,1,85.3333333333333,2|0,0:0|0:0,0:0:0:0:
84,142,10028,1,0,0:0:0:0:
148,32,10383,6,0,B|184:32|184:32|196:24|196:24|230:24,1,85.3333333333333,2|0,0:0|0:0,0:0:0:0:
281,24,10739,2,0,B|316:24|316:24|328:32|328:32|364:32,1,85.3333333333333
406,32,11094,1,2,0:0:0:0:
496,123,11449,1,0,0:0:0:0:
406,214,11805,6,0,B|395:255|395:255|406:296,1,85.3333333333333,2|0,0:0|0:0,0:0:0:0:
363,297,12160,2,0,B|352:256|352:256|363:215,1,85.3333333333333
320,214,12516,2,0,B|309:255|309:255|320:296,1,85.3333333333333,2|0,0:0|0:0,0:0:0:0:
320,340,12871,1,0,0:0:0:0:
192,340,13227,6,0,P|152:327|112:340,1,85.3333333333333,2|0,0:0|0:0,0:0:0:0:
76,364,13582,2,0,B|76:320|76:320|46:290,1,85.3333333333333
46,247,13938,1,2,0:0:0:0:
46,137,14293,1,0,0:0:0:0:
164,44,14649,6,0,B|128:88|156:156|232:156|256:107|256:107|280:156|356:156|384:88|348:44,1,384,2|0,0:0|0:0,0:0:0:0:
466,137,16070,2,0,P|479:177|466:217,1,85.3333333333333,2|0,0:0|0:0,0:0:0:0:
480,256,16426,2,0,P|440:243|400:256,1,85.3333333333333
375,290,16781,2,0,L|256:242,1,128,2|0,0:0|0:0,0:0:0:0:
256,112,17492,5,2,0:0:0:0:
332,4,17848,2,0,B|412:4|412:4|480:4|512:80|488:132|442:150,1,287.999991210938,8|8,0:0|0:0,0:0:0:0:
320,192,18914,1,2,0:0:0:0:
442,233,19269,2,0,B|488:252|512:304|480:380|412:380|412:380|332:380,1,287.999991210938,8|8,0:0|0:0,0:0:0:0:
256,272,20336,5,2,0:0:0:0:
180,380,20691,2,0,B|100:380|100:380|32:380|0:304|24:252|69:233,1,287.999991210938,8|8,0:0|0:0,0:0:0:0:
192,192,21758,1,2,0:0:0:0:
69,150,22113,2,0,B|24:132|0:80|32:4|100:4|100:4|180:4,1,287.999991210938,8|8,0:0|0:0,0:0:0:0:
256,112,23179,5,2,0:0:0:0:
332,220,23535,2,0,P|256:319|180:220,1,287.999991210938,8|8,0:0|0:0,0:0:0:0:
50,220,24601,1,2,0:0:0:0:
115,108,24957,2,0,B|256:80|256:80|397:108,1,287.999991210938,8|8,0:0|0:0,0:0:0:0:
462,220,26023,6,0,B|496:304|424:384|332:392|268:324|268:324|184:240,1,431.999986816407,2|8,0:0|0:0,0:0:0:0:
328,240,27445,2,0,B|244:324|244:324|180:392|88:384|16:304|50:220,1,431.999986816407,2|8,0:0|0:0,0:0:0:0:
256,192,28867,12,2,30288,0:0:0:0:
256,154,30999,6,0,L|256:106,2,47.9999985351563,10|10|10,1:3|1:3|1:3,0:0:0:0:
256,230,31355,2,0,L|256:278,2,47.9999985351563,10|10|10,1:3|1:3|1:3,0:0:0:0:
324,192,31710,6,0,B|376:180|376:180|428:192,1,106.666666666667,4|2,3:0|0:3,0:0:0:0:
500,140,32066,2,0,B|512:192|512:192|500:244,1,106.666666666667,8|0,0:0|0:0,0:0:0:0:
428,296,32421,2,0,B|376:308|376:308|324:296,1,106.666666666667,4|2,3:0|0:3,0:0:0:0:
324,381,32776,1,8,0:0:0:0:
188,192,33132,6,0,B|136:204|136:204|84:192,1,106.666666666667,4|2,3:0|0:3,0:0:0:0:
12,244,33487,2,0,B|0:192|0:192|12:140,1,106.666666666667,8|0,0:0|0:0,0:0:0:0:
84,88,33843,2,0,B|136:76,1,53.3333333333333,4|0,3:0|0:0,0:0:0:0:
188,3,34080,1,2,0:3:0:0:
188,3,34198,1,8,0:0:0:0:
324,192,34554,6,0,P|334:244|324:296,1,106.666666666667,4|2,3:0|0:3,0:0:0:0:
304,380,34909,2,0,P|256:360|208:380,1,106.666666666667,8|0,0:0|0:0,0:0:0:0:
188,296,35265,2,0,P|178:244|188:192,1,106.666666666667,4|2,3:0|0:3,0:0:0:0:
102,192,35620,1,8,0:0:0:0:
324,192,35976,6,0,P|334:140|324:88,1,106.666666666667,4|2,3:0|0:3,0:0:0:0:
304,4,36331,2,0,P|256:24|208:4,1,106.666666666667,8|0,0:0|0:0,0:0:0:0:
188,88,36686,2,0,L|178:140,1,53.3333333333333,4|0,3:0|0:0,0:0:0:0:
102,192,36923,1,2,0:3:0:0:
102,192,37042,1,8,0:0:0:0:
256,140,37279,5,8,0:0:0:0:
256,140,37397,2,0,B|300:140|300:140|308:144|308:144|316:148|316:148|360:148,1,106.666666666667,4|2,3:0|0:3,0:0:0:0:
421,86,37753,2,0,L|496:161,1,106.666666666667,8|0,0:0|0:0,0:0:0:0:
435,222,38108,2,0,L|359:297,1,106.666666666667,4|2,3:0|0:3,0:0:0:0:
359,383,38464,1,8,0:0:0:0:
256,140,38819,6,0,B|212:140|212:140|204:144|204:144|196:148|196:148|151:148,1,106.666666666667,4|2,3:0|0:3,0:0:0:0:
91,86,39175,2,0,L|15:161,1,106.666666666667,8|0,0:0|0:0,0:0:0:0:
77,222,39530,2,0,L|115:259,1,53.3333333333333,4|0,3:0|0:0,0:0:0:0:
115,345,39767,1,2,0:3:0:0:
115,345,39885,1,8,0:0:0:0:
256,140,40241,6,0,B|256:86,2,53.3333333333333,4|0|2,3:0|0:0|0:3,0:0:0:0:
341,140,40596,2,0,B|352:192|352:192|341:244,1,106.666666666667,8|0,0:0|0:0,0:0:0:0:
256,244,40952,2,0,B|256:297,2,53.3333333333333,4|0|2,3:0|0:0|0:3,0:0:0:0:
171,244,41307,2,0,B|160:192|160:192|171:140,1,106.666666666667,8|0,0:0|0:0,0:0:0:0:
124,68,41663,6,0,B|180:68|180:68|215:32,1,106.666666666667,4|2,3:0|0:3,0:0:0:0:
388,68,42018,2,0,B|332:68|332:68|296:32,1,106.666666666667,8|0,0:0|0:0,0:0:0:0:
256,108,42374,2,0,B|232:148|252:184|256:184|260:184|280:220|256:260,1,160,2|8,0:0|0:0,0:0:0:0:
256,260,43085,6,0,B|204:272|204:272|152:260,1,106.666666666667,4|0,3:0|0:0,0:0:0:0:
100,192,43440,1,8,0:0:0:0:
256,124,43677,1,0,0:0:0:0:
256,124,43795,2,0,B|308:112|308:112|360:124,1,106.666666666667,4|0,3:0|0:0,0:0:0:0:
412,192,44151,1,8,0:0:0:0:
256,260,44388,5,0,0:0:0:0:
256,260,44506,2,0,P|236:308|256:356,1,106.666666666667,4|0,3:0|0:0,0:0:0:0:
328,308,44862,2,0,L|403:383,1,106.666666666667,8|0,0:0|0:0,0:0:0:0:
444,308,45217,2,0,B|466:259,1,53.3333333333333,4|0,3:0|0:0,0:0:0:0:
412,192,45454,1,0,0:0:0:0:
412,192,45573,1,8,0:0:0:0:
256,124,45810,5,0,0:0:0:0:
256,124,45928,2,0,P|276:76|256:28,1,106.666666666667,4|0,3:0|0:0,0:0:0:0:
184,76,46284,2,0,L|108:0,1,106.666666666667,8|0,0:0|0:0,0:0:0:0:
68,76,46639,2,0,B|48:76|20:96|20:128|20:128|20:156,1,106.666666666667,4|0,3:0|0:0,0:0:0:0:
100,192,46994,1,8,0:0:0:0:
256,260,47231,5,0,0:0:0:0:
256,260,47350,2,0,B|308:260|308:260|346:298,1,106.666666666667,4|0,3:0|0:0,0:0:0:0:
412,240,47705,2,0,B|412:212|412:212|427:192|427:192|412:172|412:172|412:144,1,106.666666666667,8|0,0:0|0:0,0:0:0:0:
325,143,48061,2,0,B|271:143,1,53.3333333333333,4|0,3:0|0:0,0:0:0:0:
204,192,48298,1,0,0:0:0:0:
204,192,48416,1,8,0:0:0:0:
28,192,48653,5,0,0:0:0:0:
28,192,48772,2,0,B|4:200|-4:232|-4:232|4:264|28:272,1,106.666666666667,4|0,3:0|0:0,0:0:0:0:
104,232,49127,2,0,L|179:307,1,106.666666666667,8|0,0:0|0:0,0:0:0:0:
256,268,49483,2,0,L|331:343,1,106.666666666667,4|0,3:0|0:0,0:0:0:0:
417,343,49838,1,8,0:0:0:0:
496,192,50075,5,0,0:0:0:0:
496,192,50194,2,0,P|516:144|496:96,1,106.666666666667,2|2,3:0|3:0,0:0:0:0:
356,192,50667,2,0,P|376:144|356:96,1,106.666666666667,2|2,3:0|3:0,0:0:0:0:
216,192,51141,1,0,0:0:0:0:
216,192,51260,1,8,0:0:0:0:
76,96,51497,5,0,0:0:0:0:
76,96,51615,2,0,L|76:42,2,53.3333333333333,4|0|0,3:0|0:0|0:0,0:0:0:0:
8,148,51971,2,0,B|26:161|26:161|26:223|26:223|8:236,1,106.666666666667,8|0,0:0|0:0,0:0:0:0:
76,288,52326,2,0,L|76:341,2,53.3333333333333,4|0|0,3:0|0:0|0:0,0:0:0:0:
144,236,52682,2,0,B|126:223|126:223|126:161|126:161|144:148,1,106.666666666667,8|0,0:0|0:0,0:0:0:0:
76,96,53037,5,4,3:0:0:0:
216,192,53274,1,0,0:0:0:0:
216,192,53393,1,8,0:0:0:0:
76,288,53630,1,0,0:0:0:0:
76,288,53748,1,4,3:0:0:0:
216,384,53985,1,0,0:0:0:0:
216,384,54103,1,8,0:0:0:0:
452,288,54459,6,0,P|462:236|452:184,1,106.666666666667,4|0,0:1|0:0,0:0:0:0:
384,236,54814,2,0,P|394:184|384:132,1,106.666666666667,8|0,0:0|0:0,0:0:0:0:
316,184,55170,2,0,P|326:132|316:80,1,106.666666666667,4|0,3:0|0:0,0:0:0:0:
256,16,55525,1,8,0:0:0:0:
60,96,55762,5,0,0:0:0:0:
60,96,55881,2,0,P|50:148|60:200,1,106.666666666667,4|0,3:0|0:0,0:0:0:0:
128,148,56236,2,0,P|118:200|128:252,1,106.666666666667,8|0,0:0|0:0,0:0:0:0:
128,338,56592,2,0,B|154:333|154:333|180:338,1,53.3333333333333,4|0,3:0|0:0,0:0:0:0:
256,376,56829,1,0,0:0:0:0:
256,376,56947,1,8,0:0:0:0:
452,288,57184,5,0,0:0:0:0:
452,288,57303,2,0,B|428:248|384:248|384:248|360:248,1,106.666666666667,4|0,3:0|0:0,0:0:0:0:
288,200,57658,2,0,B|312:160|356:160|356:160|379:160,1,106.666666666667,8|0,0:0|0:0,0:0:0:0:
452,112,58013,2,0,B|428:72|384:72|384:72|360:72,1,106.666666666667,4|0,3:0|0:0,0:0:0:0:
299,10,58369,1,8,0:0:0:0:
176,132,58606,5,0,0:0:0:0:
176,132,58724,2,0,L|100:207,1,106.666666666667,4|0,3:0|0:0,0:0:0:0:
39,268,59080,2,0,L|114:343,1,106.666666666667,8|0,0:0|0:0,0:0:0:0:
175,283,59435,2,0,L|250:207,1,106.666666666667,4|0,3:0|0:0,0:0:0:0:
312,268,59791,1,8,0:0:0:0:
482,268,60028,5,0,0:0:0:0:
482,268,60146,2,0,B|494:216|494:216|482:164,1,106.666666666667,4|0,3:0|0:0,0:0:0:0:
420,102,60502,1,8,0:0:0:0:
250,102,60739,1,0,0:0:0:0:
250,102,60857,2,0,B|238:154|238:154|250:206,1,106.666666666667,4|0,3:0|0:0,0:0:0:0:
312,268,61212,1,8,0:0:0:0:
142,268,61449,5,0,0:0:0:0:
142,268,61568,2,0,B|88:268|42:234,1,106.666666666667,4|0,3:0|0:0,0:0:0:0:
42,149,61923,2,0,B|88:116|142:116,1,106.666666666667,8|0,0:0|0:0,0:0:0:0:
228,116,62279,2,0,B|256:116|256:116|276:101,1,53.3333333333333,4|0,3:0|0:0,0:0:0:0:
361,100,62516,1,0,0:0:0:0:
361,100,62634,1,8,0:0:0:0:
493,192,62871,5,0,0:0:0:0:
493,192,62990,2,0,B|453:177|453:177|413:192,1,85.3333333333333,4|0,0:1|0:0,0:0:0:0:
453,257,63345,1,8,0:0:0:0:
298,283,63582,1,0,0:0:0:0:
298,283,63701,2,0,P|256:278|214:283,1,85.3333333333333,4|0,3:0|0:0,0:0:0:0:
158,337,64056,1,8,0:0:0:0:
129,192,64293,5,0,0:0:0:0:
129,192,64412,2,0,L|214:192,1,85.3333333333333,2|0,0:0|0:0,0:0:0:0:
383,192,64767,2,0,L|297:192,1,85.3333333333333,2|0,0:0|0:0,0:0:0:0:
256,84,65122,1,2,0:0:0:0:
256,84,65833,6,0,P|196:65|136:84,1,127.99999609375,4|2,1:0|0:3,0:0:0:0:
76,144,66189,2,0,P|136:125|196:144,1,127.99999609375,8|0,0:0|0:0,0:0:0:0:
256,204,66544,2,0,P|196:185|136:204,1,127.99999609375,4|2,3:0|0:3,0:0:0:0:
76,264,66900,2,0,L|12:264,2,63.9999980468751,8|0|0,0:0|0:0|0:0,0:0:0:0:
136,324,67255,6,0,P|196:343|256:324,1,127.99999609375,4|2,3:0|0:3,0:0:0:0:
316,264,67611,1,8,0:0:0:0:
196,144,67848,1,0,0:0:0:0:
196,144,67966,2,0,L|274:43,1,127.99999609375,4|2,3:0|0:3,0:0:0:0:
357,43,68321,1,8,0:0:0:0:
256,204,68558,5,0,0:0:0:0:
256,204,68677,2,0,L|177:304,1,127.99999609375,6|2,3:0|0:3,0:0:0:0:
276,204,69032,2,0,L|197:304,1,127.99999609375,10|0,0:0|0:0,0:0:0:0:
372,204,69388,6,0,L|293:304,1,127.99999609375,6|2,3:0|0:3,0:0:0:0:
392,204,69743,2,0,L|313:304,1,127.99999609375,10|0,0:0|0:0,0:0:0:0:
508,204,70099,6,0,P|527:144|508:84,1,127.99999609375,4|2,3:0|0:3,0:0:0:0:
448,24,70454,1,8,0:0:0:0:
312,120,70691,1,0,0:0:0:0:
312,120,70810,2,0,P|256:147|200:120,1,127.99999609375,4|2,3:0|0:3,0:0:0:0:
256,60,71165,1,8,0:0:0:0:
368,180,71402,5,0,0:0:0:0:
368,180,71521,2,0,B|368:228|368:228|360:236|360:236|352:244|352:244|352:301,1,127.99999609375,6|2,3:0|0:3,0:0:0:0:
348,180,71876,2,0,B|348:228|348:228|340:236|340:236|332:244|332:244|332:301,1,127.99999609375,10|0,0:0|0:0,0:0:0:0:
144,180,72231,6,0,B|144:228|144:228|152:236|152:236|160:244|160:244|160:301,1,127.99999609375,6|2,3:0|0:3,0:0:0:0:
164,180,72587,2,0,B|164:228|164:228|172:236|172:236|180:244|180:244|180:301,1,127.99999609375,10|0,0:0|0:0,0:0:0:0:
256,180,72942,6,0,B|256:129|256:129|252:121|252:121|260:121|260:121|256:113|256:113|256:62,1,127.99999609375,4|2,3:0|0:3,0:0:0:0:
192,8,73298,2,0,L|320:8,1,127.99999609375,8|0,0:0|0:0,0:0:0:0:
384,62,73653,2,0,B|414:62|414:62|441:62|480:80|487:116,1,127.99999609375,4|2,3:0|0:3,0:0:0:0:
448,192,74009,2,0,L|384:192,2,63.9999980468751,8|0|0,0:0|0:0|0:0,0:0:0:0:
487,267,74364,6,0,L|420:376,1,127.99999609375,4|2,3:0|0:3,0:0:0:0:
335,376,74720,1,8,0:0:0:0:
256,228,74957,1,0,0:0:0:0:
256,228,75075,2,0,B|227:208|195:224|195:228|195:232|163:248|134:228,1,127.99999609375,4|2,3:0|0:3,0:0:0:0:
76,289,75431,2,0,B|96:260|80:228|76:228|72:228|56:196|76:167,1,127.99999609375,8|0,0:0|0:0,0:0:0:0:
14,106,75786,5,4,3:0:0:0:
192,106,76023,1,2,0:3:0:0:
192,106,76141,2,0,L|325:106,1,127.99999609375,10|0,0:0|0:0,0:0:0:0:
379,46,76497,5,2,0:0:0:0:
133,46,76852,1,10,0:0:0:0:
379,46,77208,6,0,B|401:106|401:106|379:166,1,127.99999609375,4|2,1:0|0:3,0:0:0:0:
319,226,77563,2,0,B|341:166|341:166|319:106,1,127.99999609375,8|0,0:0|0:0,0:0:0:0:
263,46,77919,2,0,B|285:106|285:106|263:166,1,127.99999609375,4|2,3:0|0:3,0:0:0:0:
203,226,78274,2,0,L|181:166,2,63.9999980468751,8|0|0,0:0|0:0|0:0,0:0:0:0:
143,285,78630,6,0,B|95:285|95:285|83:296|83:296|71:285|71:285|23:285,1,127.99999609375,4|2,3:0|0:3,0:0:0:0:
44,368,78985,1,8,0:0:0:0:
210,368,79222,1,0,0:0:0:0:
210,368,79340,2,0,P|256:331|302:368,1,127.99999609375,4|2,3:0|0:3,0:0:0:0:
385,368,79696,1,8,0:0:0:0:
385,201,79933,5,0,0:0:0:0:
385,201,80051,2,0,B|397:165|369:133|337:133|337:133|306:133,1,127.99999609375,6|2,3:0|0:3,0:0:0:0:
405,201,80407,2,0,B|417:165|389:133|357:133|357:133|326:133,1,127.99999609375,10|0,0:0|0:0,0:0:0:0:
127,201,80762,6,0,B|115:165|143:133|175:133|175:133|205:133,1,127.99999609375,6|2,3:0|0:3,0:0:0:0:
107,201,81118,2,0,B|95:165|123:133|155:133|155:133|185:133,1,127.99999609375,10|0,0:0|0:0,0:0:0:0:
385,201,81473,6,0,P|404:261|385:321,1,127.99999609375,4|2,3:0|0:3,0:0:0:0:
300,321,81829,1,8,0:0:0:0:
127,201,82066,1,0,0:0:0:0:
127,201,82184,2,0,P|108:261|127:321,1,127.99999609375,4|2,3:0|0:3,0:0:0:0:
212,321,82540,1,8,0:0:0:0:
385,201,82776,5,0,0:0:0:0:
385,201,82895,2,0,B|308:98,1,127.99999609375,6|2,3:0|0:3,0:0:0:0:
405,201,83250,2,0,B|328:98,1,127.99999609375,10|0,0:0|0:0,0:0:0:0:
127,201,83606,6,0,B|203:98,1,127.99999609375,6|2,3:0|0:3,0:0:0:0:
107,201,83961,2,0,B|183:98,1,127.99999609375,10|0,0:0|0:0,0:0:0:0:
256,201,84317,6,0,B|256:252|256:252|260:260|260:260|252:260|252:260|256:268|256:268|256:319,1,127.99999609375,4|2,3:0|0:3,0:0:0:0:
320,373,84672,2,0,L|192:373,1,127.99999609375,8|0,0:0|0:0,0:0:0:0:
128,319,85028,2,0,B|68:319|68:319|26:266,1,127.99999609375,4|2,3:0|0:3,0:0:0:0:
64,192,85383,2,0,L|128:192,2,63.9999980468751,8|0|0,0:0|0:0|0:0,0:0:0:0:
25,117,85739,6,0,L|92:8,1,127.99999609375,4|2,3:0|0:3,0:0:0:0:
177,8,86094,1,8,0:0:0:0:
256,156,86331,1,0,0:0:0:0:
256,156,86449,2,0,B|312:156|312:156|324:164|324:164|381:164,1,127.99999609375,4|2,3:0|0:3,0:0:0:0:
456,124,86805,2,0,B|406:242,1,127.99999609375,8|0,0:0|0:0,0:0:0:0:
465,301,87160,5,4,3:0:0:0:
298,301,87397,1,2,0:3:0:0:
298,301,87516,2,0,B|264:284|256:255|256:255|248:284|214:301,1,127.99999609375,10|0,0:0|0:0,0:0:0:0:
155,359,87871,5,2,0:0:0:0:
256,132,88227,1,10,0:0:0:0:
357,359,88582,6,0,P|380:301|357:243,1,127.99999609375,4|2,1:0|0:3,0:0:0:0:
316,168,88938,2,0,P|256:149|196:168,1,127.99999609375,8|0,0:0|0:0,0:0:0:0:
155,243,89293,2,0,P|132:301|155:359,1,127.99999609375,4|2,3:0|0:3,0:0:0:0:
224,301,89649,2,0,L|300:301,2,63.9999980468751,8|0|0,0:0|0:0|0:0,0:0:0:0:
155,243,90004,6,0,L|27:243,1,127.99999609375,4|2,3:0|0:3,0:0:0:0:
27,158,90359,1,8,0:0:0:0:
144,40,90596,1,0,0:0:0:0:
144,40,90715,2,0,B|173:24|205:40|205:40|237:24|266:40,1,127.99999609375,4|2,3:0|0:3,0:0:0:0:
350,40,91070,1,8,0:0:0:0:
350,206,91307,5,0,0:0:0:0:
350,206,91426,2,0,B|382:245|382:245|390:248|390:248|384:253|384:253|393:257|393:257|425:296,1,127.99999609375,6|2,3:0|0:3,0:0:0:0:
330,204,91781,2,0,B|362:243|362:243|370:246|370:246|364:251|364:251|373:255|373:255|405:294,1,127.99999609375,10|0,0:0|0:0,0:0:0:0:
234,206,92137,6,0,B|266:245|266:245|274:248|274:248|268:253|268:253|277:257|277:257|309:296,1,127.99999609375,6|2,3:0|0:3,0:0:0:0:
214,204,92492,2,0,B|246:243|246:243|254:246|254:246|248:251|248:251|257:255|257:255|289:294,1,127.99999609375,10|0,0:0|0:0,0:0:0:0:
98,206,92848,6,0,P|79:146|98:86,1,127.99999609375,4|2,3:0|0:3,0:0:0:0:
157,26,93203,1,8,0:0:0:0:
312,86,93440,1,0,0:0:0:0:
312,86,93559,2,0,L|424:147,1,127.99999609375,4|2,3:0|0:3,0:0:0:0:
496,192,93914,1,8,0:0:0:0:
416,336,94151,5,0,0:0:0:0:
416,336,94269,2,0,B|424:296|396:252|352:252|352:252|312:252,1,160,2|8,0:0|0:0,0:0:0:0:
96,336,94980,2,0,B|88:296|116:252|160:252|160:252|200:252,1,160,2|8,0:0|0:0,0:0:0:0:
368,132,95691,6,0,L|368:25,1,106.666666666667,2|0,0:0|0:0,0:0:0:0:
296,25,96047,2,0,B|256:60|256:60|216:25,1,106.666666666667,8|0,0:0|0:0,0:0:0:0:
144,25,96402,2,0,L|144:132,1,106.666666666667,2|0,0:0|0:0,0:0:0:0:
144,202,96758,1,8,0:0:0:0:
46,299,96994,5,0,0:0:0:0:
46,299,97113,2,0,B|141:332|141:332|312:384|400:248|368:132,1,480,2|8,0:0|0:0,0:0:0:0:
144,132,98535,2,0,B|112:248|200:384|371:332|371:332|466:299,1,480,2|8,0:0|0:0,0:0:0:0:
256,192,99957,5,4,3:0:0:0:
