osu file format v14

[General]
AudioFilename: audio.mp3
AudioLeadIn: 0
PreviewTime: 204001
Countdown: 0
SampleSet: Soft
StackLeniency: 0.6
Mode: 0
LetterboxInBreaks: 0
WidescreenStoryboard: 0

[Editor]
Bookmarks: 25682,48542,71402,94262,117122,145697,162842,179986,205681,228540,251400,274260
DistanceSpacing: 0.1
BeatDivisor: 4
GridSize: 4
TimelineZoom: 1.8

[Metadata]
Title:tangent
TitleUnicode:tangent
Artist:8686m
ArtistUnicode:8686m
Creator:Fall
Version:collab
Source:東方紅魔郷 ~ the Embodiment of Scarlet Devil.
Tags:Touhou Project Toho 東方Project take too two ふじこ Fujiko オカヤマ Okayama イマイ Imai 亡き王女の為のセプテット The septette for the dead princess Japanese Rock Cami _tranquility
BeatmapID:1940031
BeatmapSetID:928858

[Difficulty]
HPDrainRate:6.2
CircleSize:4.3
OverallDifficulty:8.2
ApproachRate:8.4
SliderMultiplier:1
SliderTickRate:1

[Events]
//Background and Video events
0,0,"__izayoi_sakuya_and_remilia_scarlet_touhou_drawn_by_yoshioka_yoshiko__637938fd21a00e812e5bdf52a9abd43b.jpg",0,0
//Break Periods
2,191612,205097
//Storyboard Layer 0 (Background)
//Storyboard Layer 1 (Fail)
//Storyboard Layer 2 (Pass)
//Storyboard Layer 3 (Foreground)
//Storyboard Layer 4 (Overlay)
//Storyboard Sound Samples

[TimingPoints]
1377,357.142857142857,4,2,1,50,1,0
2091,-333.333333333333,4,2,1,50,0,0
2805,-100,4,2,1,50,0,0
19233,-55.5555555555556,4,2,1,50,0,0
19984,357.142857142857,4,2,1,60,1,0
19984,-66.6666666666667,4,2,1,60,0,0
25662,-71.4285714285714,4,2,1,50,0,0
25698,-71.4285714285714,4,2,1,65,0,0
47126,-71.4285714285714,4,2,1,65,0,0
48198,-71.4285714285714,4,2,1,55,0,0
49001,-71.4285714285714,4,2,1,25,0,0
49091,-71.4285714285714,4,2,1,55,0,0
50576,-66.6666666666667,4,2,1,55,0,0
50787,-66.6666666666667,4,2,1,40,0,0
50876,-66.6666666666667,4,2,1,34,0,0
51055,-66.6666666666667,4,2,1,50,0,0
53969,-66.6666666666667,4,2,1,50,0,0
54001,-66.6666666666667,4,2,1,40,0,0
54237,-66.6666666666667,4,2,1,40,0,0
54269,-66.6666666666667,4,2,1,50,0,0
56291,-66.6666666666667,4,2,1,50,0,0
56323,-66.6666666666667,4,2,1,25,0,0
56380,-66.6666666666667,4,2,1,25,0,0
56412,-66.6666666666667,4,2,1,50,0,0
59595,-66.6666666666667,4,2,1,50,0,0
59626,-66.6666666666667,4,2,1,65,0,0
59684,-66.6666666666667,4,2,1,65,0,0
59716,-66.6666666666667,4,2,1,50,0,0
62006,-66.6666666666667,4,2,1,50,0,0
62037,-66.6666666666667,4,2,1,25,0,0
62095,-66.6666666666667,4,2,1,25,0,0
62126,-66.6666666666667,4,2,1,50,0,0
64953,-66.6666666666667,4,2,1,50,0,0
64983,-66.6666666666667,4,2,1,65,0,0
65042,-66.6666666666667,4,2,1,65,0,0
65073,-66.6666666666667,4,2,1,50,0,0
65667,-66.6666666666667,4,2,1,50,0,0
65698,-66.6666666666667,4,2,1,60,0,0
65846,-66.6666666666667,4,2,1,60,0,0
65876,-66.6666666666667,4,2,1,50,0,0
67721,-66.6666666666667,4,2,1,50,0,0
67751,-66.6666666666667,4,2,1,25,0,0
67810,-66.6666666666667,4,2,1,25,0,0
67841,-66.6666666666667,4,2,1,40,0,0
71382,-100,4,2,1,40,0,0
77126,-100,4,2,1,45,0,0
82483,-250,4,2,1,45,0,0
82812,-1000,4,2,1,45,0,0
82841,-1000,4,2,1,35,0,0
91384,-100,4,2,1,35,0,0
94269,-80,4,2,1,70,0,1
117126,-100,4,2,1,70,0,0
117280,-500,4,2,1,70,0,0
117305,-500,4,2,1,40,0,0
122102,-142.857142857143,4,2,1,40,0,0
122126,-142.857142857143,4,2,1,60,0,0
122817,-58.8235294117647,4,2,1,60,0,0
122841,-58.8235294117647,4,2,1,70,0,0
128532,-250,4,2,1,70,0,0
129269,-250,4,2,1,40,0,0
133532,-125,4,2,1,40,0,0
134247,-58.8235294117647,4,2,1,40,0,0
134269,-58.8235294117647,4,2,1,70,0,0
139962,-76.9230769230769,4,2,1,70,0,0
140230,-66.6666666666667,4,2,1,70,0,0
140676,-58.8235294117647,4,2,1,70,0,0
145341,-100,4,2,1,70,0,0
145698,-58.8235294117647,4,2,1,55,0,0
156749,-40,4,2,1,55,0,0
157107,-58.8235294117647,4,2,1,55,0,0
159607,-40,4,2,1,55,0,0
159964,-58.8235294117647,4,2,1,55,0,0
165698,-58.8235294117647,4,2,1,65,0,0
167822,-100,4,2,1,65,0,0
168198,-76.9230769230769,4,2,1,65,0,0
168537,-125,4,2,1,65,0,0
168555,-125,4,2,1,50,0,0
171394,-62.5,4,2,1,50,0,0
172108,-83.3333333333333,4,2,1,50,0,0
177109,-71.4285714285714,4,2,1,50,0,0
179983,-71.4285714285714,4,2,1,55,0,0
185681,-142.857142857143,4,2,1,55,0,0
185698,-142.857142857143,4,2,1,35,0,0
186144,-142.857142857143,4,2,1,5,0,0
186233,-142.857142857143,4,2,1,35,0,0
186680,-142.857142857143,4,2,1,5,0,0
186769,-142.857142857143,4,2,1,35,0,0
187662,-142.857142857143,4,2,1,5,0,0
187841,-142.857142857143,4,2,1,35,0,0
189001,-142.857142857143,4,2,1,5,0,0
189091,-142.857142857143,4,2,1,35,0,0
189537,-142.857142857143,4,2,1,5,0,0
189626,-142.857142857143,4,2,1,35,0,0
189983,-142.857142857143,4,2,1,5,0,0
190698,-142.857142857143,4,2,1,35,0,0
191396,-66.6666666666667,4,2,1,35,0,0
191412,-66.6666666666667,4,2,1,30,0,0
205876,-55.5555555555556,4,2,1,70,0,1
228555,-55.5555555555556,4,2,1,77,0,1
251412,-55.5555555555556,4,2,1,70,0,1
254269,-55.5555555555556,4,2,1,77,0,1
268555,-55.5555555555556,4,2,1,85,0,1
272477,-55.5555555555556,4,2,1,90,0,1
274269,-153.846153846154,4,2,1,70,0,0
274448,-153.846153846154,4,2,1,40,0,0
274626,-153.846153846154,4,2,1,5,0,0
279983,-333.333333333333,4,2,1,45,0,0

[Colours]
Combo1 : 255,255,121
Combo2 : 192,192,192
Combo3 : 122,122,122
Combo4 : 255,201,147

[HitObjects]
225,54,2091,6,0,L|275:38,1,52.4999983978272,2|0,0:0|0:0,0:0:0:0:
276,38,2805,6,0,P|252:60|359:247,1,300,2|2,0:0|0:0,0:0:0:0:
457,141,4055,2,0,P|327:118|247:344,1,400,2|0,0:0|0:0,0:0:0:0:
238,330,6019,6,0,P|270:301|338:280,2,100,2|2|2,0:0|0:0|0:0,0:0:0:0:
144,354,7091,2,0,P|163:304|157:244,1,100,2|2,0:0|0:0,0:0:0:0:
29,163,7805,2,0,L|136:183,1,100,2|0,0:0|0:0,0:0:0:0:
204,192,8341,2,0,B|252:130|211:58|211:58|143:76,1,200,2|2,0:0|0:0,0:0:0:0:
156,72,9591,2,0,P|195:106|406:32,1,300,2|2,0:0|0:0,0:0:0:0:
403,38,11198,5,2,0:0:0:0:
256,192,11287,12,0,12805,0:0:0:0:
316,216,13162,6,0,P|336:156|343:101,2,100,2|2|2,0:0|0:0|0:0,0:0:0:0:
190,251,14234,2,0,P|248:230|205:355,1,300,2|2,0:0|0:0,0:0:0:0:
40,156,16019,6,0,B|76:171|76:171|141:146,2,100,2|2|2,0:0|0:0|0:0,0:0:0:0:
132,65,17091,2,0,L|446:88,1,300,2|2,0:0|0:0,0:0:0:0:
320,198,19234,6,0,P|378:230|330:131,1,269.999991760254,2|0,0:3|0:0,0:0:0:0:
215,166,19984,6,0,P|163:156|107:120,1,112.500004291535,6|0,1:2|1:0,0:0:0:0:
66,64,20341,1,0,0:0:0:0:
173,33,20519,1,0,1:0:0:0:
92,151,20698,1,8,0:0:0:0:
92,151,20876,2,0,P|84:202|90:238,1,75.0000028610231,0|0,1:0|0:0,0:0:0:0:
127,338,21234,1,0,1:0:0:0:
127,338,21591,5,0,1:0:0:0:
207,194,21769,1,8,0:0:0:0:
281,328,22126,5,6,1:2:0:0:
192,285,22305,1,0,1:0:0:0:
314,352,22484,1,8,0:0:0:0:
322,263,22662,1,4,0:3:0:0:
407,216,22841,6,0,P|401:273|395:291,1,75.0000028610231,2|0,1:3|0:0,0:0:0:0:
475,171,23198,2,0,P|473:133|463:97,1,75.0000028610231,8|0,0:0|1:0,0:0:0:0:
371,19,23555,2,0,P|362:67|362:98,2,75.0000028610231,8|0|0,0:0|1:0|1:0,0:0:0:0:
490,2,24091,1,8,0:0:0:0:
372,128,24269,1,2,0:0:0:0:
372,128,24448,1,0,1:0:0:0:
184,50,24626,2,0,P|236:61|274:55,1,75.0000028610231,8|0,0:0|1:0,0:0:0:0:
133,112,24984,5,8,0:0:0:0:
152,143,25073,1,8,0:0:0:0:
163,179,25162,1,8,0:0:0:0:
164,216,25251,1,8,0:0:0:0:
154,252,25341,1,8,0:0:0:0:
139,287,25430,1,8,0:0:0:0:
139,324,25519,1,8,0:0:0:0:
155,357,25608,1,8,0:0:0:0:
184,381,25698,6,0,P|211:344|214:312,1,69.9999978637696,2|0,1:2|0:0,0:0:0:0:
284,197,26055,2,0,L|292:267,1,69.9999978637696,2|0,1:2|0:0,0:0:0:0:
438,241,26412,2,0,B|408:222|408:222|374:222,1,69.9999978637696,2|0,1:2|0:0,0:0:0:0:
252,117,26769,2,0,L|182:127,1,69.9999978637696,2|0,1:2|0:0,0:0:0:0:
358,139,27126,2,0,L|371:69,1,69.9999978637696,2|0,1:2|0:0,0:0:0:0:
264,48,27483,2,0,L|251:116,1,69.9999978637696,2|0,1:2|0:0,0:0:0:0:
125,279,27841,2,0,B|95:260|95:260|70:148,1,139.999995727539,2|0,1:2|1:0,0:0:0:0:
154,80,28376,1,0,0:0:0:0:
154,80,28466,1,0,0:0:0:0:
154,80,28555,6,0,L|173:170,1,69.9999978637696,2|0,1:2|0:0,0:0:0:0:
213,291,28912,1,2,1:2:0:0:
75,250,29091,1,0,0:0:0:0:
213,291,29269,2,0,L|282:300,1,69.9999978637696,2|0,1:2|0:0,0:0:0:0:
387,154,29626,2,0,P|298:162|271:207,2,139.999995727539,2|0|0,1:2|1:0|1:0,0:0:0:0:
447,221,30519,1,0,0:0:0:0:
350,333,30698,2,0,P|312:337|280:344,1,69.9999978637696,2|0,1:2|0:0,0:0:0:0:
118,179,31055,2,0,P|156:175|188:168,1,69.9999978637696,2|0,1:2|0:0,0:0:0:0:
268,261,31412,6,0,L|188:252,1,69.9999978637696,6|0,1:2|0:0,0:0:0:0:
29,171,31769,2,0,B|15:133|15:133|17:104,1,69.9999978637696,2|0,1:2|0:0,0:0:0:0:
247,0,32126,2,0,L|235:76,1,69.9999978637696,2|0,1:2|0:0,0:0:0:0:
104,122,32483,2,0,P|154:109|187:157,1,104.999996795654,2|0,1:2|0:0,0:0:0:0:
219,170,32841,2,0,B|146:172|168:215|93:228,1,139.999995727539,2|2,1:2|1:2,0:0:0:0:
20,307,33376,1,0,0:0:0:0:
20,307,33555,2,0,L|96:324,1,69.9999978637696,2|0,1:2|0:0,0:0:0:0:
296,239,33912,2,0,L|203:257,1,69.9999978637696,2|0,1:2|0:0,0:0:0:0:
347,376,34269,6,0,P|332:344|304:324,1,69.9999978637696,2|0,1:2|0:0,0:0:0:0:
143,224,34626,1,0,1:0:0:0:
275,128,34805,1,0,0:0:0:0:
275,128,34894,1,0,0:0:0:0:
275,128,34983,2,0,L|264:200,1,69.9999978637696,2|0,1:2|0:0,0:0:0:0:
467,267,35341,2,0,P|411:250|366:165,1,139.999995727539,2|2,1:2|1:2,0:0:0:0:
395,103,35876,1,0,0:0:0:0:
264,197,36055,2,0,B|207:208|207:208|185:195,1,69.9999978637696,2|0,1:2|0:0,0:0:0:0:
76,57,36412,1,2,1:2:0:0:
171,42,36591,2,0,L|158:117,2,69.9999978637696,0|2|0,0:0|1:2|0:0,0:0:0:0:
80,158,37126,6,0,P|65:189|38:210,1,69.9999978637696,2|0,1:2|0:0,0:0:0:0:
183,278,37483,2,0,L|104:268,1,69.9999978637696,2|0,1:2|0:0,0:0:0:0:
28,309,37841,1,2,1:2:0:0:
28,309,38019,1,0,0:0:0:0:
162,188,38198,2,0,L|231:196,1,69.9999978637696,2|0,1:2|0:0,0:0:0:0:
372,323,38555,2,0,L|262:343,1,104.999996795654,2|0,1:2|0:0,0:0:0:0:
268,341,38912,1,0,1:0:0:0:
307,248,39091,1,0,0:0:0:0:
506,206,39269,2,0,B|442:211|436:166|352:185,1,139.999995727539,2|2,1:2|1:2,0:0:0:0:
370,181,39805,1,0,0:0:0:0:
283,63,39983,6,0,P|315:75|336:104,1,69.9999978637696,2|0,1:2|0:0,0:0:0:0:
207,214,40341,1,0,1:0:0:0:
259,145,40519,1,0,0:0:0:0:
207,214,40698,2,0,L|218:291,1,69.9999978637696,2|0,1:2|0:0,0:0:0:0:
369,307,41055,2,0,B|335:304|335:304|309:280,1,69.9999978637696,2|0,1:2|0:0,0:0:0:0:
371,221,41412,1,0,1:0:0:0:
163,354,41769,2,0,L|45:343,1,104.999996795654,2|0,1:2|0:0,0:0:0:0:
58,344,42126,2,0,B|82:315|82:315|56:227,1,104.999996795654,2|0,1:2|0:0,0:0:0:0:
63,251,42483,2,0,P|87:217|127:205,1,69.9999978637696,2|0,1:2|0:0,0:0:0:0:
334,308,42841,5,2,1:2:0:0:
222,370,43019,1,0,0:0:0:0:
224,252,43198,2,0,L|293:269,1,69.9999978637696,2|0,1:2|0:0,0:0:0:0:
419,167,43555,2,0,P|380:194|345:196,1,69.9999978637696,2|0,1:2|0:0,0:0:0:0:
469,316,43912,2,0,L|480:238,1,69.9999978637696,2|0,1:2|0:0,0:0:0:0:
352,114,44269,1,2,1:2:0:0:
161,42,44537,1,0,0:0:0:0:
161,42,44626,2,0,L|144:158,1,104.999996795654,2|0,1:2|0:0,0:0:0:0:
145,145,44983,2,0,P|94:115|18:136,1,139.999995727539,2|0,1:2|1:0,0:0:0:0:
240,300,45698,6,0,L|315:289,1,69.9999978637696,2|0,1:2|0:0,0:0:0:0:
263,208,46055,1,2,1:2:0:0:
280,119,46233,2,0,L|210:129,1,69.9999978637696,2|0,0:2|1:0,0:0:0:0:
349,178,46591,1,0,0:0:0:0:
210,129,46769,2,0,P|177:99|175:59,1,69.9999978637696,2|0,1:2|0:0,0:0:0:0:
254,58,47126,5,8,0:2:0:0:
211,230,47394,1,8,0:2:0:0:
244,312,47662,1,8,0:2:0:0:
206,374,47930,1,8,0:2:0:0:
207,299,48198,5,8,0:2:0:0:
209,264,48287,1,8,0:2:0:0:
211,230,48376,1,8,0:2:0:0:
212,195,48466,1,8,0:2:0:0:
214,160,48555,1,6,1:2:0:0:
296,38,48733,6,0,B|295:83|295:83|314:127|314:127|311:196,1,139.999995727539,0|0,1:2|1:3,0:0:0:0:
372,268,49269,2,0,P|340:222|336:201,1,69.9999978637696,8|0,0:2|1:2,0:0:0:0:
389,79,49626,1,4,0:3:0:0:
434,210,49805,1,0,0:0:0:0:
477,129,50162,5,0,1:2:0:0:
448,236,50341,1,8,0:2:0:0:
486,348,50519,1,8,0:3:0:0:
456,325,50608,1,8,0:2:0:0:
423,334,50698,5,0,1:2:0:0:
392,319,50787,1,8,1:3:0:0:
392,319,50876,1,0,1:2:0:0:
309,210,51055,2,0,P|311:265|312:296,1,75.0000028610231,8|0,0:0|0:0,0:0:0:0:
177,179,51412,5,0,1:2:0:0:
177,179,51591,1,0,1:2:0:0:
117,341,51769,1,8,0:0:0:0:
51,215,51948,1,4,0:3:0:0:
43,255,52037,1,4,0:3:0:0:
63,275,52126,1,0,1:2:0:0:
155,186,52305,1,0,1:2:0:0:
25,98,52483,2,0,P|85:104|171:77,1,150.000005722046,8|0,0:2|0:0,0:0:0:0:
245,28,53019,1,0,1:2:0:0:
128,58,53198,1,8,0:2:0:0:
269,107,53376,1,0,0:0:0:0:
269,107,53555,1,2,1:2:0:0:
340,67,53733,1,8,0:0:0:0:
366,93,53823,1,8,0:0:0:0:
387,124,53912,2,0,P|400:153|406:173,1,37.5000014305115,8|8,0:0|0:0,0:0:0:0:
469,193,54091,2,0,P|456:221|450:241,1,37.5000014305115,8|8,0:0|0:0,0:0:0:0:
428,297,54269,5,6,1:2:0:0:
342,212,54448,1,0,1:2:0:0:
325,353,54626,1,4,0:3:0:0:
341,310,54716,1,8,0:3:0:0:
315,286,54805,1,0,1:2:0:0:
204,363,54983,1,8,0:2:0:0:
205,213,55162,2,0,P|215:270|211:304,1,75.0000028610231,8|0,3:0|1:0,0:0:0:0:
134,310,55519,2,0,P|137:263|94:169,1,150.000005722046,0|0,0:0|1:2,0:0:0:0:
30,120,56055,1,8,0:2:0:0:
150,78,56233,2,0,P|126:77|102:80,1,37.5000014305115,4|8,0:3|0:0,0:0:0:0:
213,48,56412,2,0,P|189:49|165:46,1,37.5000014305115,0|8,1:0|0:0,0:0:0:0:
161,17,56591,1,0,1:0:0:0:
271,117,56769,1,8,0:0:0:0:
271,117,56948,1,0,1:0:0:0:
342,10,57126,6,0,P|338:54|340:88,1,75.0000028610231,6|8,0:3|0:3,0:0:0:0:
416,177,57483,1,4,0:3:0:0:
417,158,57573,1,0,1:0:0:0:
414,139,57662,1,0,1:0:0:0:
460,61,57841,1,8,0:0:0:0:
500,153,58019,1,0,1:0:0:0:
500,153,58198,1,4,0:3:0:0:
358,203,58376,2,0,P|402:207|441:222,1,75.0000028610231
484,316,58733,1,0,1:2:0:0:
424,248,58912,1,10,0:0:0:0:
395,364,59091,1,0,1:0:0:0:
337,275,59269,2,0,P|339:303|338:315,3,37.5000014305115,2|0|0|0,0:0|0:0|0:0|0:0,0:0:0:0:
270,363,59626,1,8,0:0:0:0:
225,327,59716,1,8,0:0:0:0:
182,368,59805,1,8,0:0:0:0:
126,348,59894,1,8,0:0:0:0:
103,367,59983,5,6,0:3:0:0:
137,247,60162,1,8,0:3:0:0:
35,307,60341,1,4,0:3:0:0:
45,280,60430,1,0,1:0:0:0:
27,253,60519,1,0,1:0:0:0:
17,176,60698,1,8,0:0:0:0:
120,249,60876,1,0,1:0:0:0:
102,99,61055,2,0,P|99:144|102:175,1,75.0000028610231,8|0,0:0|0:0,0:0:0:0:
29,42,61591,5,0,1:0:0:0:
114,89,61769,1,8,0:0:0:0:
203,21,61948,1,4,0:3:0:0:
211,41,62037,1,8,0:0:0:0:
204,64,62126,1,0,1:0:0:0:
201,80,62216,1,0,1:0:0:0:
204,100,62305,2,0,P|265:98|304:104,1,75.0000028610231,0|8,1:0|0:0,0:0:0:0:
364,182,62662,1,4,0:3:0:0:
358,31,62841,6,0,B|360:77|360:77|378:110|378:110|380:146,1,112.500004291535,2|0,1:2|0:0,0:0:0:0:
363,212,63198,1,0,1:0:0:0:
363,212,63287,1,8,0:3:0:0:
363,212,63376,1,4,0:3:0:0:
449,306,63555,2,0,P|450:260|443:219,1,75.0000028610231,8|0,0:0|1:0,0:0:0:0:
414,139,63912,2,0,P|413:93|420:52,1,75.0000028610231,10|0,0:0|0:0,0:0:0:0:
487,7,64448,5,0,1:0:0:0:
359,5,64626,1,8,0:0:0:0:
399,85,64805,1,4,0:3:0:0:
277,46,64983,1,10,0:0:0:0:
257,78,65073,1,8,0:0:0:0:
279,121,65162,1,8,0:0:0:0:
259,168,65251,1,8,0:0:0:0:
270,185,65341,2,0,P|273:217|279:239,1,37.5000014305115,4|4,0:3|3:0,0:0:0:0:
318,279,65519,2,0,P|315:310|309:332,1,37.5000014305115,4|4,0:3|0:3,0:0:0:0:
252,352,65698,6,0,B|208:352|208:352|160:324|160:324|108:324,1,150.000005722046,6|8,1:2|0:0,0:0:0:0:
222,277,66233,1,0,1:0:0:0:
32,328,66412,1,8,0:0:0:0:
147,208,66591,1,4,0:3:0:0:
136,197,66680,1,8,0:3:0:0:
122,189,66769,1,0,1:0:0:0:
5,256,66948,2,0,P|5:200|9:175,1,75.0000028610231,2|0,0:3|0:0,0:0:0:0:
31,94,67305,1,0,1:0:0:0:
90,198,67483,1,8,0:0:0:0:
115,57,67662,2,0,P|140:59|170:59,1,37.5000014305115,0|10,1:0|0:0,0:0:0:0:
222,49,67841,1,2,1:2:0:0:
222,49,67930,1,8,0:0:0:0:
222,49,68019,1,0,1:0:0:0:
80,32,68198,1,8,0:0:0:0:
318,66,68555,6,0,P|315:113|326:191,1,112.500004291535,2|0,1:3|0:0,0:0:0:0:
344,208,68912,1,8,0:0:0:0:
405,123,69091,2,0,P|406:152|404:169,2,37.5000014305115,4|8|0,0:3|0:3|1:0,0:0:0:0:
386,18,69448,1,0,1:0:0:0:
485,129,69626,2,0,P|482:177|485:216,1,75.0000028610231,8|2,0:0|0:3,0:0:0:0:
463,314,69983,2,0,P|466:266|463:227,1,75.0000028610231,2|0,0:0|1:0,0:0:0:0:
310,333,70341,1,8,0:0:0:0:
224,186,70698,5,10,1:2:0:0:
346,297,70876,1,10,0:0:0:0:
199,100,71055,5,10,0:0:0:0:
61,204,71233,1,10,0:0:0:0:
275,125,71412,5,6,1:2:0:0:
294,119,72126,5,0,0:0:0:0:
313,113,72841,5,0,0:0:0:0:
332,107,73554,5,0,0:0:0:0:
351,101,74269,5,0,0:0:0:0:
370,95,74983,5,0,0:0:0:0:
389,89,75698,5,0,0:0:0:0:
408,83,76411,5,0,0:0:0:0:
427,77,77126,5,2,1:2:0:0:
459,225,77483,2,0,B|431:220|431:220|416:187,1,50,0|2,0:0|1:2,0:0:0:0:
470,356,77841,1,8,0:0:0:0:
312,180,78198,6,0,B|340:185|340:185|355:218,1,50,2|0,1:2|0:0,0:0:0:0:
312,180,79091,5,2,1:2:0:0:
205,76,79269,1,8,0:0:0:0:
274,30,79448,5,0,1:2:0:0:
207,213,79626,1,8,0:0:0:0:
138,167,79983,6,0,B|104:158|104:158|74:164,2,50,2|0|0,1:2|0:0|0:0,0:0:0:0:
97,243,80519,1,0,1:2:0:0:
28,78,80698,2,0,L|37:11,1,50,10|0,0:0|0:0,0:0:0:0:
78,156,81055,1,0,1:0:0:0:
159,120,81233,2,0,L|165:169,1,50,2|0,0:0|0:0,0:0:0:0:
248,70,81591,2,0,L|241:119,1,50,0|2,1:2|0:0,0:0:0:0:
364,42,81948,1,0,1:0:0:0:
252,241,82126,2,0,P|288:226|320:221,1,50,10|8,0:0|0:3,0:0:0:0:
416,238,82483,2,0,P|430:245|436:246,1,20,4|4,0:3|0:3,0:0:0:0:
498,300,82841,6,0,B|396:274|438:320|351:303,1,150,2|0,0:2|0:0,0:0:0:0:
197,171,88555,6,0,P|208:162|261:167,1,70,2|0,1:3|0:0,0:0:0:0:
174,295,91412,6,0,P|236:284|282:280,2,100
110,344,92483,1,0,0:0:0:0:
110,344,92662,2,0,L|90:278,1,50
86,272,93198,1,2,0:0:0:0:
125,206,93555,1,2,0:0:0:0:
218,151,93912,1,2,0:0:0:0:
353,156,94269,1,6,1:2:0:0:
512,321,94448,6,0,B|510:277|510:277|493:243|493:243|489:188,1,125,0|2,1:0|1:2,0:0:0:0:
461,71,94983,1,8,0:0:0:0:
400,247,95162,1,0,1:0:0:0:
385,109,95341,2,0,P|363:142|357:167,1,62.5,0|0,0:0|1:0,0:0:0:0:
435,315,95698,1,8,0:0:0:0:
242,190,96055,5,0,1:0:0:0:
309,47,96233,1,8,0:0:0:0:
239,171,96412,1,0,1:0:0:0:
239,171,96591,1,2,1:2:0:0:
130,48,96769,1,8,0:0:0:0:
66,346,97126,5,4,0:0:0:0:
66,346,97305,2,0,P|93:302|83:226,1,125,0|0,1:0|1:0,0:0:0:0:
158,93,97841,1,8,0:2:0:0:
35,168,98019,1,0,1:2:0:0:
352,234,98376,1,0,1:2:0:0:
352,234,98555,1,0,0:0:0:0:
254,152,98733,1,0,1:2:0:0:
405,102,98912,1,8,0:0:0:0:
265,238,99091,1,0,1:0:0:0:
456,191,99269,1,10,0:0:0:0:
456,191,99448,5,8,1:2:0:0:
469,219,99537,1,8,0:0:0:0:
478,249,99626,1,10,0:0:0:0:
481,280,99716,1,8,0:0:0:0:
479,311,99805,1,8,0:0:0:0:
471,341,99894,1,8,0:0:0:0:
458,370,99983,1,6,1:2:0:0:
377,257,100162,1,0,1:2:0:0:
184,373,100519,5,2,1:2:0:0:
232,231,100698,2,0,P|243:279|241:319,1,62.5,8|0,0:2|1:2,0:0:0:0:
173,159,101233,5,0,1:2:0:0:
47,81,101412,1,8,0:0:0:0:
136,232,101591,1,0,1:0:0:0:
136,232,101769,1,0,1:0:0:0:
132,52,101948,1,8,0:2:0:0:
48,242,102126,1,0,1:0:0:0:
48,242,102305,1,0,1:2:0:0:
194,373,102483,1,10,0:2:0:0:
268,222,102841,6,0,P|294:192|305:165,1,62.5,4|0,1:2|0:0,0:0:0:0:
364,70,103198,1,0,1:0:0:0:
395,194,103376,1,0,1:0:0:0:
276,37,103555,1,8,0:0:0:0:
449,28,103733,1,0,1:0:0:0:
449,28,103912,1,0,1:0:0:0:
470,104,104269,5,8,0:2:0:0:
470,104,104448,2,0,P|474:135|473:152,2,31.25,8|8|10,0:2|0:2|0:2,0:0:0:0:
436,204,104805,2,0,P|432:235|433:252,2,31.25,8|8|2,0:2|0:2|1:2,0:0:0:0:
482,299,105162,1,8,0:0:0:0:
485,320,105251,1,8,0:0:0:0:
484,342,105341,1,10,0:0:0:0:
376,330,105519,2,0,P|360:325|336:322,1,31.25,8|8,0:0|0:0,0:0:0:0:
270,311,105698,6,0,B|229:306|229:306|193:329|193:329|142:321,1,125,6|0,1:2|0:0,0:0:0:0:
114,193,106233,1,2,1:2:0:0:
94,383,106412,1,8,0:0:0:0:
39,268,106591,1,0,1:0:0:0:
159,85,106948,5,0,1:0:0:0:
204,243,107126,1,8,0:0:0:0:
310,30,107483,6,0,P|271:29|233:35,1,62.5,0|8,1:0|0:0,0:0:0:0:
196,165,107841,1,0,1:0:0:0:
196,165,108019,1,0,1:0:0:0:
341,98,108198,1,10,0:0:0:0:
382,303,108555,1,4,0:0:0:0:
382,303,108733,2,0,P|403:264|488:229,1,125,0|0,1:0|1:0,0:0:0:0:
331,164,109269,1,8,0:2:0:0:
344,307,109448,1,0,1:2:0:0:
344,307,109626,2,0,P|328:339|318:369,1,62.5,2|0,0:2|1:2,0:0:0:0:
208,328,109983,1,0,0:0:0:0:
146,164,110341,5,10,0:2:0:0:
113,293,110519,1,0,1:2:0:0:
134,183,110698,1,8,0:2:0:0:
15,136,110876,1,8,0:2:0:0:
53,125,110966,1,8,0:2:0:0:
49,82,111055,1,10,1:2:0:0:
83,71,111144,1,8,0:2:0:0:
92,38,111233,2,0,P|115:37|129:39,1,31.25,8|8,0:2|0:2,0:0:0:0:
207,96,111412,6,0,P|266:106|339:97,1,125,6|0,1:2|0:0,0:0:0:0:
366,5,111948,2,0,P|357:56|357:89,1,62.5,2|8,1:2|0:2,0:0:0:0:
383,202,112305,1,0,1:0:0:0:
448,58,112483,2,0,P|455:111|454:126,1,62.5,2|0,0:0|1:0,0:0:0:0:
370,249,112841,1,8,0:0:0:0:
501,301,113019,5,0,1:0:0:0:
501,301,113198,1,2,1:2:0:0:
383,202,113376,1,8,0:2:0:0:
323,344,113555,1,2,1:2:0:0:
403,353,113733,1,0,1:2:0:0:
299,369,113912,2,0,P|296:331|288:305,1,62.5,10|0,0:2|0:0,0:0:0:0:
211,164,114269,5,6,1:2:0:0:
80,347,114626,1,0,1:0:0:0:
105,224,114805,1,2,1:2:0:0:
178,361,114983,2,0,P|139:345|104:345,1,62.5,8|0,0:0|0:0,0:0:0:0:
9,253,115341,1,2,1:2:0:0:
69,61,115698,5,10,0:2:0:0:
69,61,115876,2,0,L|70:96,2,31.25,8|8|8,0:2|0:2|0:2,0:0:0:0:
167,116,116233,2,0,L|166:151,2,31.25,8|8|8,0:2|0:2|0:2,0:0:0:0:
250,39,116591,2,0,L|249:4,2,31.25,8|8|8,0:2|0:2|0:2,0:0:0:0:
319,142,116948,2,0,L|318:177,1,31.25,8|8,0:2|0:2,0:0:0:0:
316,246,117126,1,6,1:2:0:0:
315,265,117305,6,0,P|303:302|207:294,1,150,2|0,0:0|0:0,0:0:0:0:
200,285,120698,1,2,0:3:0:0:
193,247,121412,1,2,0:3:0:0:
214,159,121769,1,2,0:3:0:0:
316,100,121948,1,2,0:0:0:0:
316,100,122037,1,0,0:1:0:0:
316,100,122126,6,0,P|266:98|218:66,1,104.999996795654,2|0,1:3|0:0,0:0:0:0:
26,267,122841,6,0,B|73:249|73:249|122:253,1,85.0000016212464,14|0,1:2|0:0,0:0:0:0:
167,354,123108,2,0,B|132:356|132:356|85:338,1,85.0000016212464,14|0,1:2|0:0,0:0:0:0:
136,268,123376,1,0,1:0:0:0:
275,347,123555,1,8,0:0:0:0:
306,349,123644,1,8,0:0:0:0:
337,342,123733,1,8,0:0:0:0:
365,326,123823,1,8,0:0:0:0:
387,303,123912,2,0,P|381:337|385:355,1,42.5000008106232,8|8,0:0|0:0,0:0:0:0:
293,206,124091,2,0,P|298:226|298:248,1,42.5000008106232,8|8,0:0|0:0,0:0:0:0:
498,239,124269,6,0,B|464:211|464:211|451:166,1,85.0000016212464,14|0,1:2|0:0,0:0:0:0:
405,82,124537,2,0,B|371:110|371:110|359:149,1,85.0000016212464,14|0,1:2|0:0,0:0:0:0:
386,227,124805,1,0,1:0:0:0:
273,128,124983,1,8,0:0:0:0:
241,128,125073,1,8,0:0:0:0:
209,133,125162,1,8,0:0:0:0:
179,144,125251,1,8,0:0:0:0:
151,159,125341,1,8,0:0:0:0:
76,78,125519,1,8,0:0:0:0:
76,78,125608,1,8,0:0:0:0:
76,78,125698,6,0,B|75:120|75:120|42:160,1,85.0000016212464,14|0,1:2|0:0,0:0:0:0:
179,144,125966,2,0,B|151:110|151:110|150:68,1,85.0000016212464,14|0,1:2|0:0,0:0:0:0:
110,187,126233,1,0,1:0:0:0:
236,76,126412,2,0,L|298:89,1,42.5000008106232,8|8,0:0|0:0,0:0:0:0:
188,230,126591,2,0,L|250:217,1,42.5000008106232,8|8,0:0|0:0,0:0:0:0:
311,176,126769,1,8,0:0:0:0:
341,186,126858,1,8,0:0:0:0:
366,205,126948,1,8,0:0:0:0:
392,224,127037,1,8,0:0:0:0:
421,235,127126,5,14,1:2:0:0:
340,53,127394,1,14,1:2:0:0:
229,221,127662,1,0,1:0:0:0:
334,162,127841,1,8,0:0:0:0:
223,103,128019,1,8,0:0:0:0:
223,103,128108,1,8,0:0:0:0:
223,103,128198,2,0,L|121:118,1,85.0000016212464,8|8,0:0|0:0,0:0:0:0:
138,115,128466,1,8,0:0:0:0:
138,115,128555,6,0,B|107:80|107:80|126:134|117:216|86:274|46:278|11:260|8:211|7:173|46:156|103:164,1,400,14|2,1:2|0:3,0:0:0:0:
114,178,132841,1,2,0:3:0:0:
135,249,133198,1,2,0:3:0:0:
84,351,133466,1,2,0:2:0:0:
84,351,133555,6,0,P|98:328|194:300,1,120,2|0,0:1|0:0,0:0:0:0:
314,71,134269,6,0,B|339:109|339:109|394:130,1,85.0000016212464,14|0,1:2|0:0,0:0:0:0:
412,217,134537,2,0,B|448:202|448:202|473:164,1,85.0000016212464,14|0,1:2|0:0,0:0:0:0:
325,192,134805,1,0,1:0:0:0:
411,43,134983,1,8,0:0:0:0:
411,43,135073,1,8,0:0:0:0:
411,43,135162,1,8,0:0:0:0:
411,43,135251,1,8,0:0:0:0:
411,43,135341,2,0,L|471:33,1,42.5000008106232,8|0,0:0|0:0,0:0:0:0:
314,71,135519,2,0,L|254:61,1,42.5000008106232,8|8,0:0|0:0,0:0:0:0:
166,76,135698,6,0,B|202:132|202:132|202:157,1,85.0000016212464,14|0,1:2|0:0,0:0:0:0:
75,87,135966,2,0,B|75:68|75:68|111:12,1,85.0000016212464,14|0,1:2|0:0,0:0:0:0:
119,156,136233,1,0,1:0:0:0:
243,228,136412,1,8,0:0:0:0:
212,235,136501,1,8,0:0:0:0:
181,244,136591,1,8,0:0:0:0:
151,254,136680,1,8,0:0:0:0:
121,266,136769,1,8,0:0:0:0:
212,365,136948,1,8,0:0:0:0:
212,365,137037,1,8,0:0:0:0:
212,365,137126,6,0,B|240:323|240:323|266:306|293:306,1,85.0000016212464,14|0,1:2|0:0,0:0:0:0:
395,306,137394,2,0,B|389:308|363:291|363:291|335:249,1,85.0000016212464,14|0,1:2|0:0,0:0:0:0:
433,225,137662,1,0,1:0:0:0:
325,104,137841,1,8,0:0:0:0:
325,104,137930,1,8,0:0:0:0:
325,104,138019,2,0,L|288:130,1,42.5000008106232,8|8,0:0|0:0,0:0:0:0:
389,17,138198,2,0,L|423:41,1,42.5000008106232,8|0,0:0|0:0,0:0:0:0:
252,32,138376,1,8,0:0:0:0:
252,32,138466,1,8,0:0:0:0:
252,32,138555,5,14,1:2:0:0:
422,141,138823,1,14,1:2:0:0:
331,90,139091,1,0,1:0:0:0:
223,263,139269,2,0,B|187:283|187:283|127:266,1,85.0000016212464,8|8,0:0|0:0,0:0:0:0:
170,148,139626,2,0,L|175:212,2,42.5000008106232,8|4|8,0:0|0:3|0:0,0:0:0:0:
173,190,139983,6,0,P|126:169|87:170,1,64.9999970245363,14|0,1:2|0:0,0:0:0:0:
28,144,140251,2,0,P|51:110|92:86,1,75.0000028610231,14|0,1:2|0:0,0:0:0:0:
113,167,140519,1,0,1:0:0:0:
258,94,140698,1,8,0:0:0:0:
255,125,140787,1,8,0:0:0:0:
255,157,140876,1,8,0:0:0:0:
259,189,140966,1,8,0:0:0:0:
266,220,141055,2,0,P|283:180|298:166,1,42.5000008106232,8|0,0:0|0:0,0:0:0:0:
170,295,141233,2,0,P|180:313|185:333,1,42.5000008106232,8|8,0:0|0:0,0:0:0:0:
356,300,141412,6,0,L|264:310,1,85.0000016212464,14|0,1:2|0:0,0:0:0:0:
405,236,141680,2,0,L|497:246,1,85.0000016212464,14|0,1:2|0:0,0:0:0:0:
355,171,141948,1,0,1:0:0:0:
512,165,142126,1,8,0:0:0:0:
506,133,142216,1,8,0:0:0:0:
497,103,142305,1,8,0:0:0:0:
485,73,142394,1,8,0:0:0:0:
470,45,142483,1,8,0:0:0:0:
346,136,142662,1,8,0:0:0:0:
346,136,142751,1,8,0:0:0:0:
346,136,142841,6,0,B|379:110|379:110|428:119,1,85.0000016212464,14|0,1:2|0:0,0:0:0:0:
279,85,143108,2,0,B|236:92|236:92|203:66,1,85.0000016212464,14|0,1:2|0:0,0:0:0:0:
257,5,143376,1,0,1:0:0:0:
201,170,143555,1,8,0:0:0:0:
184,200,143644,1,8,0:0:0:0:
207,225,143733,1,8,0:0:0:0:
199,260,143823,1,8,0:0:0:0:
214,286,143912,2,8,L|206:332,1,42.5000008106232
104,241,144091,1,8,0:0:0:0:
109,230,144180,1,8,0:0:0:0:
114,221,144269,6,0,B|74:255|74:255|10:235,1,85.0000016212464,14|0,1:2|0:0,0:0:0:0:
34,78,144537,2,0,L|59:165,1,85.0000016212464,14|0,1:2|0:0,0:0:0:0:
109,50,144805,1,0,1:0:0:0:
223,195,144983,1,8,0:0:0:0:
326,101,145162,1,0,1:0:0:0:
394,157,145341,2,0,P|416:99|410:65,1,75,8|0,0:0|0:0,0:0:0:0:
443,145,145698,6,0,B|428:250|451:205|442:316,1,170.000003242493,4|2,1:2|0:0,0:0:0:0:
331,357,146233,1,0,1:0:0:0:
242,253,146412,2,0,P|259:313|260:356,1,85.0000016212464,8|2,0:0|0:0,0:0:0:0:
350,270,146769,5,2,0:0:0:0:
350,270,146948,1,0,1:0:0:0:
199,174,147126,1,8,0:0:0:0:
278,142,147305,1,2,1:2:0:0:
294,136,147662,5,0,1:2:0:0:
159,150,147841,1,8,0:2:0:0:
132,141,148198,5,2,1:2:0:0:
304,48,148376,1,8,0:2:0:0:
152,38,148555,2,0,P|103:40|28:135,1,170.000003242493,0|2,1:2|1:2,0:0:0:0:
64,275,149091,2,0,P|65:214|62:184,1,85.0000016212464,0|8,1:2|0:2,0:0:0:0:
124,367,149626,5,0,1:0:0:0:
168,248,149805,1,0,1:0:0:0:
256,314,149983,2,0,P|261:242|259:218,1,85.0000016212464,8|2,0:0|1:2,0:0:0:0:
239,94,150519,5,0,1:0:0:0:
332,214,150698,1,8,0:0:0:0:
399,3,151055,1,2,1:2:0:0:
444,202,151412,6,0,B|439:144|439:144|409:101|409:101|406:36,1,170.000003242493,4|2,1:2|0:0,0:0:0:0:
502,73,151948,1,0,1:0:0:0:
338,195,152126,2,0,P|393:190|424:173,1,85.0000016212464,8|2,0:0|0:0,0:0:0:0:
270,136,152483,5,0,1:0:0:0:
270,136,152662,1,0,1:0:0:0:
348,282,152841,2,0,P|345:331|350:370,1,85.0000016212464,8|2,0:0|1:2,0:0:0:0:
165,234,153376,6,0,P|168:185|163:146,1,85.0000016212464,0|8,1:2|0:2,0:0:0:0:
271,342,153912,5,2,1:2:0:0:
140,261,154091,1,8,0:2:0:0:
292,113,154269,6,0,B|236:110|236:110|191:77|191:77|124:70,1,170.000003242493,0|2,1:2|1:2,0:0:0:0:
43,264,154805,1,0,1:2:0:0:
109,166,154983,1,8,0:2:0:0:
188,336,155341,6,0,P|126:344|78:337,1,85.0000016212464,0|0,1:0|1:0,0:0:0:0:
263,318,155698,1,8,0:0:0:0:
388,367,155876,1,2,1:2:0:0:
350,107,156233,6,0,P|358:169|351:217,1,85.0000016212464,0|8,1:0|0:0,0:0:0:0:
425,68,156769,2,0,B|451:82|471:55|466:21|428:5|377:51|317:22,1,187.5,2|0,1:2|0:0,0:0:0:0:
248,0,157126,6,0,B|258:107|233:66|245:173,1,170.000003242493,4|2,1:2|0:0,0:0:0:0:
288,260,157662,1,0,1:0:0:0:
151,123,157841,1,8,0:0:0:0:
140,352,158198,5,2,0:0:0:0:
137,220,158376,1,0,1:0:0:0:
250,358,158555,2,0,P|193:339|146:339,1,85.0000016212464,8|2,0:0|1:2,0:0:0:0:
355,173,159091,5,0,1:2:0:0:
339,360,159269,1,8,0:2:0:0:
368,137,159626,2,0,P|388:203|311:176,1,187.5,2|0,1:2|0:0,0:0:0:0:
290,106,159983,6,0,P|258:65|178:74,1,127.50000243187,0|0,1:2|0:0,0:0:0:0:
196,219,160341,2,0,P|217:164|222:132,1,85.0000016212464,2|0,1:2|1:2,0:0:0:0:
161,294,160698,1,8,0:2:0:0:
314,246,161055,6,0,P|315:328|312:353,1,85.0000016212464,0|0,1:0|1:0,0:0:0:0:
130,300,161412,2,0,P|129:382|132:407,1,85.0000016212464,8|2,0:0|1:2,0:0:0:0:
53,158,161948,5,0,1:0:0:0:
228,281,162126,1,8,0:0:0:0:
264,10,162483,5,2,1:2:0:0:
132,125,162662,1,0,1:0:0:0:
148,28,162841,6,0,B|191:52|191:52|222:110,1,85.0000016212464,4|0,1:2|0:0,0:0:0:0:
177,210,163198,1,2,1:2:0:0:
132,125,163376,1,0,1:0:0:0:
103,283,163555,1,8,0:0:0:0:
320,214,163912,5,2,1:2:0:0:
400,246,164091,1,0,1:0:0:0:
252,267,164269,1,8,0:0:0:0:
332,299,164448,1,2,1:2:0:0:
320,214,164626,2,0,B|306:171|306:171|278:137,1,85.0000016212464,2|0,0:2|1:2,0:0:0:0:
122,193,164983,2,0,L|211:192,1,85.0000016212464,8|2,0:2|0:2,0:0:0:0:
222,68,165341,2,0,B|263:51|263:51|303:54,1,85.0000016212464,2|0,1:2|0:0,0:0:0:0:
492,238,165698,5,10,1:2:0:0:
280,140,165966,1,8,0:0:0:0:
264,363,166233,1,8,0:0:0:0:
341,242,166412,1,8,0:2:0:0:
20,146,166769,5,10,1:2:0:0:
232,244,167037,1,8,0:0:0:0:
232,244,167126,1,0,1:0:0:0:
248,21,167305,1,8,0:2:0:0:
171,142,167483,1,10,0:2:0:0:
337,325,167841,6,0,P|334:272|320:248,1,75,10|0,0:0|0:0,0:0:0:0:
257,195,168198,2,0,P|242:229|301:254,1,97.4999955368044,2|0,1:2|0:0,0:0:0:0:
300,133,168555,6,0,B|242:106|228:138|178:114,1,120,6|0,1:2|1:2,0:0:0:0:
7,56,169269,2,0,L|0:17,1,40,8|0,0:2|1:2,0:0:0:0:
79,87,169626,2,0,L|69:141,1,40,2|0,0:2|0:0,0:0:0:0:
43,198,169983,2,0,P|30:176|96:159,1,120,2|0,1:2|1:2,0:0:0:0:
114,229,170698,1,0,1:2:0:0:
210,187,170876,1,8,0:2:0:0:
279,218,171055,1,2,1:2:0:0:
183,260,171233,1,10,0:2:0:0:
400,363,171412,6,0,B|451:342|436:271|494:233,1,160,4|0,1:2|0:0,0:0:0:0:
470,308,171948,1,0,1:2:0:0:
380,246,172126,1,8,0:2:0:0:
323,203,172305,2,0,L|330:132,1,59.9999981689454,0|0,1:2|0:0,0:0:0:0:
265,290,172841,2,0,L|242:216,1,59.9999981689454,0|0,1:2|0:0,0:0:0:0:
213,152,173198,1,2,0:2:0:0:
157,264,173376,1,0,1:2:0:0:
89,118,173555,5,10,0:2:0:0:
290,104,173733,1,8,0:2:0:0:
290,104,173823,1,8,0:2:0:0:
290,104,173912,1,2,1:2:0:0:
187,114,174091,1,8,0:2:0:0:
267,212,174269,6,0,B|299:229|340:218|324:200|396:184|450:232,1,179.999994506836,2|0,1:2|1:2,0:0:0:0:
376,289,174983,1,2,1:2:0:0:
399,85,175162,1,8,0:0:0:0:
389,186,175341,1,10,0:0:0:0:
204,16,175519,1,8,0:0:0:0:
279,104,175698,5,2,1:2:0:0:
279,104,176055,2,0,P|234:112|213:124,1,59.9999981689454,2|0,0:2|1:2,0:0:0:0:
20,179,176412,2,0,P|54:208|69:233,1,59.9999981689454,10|0,0:2|1:2,0:0:0:0:
164,261,176769,2,0,L|155:178,1,59.9999981689454,0|2,0:0|1:2,0:0:0:0:
389,336,177126,6,0,B|337:326|337:326|310:339|310:339|250:302,1,139.999995727539,4|0,1:2|0:0,0:0:0:0:
313,248,177662,1,0,1:2:0:0:
181,373,177841,1,8,0:2:0:0:
118,329,178019,1,0,1:2:0:0:
230,234,178376,1,8,0:2:0:0:
293,190,178555,5,4,1:3:0:0:
302,188,178823,1,4,1:3:0:0:
313,184,179091,1,4,1:3:0:0:
331,339,179269,2,0,B|301:306|301:306|296:257,1,69.9999978637696,10|0,0:2|1:2,0:0:0:0:
346,54,179626,2,0,B|376:87|376:87|378:112,1,69.9999978637696,10|0,0:2|0:0,0:0:0:0:
129,68,179983,6,0,P|186:66|214:71,1,69.9999978637696,6|8,1:2|0:2,0:0:0:0:
198,67,180341,1,0,0:0:0:0:
159,135,180519,1,2,1:2:0:0:
84,16,180698,1,8,0:0:0:0:
165,149,180876,1,0,1:2:0:0:
230,85,181055,1,2,1:2:0:0:
152,237,181233,1,8,0:2:0:0:
218,289,181412,6,0,L|297:284,1,69.9999978637696,0|0,1:2|1:2,0:0:0:0:
287,284,181769,1,2,0:0:0:0:
263,365,181948,1,0,1:2:0:0:
326,213,182126,1,8,0:2:0:0:
420,340,182305,1,2,1:2:0:0:
284,363,182483,1,10,0:0:0:0:
434,200,182662,1,0,1:0:0:0:
344,33,182841,6,0,P|341:91|349:133,1,69.9999978637696,6|0,1:2|0:0,0:0:0:0:
359,177,183198,1,8,0:0:0:0:
255,96,183376,1,2,1:2:0:0:
178,201,183555,1,8,0:0:0:0:
230,121,183733,1,0,1:0:0:0:
92,136,183912,1,10,0:0:0:0:
92,136,184091,1,0,0:0:0:0:
170,317,184269,6,0,P|175:260|170:229,1,69.9999978637696,0|0,1:0|1:0,0:0:0:0:
263,364,184626,1,8,0:0:0:0:
405,355,184805,1,8,0:0:0:0:
371,351,184894,1,8,0:0:0:0:
342,374,184983,2,0,P|359:325|346:233,1,139.999995727539,2|8,1:2|0:0,0:0:0:0:
310,172,185519,1,0,1:2:0:0:
388,73,185698,6,0,P|385:121|389:173,1,87.499997329712,6|0,1:2|0:0,0:0:0:0:
466,135,186233,2,0,P|469:87|465:35,1,87.499997329712,2|0,0:2|0:0,0:0:0:0:
409,0,186769,2,0,B|293:5|358:27|233:35,1,174.999994659424,2|0,0:2|0:0,0:0:0:0:
198,177,187841,2,0,P|201:149|197:99,1,69.9999978637696,2|0,0:2|0:0,0:0:0:0:
64,247,188555,6,0,P|83:277|140:296,1,87.499997329712,2|0,0:2|0:0,0:0:0:0:
201,266,189091,2,0,P|248:261|288:268,1,87.499997329712,2|0,0:2|0:0,0:0:0:0:
346,317,189626,2,0,P|380:323|416:318,1,69.9999978637696,2|0,0:2|0:0,0:0:0:0:
473,86,190698,6,0,P|475:143|475:157,2,69.9999978637696,2|2|2,0:2|0:2|0:0,0:0:0:0:
351,61,205787,5,2,0:2:0:0:
351,61,205876,5,6,1:2:0:0:
169,151,206055,2,0,P|141:187|145:246,1,89.9999972534181,0|2,1:2|0:2,0:0:0:0:
292,338,206412,1,8,0:2:0:0:
356,299,206591,1,0,1:2:0:0:
138,229,206948,2,0,L|35:241,1,89.9999972534181,0|0,1:0|0:0,0:0:0:0:
206,297,207305,2,0,P|229:258|223:200,1,89.9999972534181,0|0,1:2|0:2,0:2:0:0:
358,136,207662,1,0,1:0:0:0:
496,249,207841,2,0,P|452:237|400:232,1,89.9999972534181,8|0,0:2|1:2,0:0:0:0:
302,69,208198,2,0,L|301:216,1,134.999995880127,2|0,0:2|0:0,0:0:0:0:
301,203,208555,5,6,1:2:0:0:
158,104,208733,2,0,P|178:53|182:7,1,89.9999972534181,0|0,1:2|0:0,0:0:0:0:
200,249,209091,1,2,1:2:0:0:
205,172,209269,2,0,P|225:223|229:269,1,89.9999972534181,8|0,0:2|1:2,0:0:0:0:
75,339,209626,1,2,0:2:0:0:
86,300,209805,1,0,1:2:0:0:
117,277,209983,6,0,P|145:320|159:360,1,89.9999972534181,0|0,0:0|1:2,0:0:0:0:
307,206,210341,2,0,B|346:175|346:175|426:164,1,89.9999972534181,8|0,0:2|1:2,0:0:0:0:
137,189,210698,1,8,0:2:0:0:
16,80,210876,1,8,0:2:0:0:
46,106,210966,1,8,0:2:0:0:
87,101,211055,1,10,0:2:0:0:
116,85,211144,1,8,0:2:0:0:
149,80,211233,1,8,0:2:0:0:
182,86,211323,1,8,0:2:0:0:
211,102,211412,6,0,P|277:135|376:66,1,179.999994506836,12|0,1:2|0:0,0:0:0:0:
312,217,211948,1,2,1:2:0:0:
281,43,212126,1,8,0:2:0:0:
296,134,212305,1,0,1:2:0:0:
312,217,212483,2,0,P|297:246|247:276,1,89.9999972534181,2|0,0:2|1:2,0:0:0:0:
26,160,212841,2,0,L|10:49,1,89.9999972534181,8|0,0:2|1:2,0:0:0:0:
184,176,213198,1,2,1:2:0:0:
101,213,213376,2,0,L|88:302,1,89.9999972534181,8|0,0:2|1:2,0:0:0:0:
101,213,213733,1,0,1:2:0:0:
112,120,213912,2,0,B|199:130|174:172|266:192,1,134.999995880127,10|0,0:2|0:0,0:0:0:0:
307,152,214269,6,0,L|284:54,1,89.9999972534181,4|0,1:2|1:2,0:0:0:0:
343,267,214626,2,0,P|412:193|434:184,1,89.9999972534181,2|0,0:2|1:2,0:0:0:0:
193,362,214983,1,8,0:2:0:0:
272,377,215162,1,0,1:2:0:0:
193,362,215341,2,0,P|178:312|151:272,1,89.9999972534181,0|0,0:0|1:2,0:0:0:0:
332,227,215698,2,0,L|218:219,1,89.9999972534181,0|0,0:0|1:2,0:0:0:0:
373,40,216055,6,0,B|359:86|359:86|374:150,1,89.9999972534181,2|0,0:2|1:2,0:0:0:0:
155,34,216412,1,8,0:2:0:0:
269,49,216591,1,8,0:2:0:0:
254,91,216680,1,8,0:2:0:0:
226,126,216769,1,8,0:2:0:0:
188,150,216858,1,8,0:2:0:0:
158,183,216948,1,8,0:2:0:0:
142,225,217037,1,8,0:2:0:0:
142,225,217126,5,6,1:2:0:0:
52,98,217305,2,0,P|47:167|29:210,1,89.9999972534181,0|0,1:2|0:0,0:0:0:0:
64,263,217662,1,2,0:2:0:0:
242,220,217841,2,0,B|346:221|302:276|418:285,2,179.999994506836,8|2|0,0:2|0:2|0:0,0:0:0:0:
170,272,218733,5,0,1:2:0:0:
94,233,218912,2,0,P|72:184|48:152,1,89.9999972534181,0|0,0:0|1:2,0:0:0:0:
246,57,219269,1,8,0:2:0:0:
173,101,219448,1,0,1:2:0:0:
173,101,219626,2,0,P|221:146|268:153,1,89.9999972534181,2|0,0:2|0:2,0:0:0:0:
418,367,219983,6,0,P|428:269|521:236,1,179.999994506836,6|0,1:2|0:0,0:0:0:0:
395,282,220519,1,2,1:2:0:0:
204,257,220698,1,8,0:2:0:0:
85,128,220876,2,0,P|106:208|109:244,1,89.9999972534181,0|2,1:2|0:2,0:0:0:0:
185,335,221233,1,0,1:0:0:0:
186,256,221412,2,0,P|194:211|207:168,1,89.9999972534181,0|0,0:0|1:0,0:0:0:0:
383,57,221769,6,0,P|349:121|378:210,1,134.999995880127,8|0,0:0|0:0,0:0:0:0:
357,180,222126,1,8,0:0:0:0:
455,200,222305,1,8,0:0:0:0:
458,244,222394,1,8,0:0:0:0:
444,287,222483,1,8,0:0:0:0:
415,321,222573,1,8,0:0:0:0:
375,341,222662,1,8,0:0:0:0:
330,344,222751,1,8,0:0:0:0:
291,324,222841,6,0,B|208:289|195:359|95:331,1,179.999994506836,4|0,1:2|0:0,0:0:0:0:
68,254,223376,1,2,1:2:0:0:
168,56,223555,2,0,P|121:140|114:178,1,134.999995880127,8|0,0:2|0:0,0:0:0:0:
114,177,223912,2,0,P|153:219|163:265,1,89.9999972534181,2|0,1:2|1:2,0:0:0:0:
428,158,224269,5,8,0:2:0:0:
352,127,224448,1,0,1:2:0:0:
279,162,224626,1,0,1:2:0:0:
473,352,224805,5,8,0:2:0:0:
431,281,224983,1,0,1:2:0:0:
358,243,225162,1,0,1:2:0:0:
93,345,225341,5,8,0:2:0:0:
217,57,225698,5,4,1:2:0:0:
53,190,225876,1,0,1:2:0:0:
229,216,226055,2,0,P|153:158|122:148,1,89.9999972534181,2|0,0:2|1:2,0:0:0:0:
382,71,226412,2,0,P|343:94|312:126,1,89.9999972534181,8|0,0:0|1:0,0:0:0:0:
321,321,226769,2,0,L|332:194,1,89.9999972534181,2|0,0:0|1:0,0:0:0:0:
133,351,227126,5,10,1:2:0:0:
52,231,227305,1,8,0:2:0:0:
60,186,227394,1,8,0:2:0:0:
68,142,227483,1,8,0:2:0:0:
68,142,227573,5,8,0:2:0:0:
102,172,227662,1,8,0:2:0:0:
144,187,227751,1,8,0:2:0:0:
188,181,227841,1,10,0:2:0:0:
231,168,227930,1,8,0:2:0:0:
275,172,228019,1,8,0:2:0:0:
315,193,228108,1,8,0:2:0:0:
315,193,228198,6,0,P|260:225|250:277,1,89.9999972534181,2|0,1:2|0:0,0:0:0:0:
334,359,228466,1,8,0:0:0:0:
334,359,228555,6,0,B|326:269|326:269|426:221,1,179.999994506836,6|0,1:2|0:0,0:0:0:0:
476,27,229091,1,2,1:2:0:0:
437,212,229269,1,8,0:2:0:0:
365,50,229626,5,2,0:2:0:0:
365,50,229805,1,0,1:2:0:0:
439,109,229983,1,8,0:2:0:0:
252,163,230162,1,0,1:2:0:0:
320,188,230341,1,0,1:2:0:0:
128,96,230519,1,8,0:2:0:0:
157,237,230698,1,0,1:2:0:0:
85,182,230876,1,2,1:2:0:0:
255,278,231055,2,0,P|189:268|137:273,1,89.9999972534181,10|0,0:2|0:0,0:0:0:0:
301,349,231412,6,0,P|376:339|485:360,1,179.999994506836,6|0,1:2|1:2,0:0:0:0:
477,185,231948,1,0,1:2:0:0:
296,259,232126,1,10,0:2:0:0:
395,153,232483,5,2,1:2:0:0:
429,243,232662,1,0,0:0:0:0:
311,86,232841,1,0,1:2:0:0:
463,14,233019,5,8,0:2:0:0:
454,57,233108,1,8,0:2:0:0:
461,101,233198,1,0,1:2:0:0:
340,45,233376,5,8,0:3:0:0:
295,40,233466,1,8,0:3:0:0:
250,41,233555,2,0,P|284:78|292:77,1,44.999998626709,8|8,0:3|0:3,0:0:0:0:
242,146,233733,1,4,0:3:0:0:
219,132,233823,1,4,0:3:0:0:
195,137,233912,2,0,P|185:127|168:92,1,44.999998626709,4|4,0:3|0:3,0:0:0:0:
178,238,234091,1,4,0:3:0:0:
178,238,234180,1,4,0:3:0:0:
170,212,234269,6,0,P|112:213|59:204,2,89.9999972534181,6|0|0,1:2|1:0|0:0,0:0:0:0:
335,195,234805,1,2,1:2:0:0:
167,320,234983,1,8,0:2:0:0:
364,281,235341,5,2,0:2:0:0:
273,240,235519,1,0,1:2:0:0:
493,247,235698,1,8,0:2:0:0:
448,107,235876,1,0,1:2:0:0:
509,157,236055,1,2,1:2:0:0:
328,72,236233,1,10,0:2:0:0:
421,14,236412,1,0,1:2:0:0:
421,14,236591,1,0,1:2:0:0:
286,218,236769,1,10,0:2:0:0:
208,65,237126,6,0,P|218:123|169:272,1,179.999994506836,4|2,1:2|0:2,0:0:0:0:
131,318,237662,1,0,1:2:0:0:
63,176,237841,1,8,0:2:0:0:
101,349,238019,1,0,1:2:0:0:
289,282,238198,1,8,0:2:0:0:
146,138,238376,1,8,0:2:0:0:
63,176,238555,2,0,P|57:220|60:265,2,89.9999972534181,4|0|2,1:2|0:0|1:2,0:0:0:0:
146,138,239091,1,0,1:0:0:0:
196,66,239269,2,0,B|84:72|132:28|10:33,1,179.999994506836,10|6,0:0|1:2,0:0:0:0:
374,110,239983,6,0,P|308:109|344:30,1,179.999994506836,6|0,1:2|0:0,0:0:0:0:
448,133,240519,1,2,1:2:0:0:
260,172,240698,1,8,0:0:0:0:
317,221,240876,1,0,1:0:0:0:
317,221,241233,5,0,1:0:0:0:
113,290,241412,1,8,0:0:0:0:
359,309,241769,5,0,1:0:0:0:
233,211,241948,1,8,0:0:0:0:
397,244,242126,1,2,1:2:0:0:
397,244,242305,1,0,1:2:0:0:
57,249,242483,2,0,P|116:252|154:243,1,89.9999972534181,10|0,0:2|0:2,0:0:0:0:
42,69,242841,6,0,P|46:130|43:177,1,89.9999972534181,6|0,1:2|1:2,0:0:0:0:
108,281,243198,2,0,P|104:342|107:389,1,89.9999972534181,2|0,0:2|1:0,0:0:0:0:
0,304,243555,1,10,0:0:0:0:
143,132,243733,1,0,1:0:0:0:
143,132,243912,2,0,P|215:140|257:133,1,89.9999972534181,2|0,0:0|1:0,0:0:0:0:
321,93,244269,1,0,0:0:0:0:
321,93,244448,1,0,1:0:0:0:
373,259,244626,5,10,0:2:0:0:
406,107,244805,1,0,1:0:0:0:
460,336,244983,1,10,0:0:0:0:
460,336,245162,5,8,0:0:0:0:
415,343,245251,1,8,0:0:0:0:
370,347,245341,1,8,0:0:0:0:
326,342,245430,1,8,0:0:0:0:
283,330,245519,1,8,0:0:0:0:
238,329,245608,1,8,0:0:0:0:
193,334,245698,6,0,P|242:351|293:344,1,89.9999972534181,6|0,1:2|1:2,0:0:0:0:
147,203,246055,1,0,0:0:0:0:
147,203,246233,2,0,P|98:220|47:213,1,89.9999972534181,2|8,1:2|0:0,0:0:0:0:
273,82,246591,1,0,1:0:0:0:
273,82,246769,2,0,P|322:99|373:92,1,89.9999972534181,2|0,0:0|1:0,0:0:0:0:
440,56,247126,5,8,0:0:0:0:
370,219,247305,1,0,1:0:0:0:
333,206,247483,1,0,1:0:0:0:
464,162,247662,1,8,0:0:0:0:
455,324,247841,1,0,0:0:0:0:
455,324,248019,1,0,1:0:0:0:
265,272,248198,1,8,0:0:0:0:
39,361,248555,6,0,P|125:367|220:322,1,179.999994506836,6|0,1:2|1:0,0:2:0:0:
163,89,249091,1,2,1:2:0:0:
94,285,249269,1,8,0:0:0:0:
235,209,249626,2,0,P|181:197|136:198,1,89.9999972534181,2|0,1:2|0:0,0:0:0:0:
314,255,249983,5,10,1:2:0:0:
334,88,250162,1,8,0:2:0:0:
330,119,250251,1,8,0:2:0:0:
335,150,250341,1,8,0:2:0:0:
422,315,250519,2,0,P|424:284|419:264,2,44.999998626709,8|8|8,0:2|0:2|0:2,0:0:0:0:
206,114,250876,1,8,0:2:0:0:
225,138,250966,1,8,0:2:0:0:
250,157,251055,1,8,0:2:0:0:
465,209,251233,2,0,P|444:185|426:175,1,44.999998626709,8|0,0:2|0:0,0:0:0:0:
218,255,251412,5,6,1:2:0:0:
299,286,251591,1,0,1:2:0:0:
390,239,251769,1,2,0:2:0:0:
431,324,251948,1,0,1:2:0:0:
288,304,252126,5,10,0:2:0:0:
311,183,252305,1,0,1:2:0:0:
165,216,252483,1,2,0:2:0:0:
211,297,252662,1,0,1:2:0:0:
38,260,252841,5,8,0:2:0:0:
23,268,253198,1,0,1:2:0:0:
104,146,253376,2,0,B|147:127|147:127|203:129,1,89.9999972534181,10|0,0:2|1:2,0:0:0:0:
276,204,253733,1,0,1:2:0:0:
479,109,253912,1,10,0:2:0:0:
315,328,254269,5,6,1:2:0:0:
292,206,254448,2,0,B|300:143|300:143|310:100,1,89.9999972534181,2|0,1:2|0:0,0:0:0:0:
372,269,254805,1,2,1:2:0:0:
146,337,254983,2,0,L|101:332,1,44.999998626709,10|0,0:2|0:0,0:0:0:0:
28,256,255162,2,0,L|122:247,1,89.9999972534181,2|0,1:2|0:0,0:0:0:0:
259,351,255519,1,2,1:2:0:0:
332,287,255698,6,0,P|354:272|380:269,1,44.999998626709,2|0,0:2|0:0,0:0:0:0:
383,345,255876,1,2,1:2:0:0:
198,246,256055,2,0,L|208:123,1,89.9999972534181,8|2,0:0|1:2,0:0:0:0:
459,31,256412,1,10,0:2:0:0:
445,293,256591,1,10,0:2:0:0:
457,251,256680,1,8,0:0:0:0:
486,222,256769,5,10,0:2:0:0:
443,249,256858,1,8,0:0:0:0:
389,242,256948,1,8,0:0:0:0:
332,210,257037,1,8,0:0:0:0:
273,255,257126,6,0,L|294:357,1,89.9999972534181,14|2,1:2|0:2,0:0:0:0:
186,285,257483,1,0,0:0:0:0:
161,355,257662,1,2,1:2:0:0:
14,118,257841,1,10,0:2:0:0:
78,153,258019,1,0,1:0:0:0:
149,121,258198,2,0,L|165:18,1,89.9999972534181,2|0,0:2|1:0,0:0:0:0:
437,181,258555,5,10,0:2:0:0:
370,124,258733,1,2,1:2:0:0:
319,201,258912,1,2,1:2:0:0:
82,257,259091,5,10,0:2:0:0:
178,296,259269,1,0,1:0:0:0:
178,296,259358,1,0,1:0:0:0:
178,296,259448,1,2,1:2:0:0:
408,297,259626,6,0,B|367:317|367:317|267:286,1,134.999995880127,10|0,0:2|0:0,0:0:0:0:
224,232,259983,5,6,1:2:0:0:
380,143,260341,1,0,1:0:0:0:
291,72,260519,1,2,1:2:0:0:
155,165,260698,6,0,B|131:208|131:208|133:285,1,89.9999972534181,10|0,0:2|0:0,0:0:0:0:
112,282,260966,1,0,0:0:0:0:
112,282,261055,1,2,1:2:0:0:
224,232,261233,1,0,0:0:0:0:
413,356,261412,5,6,1:2:0:0:
410,97,261591,5,10,0:2:0:0:
405,47,261680,1,10,0:2:0:0:
380,27,261769,5,10,1:2:0:0:
327,45,261858,1,8,0:0:0:0:
301,96,261948,1,8,0:0:0:0:
250,129,262037,1,8,0:0:0:0:
250,129,262126,5,2,1:2:0:0:
229,123,262216,1,4,0:3:0:0:
210,124,262305,1,4,0:3:0:0:
194,134,262394,1,4,0:3:0:0:
194,162,262483,5,2,1:2:0:0:
194,162,262573,1,4,0:3:0:0:
194,162,262662,1,4,0:3:0:0:
194,162,262751,1,4,0:3:0:0:
195,162,262841,5,6,1:2:0:0:
72,260,263019,2,0,P|159:251|223:312,1,179.999994506836,4|0,1:3|1:0,0:0:0:0:
403,344,263555,1,10,0:2:0:0:
473,310,263733,1,0,1:0:0:0:
329,283,263912,5,2,0:0:0:0:
304,357,264091,1,0,1:2:0:0:
157,227,264269,5,10,0:2:0:0:
157,227,264448,2,0,P|139:183|167:131,1,89.9999972534181,2|2,0:2|1:2,0:0:0:0:
222,102,264716,1,4,0:3:0:0:
222,102,264805,1,8,0:0:0:0:
227,185,264983,1,2,1:2:0:0:
317,79,265162,5,2,1:2:0:0:
92,39,265341,1,8,0:0:0:0:
440,183,265698,5,6,1:2:0:0:
390,243,265876,2,0,P|344:262|297:289,1,89.9999972534181,2|0,1:2|0:0,0:0:0:0:
162,328,266233,1,2,1:2:0:0:
57,135,266412,1,10,0:2:0:0:
36,210,266591,2,0,P|57:252|73:307,1,89.9999972534181,2|0,1:2|0:0,0:0:0:0:
229,197,266948,1,2,1:2:0:0:
118,199,267126,5,2,0:2:0:0:
118,199,267216,1,0,0:0:0:0:
118,199,267305,1,2,1:2:0:0:
267,85,267483,1,8,0:0:0:0:
334,123,267662,1,2,1:2:0:0:
203,309,267841,1,10,0:2:0:0:
409,172,268019,1,8,0:0:0:0:
409,172,268108,1,8,0:0:0:0:
409,172,268198,1,10,1:2:0:0:
438,209,268287,1,10,0:2:0:0:
419,253,268376,1,10,0:2:0:0:
438,304,268466,1,10,0:2:0:0:
415,372,268555,6,0,P|397:269|468:118,1,269.999991760254,6|0,1:2|1:0,0:0:0:0:
309,298,269269,2,0,B|266:312|266:312|202:288,1,89.9999972534181,10|0,0:2|0:0,0:0:0:0:
226,144,269626,2,0,B|269:130|269:130|333:154,1,89.9999972534181,2|0,0:2|1:0,0:0:0:0:
125,280,269983,5,10,0:2:0:0:
90,215,270162,1,2,1:2:0:0:
96,179,270341,1,2,1:2:0:0:
263,218,270519,1,10,0:2:0:0:
291,245,270698,1,2,1:2:0:0:
282,321,270876,1,2,1:2:0:0:
171,101,271055,5,10,0:2:0:0:
90,215,271233,1,2,0:2:0:0:
289,126,271412,6,0,B|350:118|350:118|389:135|389:135|488:121,1,179.999994506836,6|0,1:2|1:0,0:0:0:0:
410,46,271948,1,0,1:0:0:0:
333,207,272126,2,0,L|369:327,1,89.9999972534181,8|0,0:0|0:0,0:0:0:0:
281,359,272394,1,2,0:0:0:0:
281,359,272483,2,0,B|257:352|249:335|249:335|224:334|184:361,1,89.9999972534181,2|0,1:2|0:0,0:0:0:0:
134,301,272751,1,0,0:0:0:0:
116,289,272841,5,6,1:2:0:0:
201,109,273019,1,8,0:0:0:0:
242,129,273108,1,8,0:0:0:0:
288,120,273198,1,10,0:2:0:0:
318,82,273287,1,8,0:0:0:0:
373,55,273376,1,8,0:0:0:0:
413,82,273466,1,8,0:0:0:0:
460,65,273555,5,8,1:3:0:0:
453,84,273644,1,8,0:3:0:0:
453,99,273733,1,8,0:3:0:0:
445,143,273823,5,2,1:2:0:0:
456,159,273912,1,4,0:3:0:0:
461,180,274001,1,4,0:3:0:0:
492,216,274091,5,2,1:2:0:0:
467,257,274180,1,4,0:3:0:0:
427,246,274269,6,0,B|434:192|377:155|377:155|326:282|383:259|368:367|368:367|263:345|274:263|257:212|205:197|149:217|138:266|159:297|159:297|185:326|234:322|259:290|277:245|277:188|277:129|228:97|228:97|186:103|175:156,1,1039.99995239258,6|0,1:2|0:0,0:0:0:0:
