osu file format v14

[General]
AudioFilename: audio.mp3
AudioLeadIn: 0
PreviewTime: 151429
Countdown: 0
SampleSet: Soft
StackLeniency: 0.7
Mode: 0
LetterboxInBreaks: 0
WidescreenStoryboard: 0

[Editor]
Bookmarks: 20919,33980,47041,60102,73164,86225,99286,112347,125409,138470,151531,164592,177653,190715,209898,223368,236429,249490,262551
DistanceSpacing: 0.2
BeatDivisor: 4
GridSize: 32
TimelineZoom: 1

[Metadata]
Title:I Love You From Greenwich
TitleUnicode:アイラブユーフロムグリニッジ
Artist:8686m
ArtistUnicode:8686m
Creator:Gibune
Version:Collab Insane
Source:東方Project
Tags:fllecc touhou japanese rock team shanghai alice zun 大空魔術 ~ Magical Astronomy 天空のグリニッジ greenwich in the sky
BeatmapID:4216014
BeatmapSetID:2024061

[Difficulty]
HPDrainRate:6
CircleSize:4
OverallDifficulty:8
ApproachRate:8
SliderMultiplier:1.7
SliderTickRate:1

[Events]
//Background and Video events
0,0,"56628687_p0.jpg",0,0
//Break Periods
2,138670,140169
2,141935,144046
2,145200,147312
//Storyboard Layer 0 (Background)
//Storyboard Layer 1 (Fail)
//Storyboard Layer 2 (Pass)
//Storyboard Layer 3 (Foreground)
//Storyboard Layer 4 (Overlay)
//Storyboard Sound Samples

[TimingPoints]
7858,408.163265306122,4,2,1,65,1,0
33980,-125,4,2,1,50,0,0
60102,-100,4,2,1,65,0,0
73164,-125,4,2,1,50,0,0
99286,-125,4,2,2,40,0,0
109082,-500,4,2,1,45,0,0
112347,-100,4,2,1,75,0,0
138470,-100,4,2,1,65,0,0
149898,-400,4,2,1,40,0,0
151531,-100,4,2,1,65,0,0
177653,-100,4,2,1,75,0,0
190715,-90.9090909090909,4,2,1,75,0,0
200511,-83.3333333333333,4,2,1,75,0,0
203776,-1000,4,2,1,55,0,0
210306,-100,4,2,1,75,0,0

[Colours]
Combo1 : 179,170,221
Combo2 : 95,134,207
Combo3 : 151,174,210
Combo4 : 133,107,201

[HitObjects]
117,72,7857,6,0,P|160:71|217:68,1,85,4|0,1:0|0:0,0:0:0:0:
291,224,8266,2,0,P|292:172|294:129,1,85,0|0,1:0|0:0,0:0:0:0:
468,14,8674,2,2,P|410:15|369:137,1,170,10|0,0:1|1:0,0:1:0:0:
216,174,9286,1,2,1:0:0:0:
302,282,9490,5,2,3:1:0:0:
374,238,9694,2,0,B|282:219|302:276|205:260,1,170,0|2,1:0|1:0,0:0:0:0:
56,170,10306,2,0,B|46:211|46:211|56:255,1,85,10|0,0:1|0:0,0:0:0:0:
108,348,10715,1,0,1:0:0:0:
135,214,10919,1,0,0:0:0:0:
209,260,11123,6,0,B|219:219|219:219|209:175,1,85,2|0,1:0|0:0,0:0:0:0:
106,104,11531,2,0,B|96:63|96:63|106:19,1,85,2|0,1:0|0:0,0:0:0:0:
279,108,11939,2,0,P|328:115|453:139,1,170,8|0,0:0|1:0,0:0:0:0:
446,137,12551,1,0,1:0:0:0:
331,274,12755,5,2,3:0:0:0:
320,196,12960,1,0,1:0:0:0:
258,240,13164,1,2,0:1:0:0:
393,230,13368,1,0,1:0:0:0:
211,378,13572,2,0,P|200:334|203:287,1,85,10|0,0:1|0:0,0:0:0:0:
127,98,13980,2,0,P|137:138|136:181,1,85,0|2,1:0|0:1,0:0:0:0:
331,49,14388,6,2,P|398:46|512:42,1,170,6|2,1:1|1:1,0:1:0:0:
393,127,15000,1,0,0:0:0:0:
251,6,15204,2,0,P|252:51|248:92,1,85,10|0,0:1|0:0,0:0:0:0:
291,229,15613,1,0,1:0:0:0:
87,109,15817,6,2,P|133:162|240:167,1,170,2|0,1:0|1:0,0:1:0:0:
336,312,16429,1,2,3:0:0:0:
372,200,16633,1,2,0:1:0:0:
226,278,16837,2,0,P|223:323|227:368,1,85,8|0,0:0|0:0,0:0:0:0:
420,358,17245,2,0,P|423:315|420:273,1,85,2|0,1:0|0:0,0:0:0:0:
299,117,17653,5,2,1:0:0:0:
224,189,17857,1,0,0:0:0:0:
325,205,18062,2,0,P|362:201|414:196,1,85,2|0,1:0|0:0,0:0:0:0:
177,80,18470,2,2,P|179:141|177:257,1,170,10|0,0:1|1:0,0:1:0:0:
6,382,19082,6,2,P|8:324|107:272,1,170,2|0,1:0|1:0,0:1:0:0:
266,285,19694,1,2,3:0:0:0:
266,285,19898,1,0,1:0:0:0:
136,189,20102,5,8,0:0:0:0:
180,372,20306,1,8,3:0:0:0:
104,345,20511,5,0,1:0:0:0:
211,224,20715,1,4,3:0:0:0:
374,355,20919,6,0,B|437:373|437:373|495:352,1,127.5,4|0,1:0|0:0,0:0:0:0:
495,352,21327,2,0,L|481:250,1,85,0|0,1:0|0:0,0:0:0:0:
356,117,21735,2,2,P|358:57|475:33,1,170,10|0,0:1|1:0,0:1:0:0:
508,66,22347,1,2,1:0:0:0:
324,211,22551,5,2,3:0:0:0:
252,181,22755,2,2,B|150:168|189:211|84:201,1,170,2|0,1:0|1:0,0:1:0:0:
0,94,23368,2,0,P|-7:46|1:6,1,85,8|0,0:0|0:0,0:0:0:0:
80,118,23776,1,2,1:0:0:0:
0,296,23980,5,0,3:0:0:0:
0,296,24082,1,0,3:0:0:0:
0,296,24184,2,0,B|41:284|41:284|81:297,1,85,2|0,1:0|0:0,0:0:0:0:
228,375,24592,2,0,B|187:387|187:387|147:374,1,85,2|0,1:0|0:0,0:0:0:0:
153,224,25000,2,2,L|174:40,1,170,10|0,0:1|1:0,0:1:0:0:
172,55,25613,1,0,1:0:0:0:
279,191,25817,5,2,3:1:0:0:
357,178,26021,1,2,1:0:0:0:
344,100,26225,1,0,0:0:0:0:
266,113,26429,1,2,1:0:0:0:
425,235,26633,2,0,L|517:221,1,85,10|0,0:1|3:0,0:0:0:0:
509,222,26939,1,0,3:0:0:0:
509,222,27041,1,0,1:0:0:0:
128,368,27449,6,0,P|111:323|-23:275,1,170,4|0,1:0|1:0,0:0:0:0:
7,269,28062,1,0,0:0:0:0:
166,258,28266,2,0,P|195:216|205:160,1,85,10|0,0:1|0:0,0:0:0:0:
91,18,28674,5,2,1:0:0:0:
22,52,28878,2,2,P|93:62|219:67,1,170,2|0,1:0|1:0,0:1:0:0:
386,31,29490,1,2,3:0:0:0:
294,14,29694,1,2,1:0:0:0:
410,185,29898,5,10,0:1:0:0:
502,168,30102,1,0,0:0:0:0:
441,96,30306,1,2,1:0:0:0:
322,257,30511,5,0,3:0:0:0:
322,257,30613,1,0,3:0:0:0:
322,257,30715,2,0,P|251:247|125:242,1,170,0|0,1:0|1:0,0:0:0:0:
0,329,31327,1,2,0:1:0:0:
71,384,31531,2,0,P|83:343|84:301,1,85,10|0,0:1|0:0,0:0:0:0:
35,158,31939,2,0,P|15:94|14:28,1,127.5,0|0,1:0|0:0,0:0:0:0:
13,33,32347,5,0,1:0:0:0:
96,16,32551,1,0,3:0:0:0:
248,146,32755,5,8,3:0:0:0:
165,129,32960,1,4,3:0:0:0:
426,25,33164,5,8,3:0:0:0:
343,42,33368,1,4,3:0:0:0:
435,239,33572,1,8,3:0:0:0:
435,239,33980,6,0,L|421:171,1,68,6|0,1:0|0:0,0:0:0:0:
398,105,34388,1,0,1:0:0:0:
255,358,34796,6,0,L|269:290,1,68,10|0,0:1|0:0,0:0:0:0:
292,224,35204,1,0,1:0:0:0:
189,290,35409,2,0,P|129:309|35:294,1,136,0|0,1:0|1:0,0:0:0:0:
20,237,36021,1,0,3:0:0:0:
20,237,36225,1,0,1:0:0:0:
71,108,36429,2,0,P|76:147|72:181,1,68,10|0,0:1|0:0,0:0:0:0:
150,197,36837,1,0,1:0:0:0:
296,62,37245,6,0,B|373:66|360:33|458:37,1,136,2|0,1:0|1:0,0:0:0:0:
462,220,38062,2,0,P|460:158|504:86,1,136,10|0,0:1|1:0,0:0:0:0:
372,155,38674,2,0,P|310:153|238:197,1,136,0|0,1:0|1:0,0:0:0:0:
179,224,39286,2,0,P|174:258|177:296,1,68,2|0,3:0|0:0,0:0:0:0:
227,357,39694,1,10,0:1:0:0:
227,357,40102,1,0,1:0:0:0:
135,160,40511,6,0,P|130:114|120:73,1,68,2|0,1:0|0:0,0:0:0:0:
100,24,40919,1,0,1:0:0:0:
287,225,41327,6,0,P|292:179|302:138,1,68,10|0,0:1|0:0,0:0:0:0:
322,89,41735,1,0,1:0:0:0:
217,145,41939,1,0,1:0:0:0:
217,145,42347,1,0,1:0:0:0:
378,243,42755,1,0,1:0:0:0:
446,199,42960,2,0,P|453:241|451:269,1,68,10|0,0:1|0:0,0:0:0:0:
318,366,43368,2,0,P|316:332|323:298,1,68,0|0,1:0|0:0,0:0:0:0:
215,179,43776,5,2,3:1:0:0:
86,243,43980,1,4,3:0:0:0:
190,247,44184,1,8,3:0:0:0:
120,178,44388,1,4,3:0:0:0:
43,379,44592,6,0,P|39:342|41:303,1,68,10|0,0:1|0:0,0:0:0:0:
190,247,45000,1,0,1:0:0:0:
190,247,45409,1,2,3:1:0:0:
52,178,45613,2,0,P|90:180|125:177,1,68,0|0,1:0|0:0,0:0:0:0:
168,120,46021,1,0,1:0:0:0:
307,216,46225,1,10,0:1:0:0:
307,216,47041,6,0,P|303:271|308:380,1,136,4|0,1:2|1:0,0:0:0:0:
376,380,47653,1,0,0:0:0:0:
511,356,47857,2,0,P|512:307|509:259,1,68,8|0,0:0|0:0,0:0:0:0:
459,237,48266,1,0,1:0:0:0:
505,178,48470,1,0,1:0:0:0:
424,95,48674,5,2,3:0:0:0:
424,95,48878,2,0,P|360:69|345:-5,1,136,0|0,1:0|1:0,0:0:0:0:
360,3,49490,1,10,0:0:0:0:
278,132,49796,1,0,0:0:0:0:
278,132,49898,1,2,1:2:0:0:
334,200,50102,1,2,0:0:0:0:
280,270,50306,6,0,P|232:254|141:250,1,136,0|0,1:0|1:0,0:0:0:0:
76,275,50919,1,0,0:0:0:0:
11,177,51123,2,0,P|18:131|20:89,1,68,8|0,0:0|0:0,0:0:0:0:
13,36,51531,1,0,1:0:0:0:
13,36,51939,5,2,3:0:0:0:
93,3,52143,1,2,1:2:0:0:
238,127,52551,1,2,1:2:0:0:
238,127,52755,2,0,L|375:115,1,136,10|0,0:0|1:0,0:0:0:0:
373,115,53572,6,0,P|341:124|298:217,1,136,4|0,1:2|1:0,0:0:0:0:
343,266,54184,1,0,0:0:0:0:
471,366,54388,2,0,P|476:332|465:290,1,68,8|0,0:0|0:0,0:0:0:0:
401,335,54796,1,0,1:0:0:0:
401,335,55000,1,0,1:0:0:0:
287,378,55204,5,2,3:0:0:0:
287,378,55409,2,0,P|227:372|126:365,1,136,2|0,1:2|1:0,0:0:0:0:
84,331,56021,1,10,0:0:0:0:
57,210,56327,1,2,0:0:0:0:
57,210,56429,1,2,1:2:0:0:
132,164,56633,1,0,0:0:0:0:
218,181,56837,6,0,P|264:133|268:49,1,136,0|0,1:0|1:0,0:0:0:0:
211,19,57449,1,0,0:0:0:0:
114,88,57653,2,0,P|81:88|36:83,1,68,8|0,0:0|0:0,0:0:0:0:
0,26,58062,1,0,1:0:0:0:
0,26,58470,5,2,3:0:0:0:
50,7,58776,1,2,0:0:0:0:
98,46,59082,1,0,1:0:0:0:
189,4,59286,1,0,3:0:0:0:
339,247,59490,5,8,0:0:0:0:
351,151,59694,1,8,0:0:0:0:
256,139,59898,1,8,0:0:0:0:
186,384,60102,6,0,P|167:342|197:225,1,170,4|0,1:0|1:0,0:0:0:0:
315,133,60715,1,0,0:0:0:0:
422,294,60919,2,0,P|379:283|341:252,1,85,10|0,0:1|0:0,0:0:0:0:
233,133,61327,1,2,1:0:0:0:
393,24,61531,6,2,P|394:103|390:203,1,170,2|0,1:0|1:0,0:1:0:0:
460,367,62143,2,0,P|460:324|464:279,1,85,2|2,3:0|1:0,0:0:0:0:
289,212,62551,2,2,P|292:254|292:296,1,85,10|0,0:1|0:0,0:1:0:0:
468,202,62960,1,0,1:0:0:0:
378,285,63164,1,2,0:1:0:0:
249,137,63368,6,0,P|208:130|158:122,1,85,2|0,1:0|0:0,0:0:0:0:
96,176,63776,1,0,1:0:0:0:
96,176,63980,1,2,0:1:0:0:
54,14,64184,2,0,P|55:61|52:105,1,85,10|0,0:1|0:0,0:0:0:0:
0,295,64592,1,0,1:0:0:0:
59,249,64796,6,2,P|108:258|154:368,1,170,2|2,1:0|1:0,0:1:0:0:
156,357,65409,1,0,0:0:0:0:
226,291,65613,1,2,1:0:0:0:
294,358,65817,1,10,0:1:0:0:
147,264,66021,1,0,0:0:0:0:
281,179,66225,1,0,1:0:0:0:
139,8,66633,6,0,B|123:92|178:72|164:183,1,170,4|0,1:0|1:0,0:0:0:0:
298,260,67245,1,0,0:0:0:0:
371,295,67449,2,0,P|378:247|373:197,1,85,8|0,0:0|0:0,0:0:0:0:
245,174,67857,1,2,1:0:0:0:
45,263,68062,6,2,P|123:254|219:248,1,170,2|0,1:0|1:0,0:1:0:0:
324,61,68674,2,0,P|321:113|319:156,1,85,2|0,0:1|1:0,0:0:0:0:
285,312,69082,1,8,0:0:0:0:
245,174,69286,1,0,0:0:0:0:
275,341,69490,2,0,P|317:337|370:333,1,85,0|0,1:0|0:0,0:0:0:0:
509,165,69898,6,0,P|447:173|396:268,1,170,0|0,1:0|1:0,0:0:0:0:
432,370,70511,1,0,0:0:0:0:
323,213,70715,2,0,P|321:169|313:111,1,85,10|0,0:1|0:0,0:0:0:0:
166,67,71123,1,2,1:0:0:0:
246,7,71327,6,2,P|242:65|234:183,1,170,2|0,1:0|1:0,0:1:0:0:
174,298,71939,5,8,3:0:0:0:
137,172,72143,1,4,3:0:0:0:
68,352,72347,5,8,3:0:0:0:
105,242,72551,1,4,3:0:0:0:
261,356,72755,5,8,3:0:0:0:
261,356,73164,2,0,B|346:348|314:324|401:316,1,136,4|0,1:2|1:0,0:0:0:0:
501,254,73776,1,0,0:0:0:0:
433,214,73980,2,0,P|427:180|428:137,1,68,8|0,0:0|0:0,0:0:0:0:
437,13,74388,1,0,1:0:0:0:
501,66,74592,1,0,1:0:0:0:
334,75,74796,5,2,3:0:0:0:
334,75,75000,2,0,L|180:66,1,136,2|0,1:2|1:0,0:0:0:0:
30,74,75613,2,0,P|50:37|106:27,1,102,10|0,0:0|0:0,0:0:0:0:
105,26,76021,2,0,P|99:65|99:93,1,68,0|0,1:0|0:0,0:0:0:0:
184,287,76429,6,0,P|190:239|187:147,1,136,0|0,1:0|1:0,0:0:0:0:
187,151,77041,1,0,0:0:0:0:
97,353,77245,2,0,P|81:311|54:270,1,68,8|0,0:0|0:0,0:0:0:0:
10,245,77653,1,0,1:0:0:0:
10,245,78062,5,2,3:0:0:0:
77,291,78266,1,2,1:2:0:0:
156,272,78470,2,0,L|163:191,1,68,0|2,0:0|1:2,0:0:0:0:
250,64,78878,5,8,0:0:0:0:
321,14,79082,1,0,0:0:0:0:
411,36,79286,1,0,1:0:0:0:
411,36,79694,6,0,P|407:109|413:189,1,136,0|0,1:0|1:0,0:0:0:0:
480,210,80306,1,0,0:0:0:0:
354,370,80511,2,0,P|350:336|352:302,1,68,8|0,0:0|0:0,0:0:0:0:
412,252,80919,1,0,1:0:0:0:
412,252,81123,1,0,1:0:0:0:
241,293,81327,5,2,3:0:0:0:
241,293,81531,2,0,B|168:283|182:324|85:314,1,136,2|0,1:2|1:0,0:0:0:0:
30,133,82143,6,0,P|20:98|-3:54,1,68,10|0,0:0|0:0,0:0:0:0:
111,216,82551,2,0,P|119:180|121:131,1,68,2|0,1:2|0:0,0:0:0:0:
0,362,82960,6,0,P|43:316|132:313,1,136,0|0,1:0|1:0,0:0:0:0:
245,210,83572,1,0,0:0:0:0:
245,210,83776,2,0,P|250:162|248:115,1,68,8|0,0:0|0:0,0:0:0:0:
218,75,84184,1,2,1:2:0:0:
263,373,84592,5,2,3:0:0:0:
263,373,84796,2,0,P|258:325|260:278,1,68,2|0,1:2|0:0,0:0:0:0:
269,232,85204,1,2,1:2:0:0:
419,307,85409,1,10,0:0:0:0:
508,269,85613,1,0,3:0:0:0:
508,269,85715,1,0,3:0:0:0:
508,269,85817,2,0,P|513:221|511:174,1,68,0|0,1:0|0:0,0:0:0:0:
505,41,86225,6,0,P|500:102|415:138,1,136,4|0,1:2|1:0,0:0:0:0:
333,70,86837,1,0,0:0:0:0:
333,70,87041,2,0,P|326:33|329:-6,1,68,8|0,0:0|0:0,0:0:0:0:
365,207,87449,2,0,P|370:171|365:125,1,68,0|0,1:0|1:0,0:0:0:0:
251,191,87857,5,2,3:0:0:0:
181,153,88062,1,0,1:0:0:0:
181,153,88164,1,2,0:0:0:0:
242,97,88368,1,2,0:0:0:0:
242,97,88470,1,0,1:0:0:0:
171,0,88674,2,0,P|163:39|162:78,1,68,8|0,0:0|0:0,0:0:0:0:
26,174,89082,2,0,P|23:140|16:106,1,68,0|0,1:0|0:0,0:0:0:0:
131,219,89490,6,0,P|187:244|230:320,1,136,0|0,1:0|1:0,0:0:0:0:
285,358,90102,1,0,0:0:0:0:
149,384,90306,2,0,P|142:339|143:299,1,68,8|0,0:0|0:0,0:0:0:0:
283,228,90715,2,0,P|311:232|354:236,1,68,0|0,1:0|0:0,0:0:0:0:
503,186,91123,5,2,3:0:0:0:
448,374,91327,2,0,P|437:312|433:232,1,136,2|2,1:2|1:2,0:0:0:0:
348,47,91939,2,0,P|346:88|341:124,1,68,8|0,0:0|0:0,0:0:0:0:
506,83,92347,2,0,P|466:87|437:87,1,68,0|0,1:0|0:0,0:0:0:0:
265,163,92755,6,0,P|268:212|264:313,1,136,0|0,1:0|1:0,0:0:0:0:
265,298,93368,1,0,0:0:0:0:
185,380,93572,2,0,P|183:336|184:298,1,68,8|0,0:0|0:0,0:0:0:0:
180,161,93980,1,0,1:0:0:0:
119,250,94184,1,0,1:0:0:0:
12,137,94388,5,2,3:0:0:0:
101,221,94592,1,0,1:0:0:0:
101,221,94694,1,2,0:0:0:0:
12,303,94898,1,2,0:0:0:0:
12,303,95000,1,0,1:2:0:0:
107,384,95204,2,0,P|97:351|82:321,1,68,10|0,0:0|0:0,0:0:0:0:
228,229,95613,2,0,P|263:215|308:205,1,68,0|0,1:0|0:0,0:0:0:0:
446,116,96021,6,0,B|364:110|398:87|291:77,1,136,0|0,1:0|1:0,0:0:0:0:
261,25,96633,1,0,0:0:0:0:
103,90,96837,2,0,P|145:84|176:86,1,68,8|0,0:0|0:0,0:0:0:0:
291,223,97245,2,0,P|289:183|296:151,1,68,0|0,1:0|0:0,0:0:0:0:
166,225,97653,5,2,3:0:0:0:
111,169,97857,2,0,P|75:184|36:293,1,136,2|0,1:2|1:0,0:0:0:0:
152,373,98470,1,8,0:0:0:0:
119,289,98674,1,8,3:0:0:0:
119,289,98776,1,8,3:0:0:0:
119,289,98878,1,4,3:0:0:0:
40,384,99082,1,4,3:0:0:0:
215,300,99286,6,0,P|271:302|349:367,1,136,4|0,1:0|0:0,0:0:0:0:
493,320,99898,1,0,1:0:0:0:
414,365,100102,5,8,0:0:0:0:
413,373,100511,5,2,3:0:0:0:
421,370,100919,5,0,0:0:0:0:
414,365,101327,6,0,P|410:325|412:284,1,68,2|0,3:0|1:0,0:0:0:0:
345,186,101735,2,0,P|345:219|341:253,1,68,8|0,0:0|0:0,0:0:0:0:
499,190,102143,6,0,P|501:122|497:54,1,136,0|0,0:0|1:0,0:0:0:0:
423,20,102755,2,0,P|422:53|426:87,1,68,0|0,1:0|1:0,0:0:0:0:
303,147,103164,1,2,1:0:0:0:
269,37,103368,1,10,0:1:0:0:
341,77,103572,1,2,1:0:0:0:
208,115,103776,6,0,P|151:106|108:32,1,136,2|0,3:0|0:0,0:0:0:0:
33,7,104388,1,0,1:0:0:0:
33,7,104592,2,0,P|33:40|32:74,1,68,2|0,3:1|0:0,0:0:0:0:
0,245,105000,1,8,0:0:0:0:
157,172,105409,1,0,1:0:0:0:
109,379,105817,6,0,P|109:327|88:229,1,136,4|0,1:2|0:0,0:0:0:0:
192,340,106429,1,0,1:0:0:0:
192,340,106633,2,0,P|224:361|270:370,1,68,8|0,0:0|1:0,0:0:0:0:
399,275,107041,2,0,P|429:246|494:245,1,102,2|0,3:0|0:0,0:0:0:0:
486,242,107449,5,0,1:0:0:0:
509,323,107653,1,0,1:0:0:0:
338,177,107857,5,8,0:0:0:0:
392,122,108062,2,0,P|391:84|382:52,1,68,8|8,3:0|3:0,0:0:0:0:
133,203,108470,5,4,3:0:0:0:
62,169,108674,1,8,3:0:0:0:
121,122,108878,1,8,3:0:0:0:
257,247,109082,6,0,P|263:287|257:384,1,136,4|2,1:0|3:0,0:0:0:0:
230,318,111123,1,0,1:0:0:0:
230,318,111327,1,2,3:0:0:0:
314,199,111531,1,0,1:0:0:0:
219,63,111939,1,0,1:0:0:0:
329,237,112347,6,0,P|339:197|334:135,1,85,4|0,1:0|0:0,0:0:0:0:
230,318,112755,2,0,P|220:278|225:216,1,85,0|0,1:0|0:0,0:0:0:0:
429,202,113164,2,0,P|475:191|518:188,1,85,8|0,0:0|0:0,0:0:0:0:
401,268,113572,1,2,1:0:0:0:
262,161,113776,6,2,B|167:142|187:192|91:174,1,170,2|0,1:0|1:0,0:1:0:0:
49,116,114388,1,2,3:0:0:0:
19,183,114592,1,2,1:0:0:0:
169,321,114796,5,10,0:1:0:0:
242,282,115000,1,2,0:1:0:0:
172,236,115204,1,0,1:0:0:0:
105,271,115409,1,8,0:0:0:0:
260,374,115613,6,0,P|306:365|340:341,1,85,2|0,1:0|0:0,0:0:0:0:
88,348,116021,2,0,P|42:339|8:315,1,85,0|2,1:0|0:1,0:0:0:0:
180,151,116429,2,0,P|175:192|171:249,1,85,10|0,0:1|0:0,0:0:0:0:
224,300,116837,1,0,1:0:0:0:
97,188,117041,6,2,P|38:154|47:42,1,170,2|0,1:0|1:0,0:1:0:0:
110,0,117653,2,0,P|105:48|108:86,1,85,0|0,0:0|1:0,0:0:0:0:
26,241,118062,1,8,0:0:0:0:
172,128,118266,1,0,0:0:0:0:
33,59,118470,1,0,1:0:0:0:
96,283,118674,1,8,0:0:0:0:
233,183,118878,6,0,P|253:130|252:89,1,85,4|0,1:0|0:0,0:0:0:0:
450,0,119286,2,0,P|432:38|429:80,1,85,0|0,1:0|0:0,0:0:0:0:
451,172,119694,1,8,0:0:0:0:
451,172,119898,1,0,0:0:0:0:
337,65,120102,1,2,1:0:0:0:
158,137,120306,6,0,P|230:141|338:153,1,170,0|2,1:0|1:0,0:0:0:0:
494,334,120919,2,2,P|491:293|495:247,1,85,2|0,3:0|1:0,0:1:0:0:
419,369,121327,1,8,0:0:0:0:
393,215,121531,1,2,3:1:0:0:
393,215,121633,1,0,3:0:0:0:
393,215,121735,1,0,1:0:0:0:
335,309,121939,1,0,0:0:0:0:
485,171,122143,6,0,P|481:109|390:59,2,170,0|0|8,1:0|1:0|0:0,0:0:0:0:
485,171,123368,1,0,1:0:0:0:
267,251,123572,1,0,1:0:0:0:
305,135,123776,5,2,3:0:0:0:
361,217,123980,1,0,1:0:0:0:
162,152,124184,2,0,P|119:138|62:128,1,85,12|0,0:0|0:0,0:0:0:0:
375,193,124592,5,0,1:0:0:0:
104,212,124796,2,0,P|59:221|5:241,1,85,12|0,0:1|0:0,0:0:0:0:
388,173,125204,5,0,1:0:0:0:
261,381,125409,6,0,P|255:339|253:297,1,85,4|0,1:0|0:0,0:0:0:0:
244,93,125817,2,0,P|237:135|235:177,1,85,0|0,1:0|0:0,0:0:0:0:
395,259,126225,2,0,P|459:257|519:216,1,127.5,8|0,0:0|0:0,0:0:0:0:
511,224,126633,5,2,1:0:0:0:
324,366,126837,2,2,P|248:331|156:342,1,170,2|0,1:0|1:0,0:1:0:0:
22,334,127449,1,2,3:0:0:0:
92,296,127653,1,0,1:0:0:0:
254,212,127857,5,10,0:1:0:0:
122,178,128062,1,2,0:1:0:0:
217,80,128266,1,0,1:0:0:0:
198,155,128470,1,8,0:0:0:0:
15,97,128674,6,0,P|2:49|0:9,1,85,2|0,1:0|0:0,0:0:0:0:
102,267,129082,2,0,P|106:224|102:182,1,85,0|2,1:0|0:1,0:0:0:0:
188,9,129490,2,0,P|184:51|172:92,1,85,10|0,0:1|0:0,0:0:0:0:
25,288,129898,5,0,1:0:0:0:
97,263,130102,2,0,B|192:248|173:295|262:289,1,170,0|0,1:0|1:0,0:0:0:0:
411,218,130715,1,0,0:0:0:0:
489,249,130919,1,2,1:0:0:0:
377,340,131123,5,8,0:0:0:0:
341,173,131327,1,0,3:0:0:0:
341,173,131429,1,2,3:1:0:0:
341,173,131531,1,0,1:2:0:0:
458,144,131735,1,10,0:1:0:0:
311,63,131939,6,0,P|282:53|228:44,1,85,4|0,1:0|0:0,0:0:0:0:
7,206,132347,2,0,P|49:199|89:187,1,85,0|0,1:0|0:0,0:0:0:0:
126,0,132755,2,2,P|133:44|152:128,1,127.5,10|0,0:1|0:0,0:1:0:0:
151,124,133164,1,0,1:0:0:0:
329,58,133368,6,2,P|385:54|452:143,1,170,2|0,1:0|1:0,0:1:0:0:
403,284,133980,2,0,P|407:242|399:191,1,85,2|2,3:0|1:0,0:0:0:0:
243,383,134388,1,8,0:0:0:0:
282,295,134592,1,2,3:1:0:0:
282,295,134694,1,0,3:0:0:0:
282,295,134796,1,0,1:0:0:0:
343,365,135000,1,10,0:1:0:0:
167,183,135204,6,2,B|79:167|87:215|-3:199,1,170,2|0,1:0|1:0,0:1:0:0:
264,277,135817,1,2,0:1:0:0:
188,384,136021,2,0,B|176:340|176:340|190:304,1,85,8|0,0:0|0:0,0:0:0:0:
320,123,136429,5,2,1:0:0:0:
394,137,136633,2,2,P|437:113|469:-5,1,170,2|0,1:0|1:0,0:1:0:0:
337,202,137245,2,0,P|338:250|359:296,1,85,2|0,0:1|1:0,0:0:0:0:
414,355,137653,5,8,0:0:0:0:
504,372,138062,5,0,1:0:0:0:
512,363,138470,5,4,1:0:0:0:
306,156,140919,5,2,3:0:0:0:
222,93,141531,1,0,3:0:0:0:
209,91,141633,1,0,3:0:0:0:
196,89,141735,1,4,3:1:0:0:
237,221,144796,5,0,3:0:0:0:
235,208,144898,1,0,3:0:0:0:
232,195,145000,1,4,3:1:0:0:
334,217,148062,5,0,3:0:0:0:
330,204,148164,1,0,3:0:0:0:
327,191,148266,1,4,3:1:0:0:
314,73,149898,6,0,P|303:109|300:158,1,85
198,383,151531,6,0,P|195:340|183:299,1,85,4|0,1:0|0:0,0:0:0:0:
14,257,151939,2,0,P|56:254|97:242,1,85,0|0,1:0|0:0,0:0:0:0:
234,51,152347,2,2,P|183:43|131:137,1,170,10|0,0:1|1:0,0:1:0:0:
190,178,152960,1,2,1:0:0:0:
355,342,153164,5,2,3:0:0:0:
283,368,153368,2,0,P|279:311|286:194,1,170,2|0,1:0|1:0,0:0:0:0:
440,61,153980,2,2,P|444:103|441:145,1,85,10|0,0:1|0:0,0:1:0:0:
363,103,154388,1,2,1:0:0:0:
508,10,154592,1,0,0:0:0:0:
351,111,154796,6,0,B|308:125|308:125|271:110,1,85,2|0,1:0|0:0,0:0:0:0:
149,33,155204,2,0,B|112:18|112:18|69:32,1,85,0|2,1:0|0:1,0:0:0:0:
188,170,155613,2,2,P|196:251|205:339,1,170,10|0,0:1|1:0,0:1:0:0:
279,369,156225,1,2,1:0:0:0:
17,335,156429,1,2,3:1:0:0:
111,305,156633,1,2,1:0:0:0:
84,384,156837,5,0,1:0:0:0:
46,260,157041,1,2,0:1:0:0:
270,371,157245,2,0,P|326:364|380:359,1,85,10|0,0:1|0:0,0:0:0:0:
471,233,157653,2,0,P|484:185|478:139,1,85,0|0,1:0|0:0,0:0:0:0:
481,150,158062,6,2,B|392:125|403:173|283:162,1,170,4|0,1:0|1:0,0:1:0:0:
141,32,158674,1,2,0:1:0:0:
189,157,158878,2,0,P|204:119|208:68,1,85,10|0,0:1|0:0,0:0:0:0:
208,75,159286,1,0,1:0:0:0:
46,202,159490,6,0,P|46:248|153:300,1,170,2|0,1:0|1:0,0:0:0:0:
355,341,160102,1,2,0:1:0:0:
204,251,160306,1,2,1:0:0:0:
270,382,160511,2,0,P|276:334|270:294,1,85,10|0,0:1|0:0,0:0:0:0:
416,203,160919,2,0,P|411:245|417:287,1,85,0|0,1:0|0:0,0:0:0:0:
319,121,161327,6,0,P|317:77|420:28,1,170,2|0,1:0|1:0,0:0:0:0:
473,79,161939,1,2,0:1:0:0:
275,201,162143,2,0,P|207:202|99:178,1,170,10|0,0:1|1:0,0:0:0:0:
5,304,162755,2,2,P|87:284|172:284,1,170,2|0,1:0|1:0,0:1:0:0:
307,383,163368,1,2,3:0:0:0:
280,306,163572,1,0,1:0:0:0:
418,137,163776,5,8,0:0:0:0:
366,316,163980,1,4,3:0:0:0:
345,193,164184,5,8,3:0:0:0:
439,257,164388,1,4,3:0:0:0:
243,233,164592,6,0,P|238:190|245:147,1,85,4|0,1:0|0:0,0:0:0:0:
376,25,165000,2,0,P|382:66|377:108,1,85,0|0,1:0|0:0,0:0:0:0:
129,60,165409,2,2,P|174:65|307:75,1,170,10|0,0:1|1:0,0:1:0:0:
298,74,166021,1,0,1:0:0:0:
359,191,166225,6,2,P|363:225|347:285,2,85,2|0|0,3:1|1:0|0:0,0:1:0:0:
377,108,166837,1,2,1:0:0:0:
271,202,167041,1,10,0:1:0:0:
434,172,167245,1,0,0:0:0:0:
286,118,167449,1,2,1:0:0:0:
271,202,167653,1,2,0:1:0:0:
256,286,167857,6,0,L|163:303,1,85,0|0,1:0|0:0,0:0:0:0:
333,330,168266,2,0,L|426:347,1,85,0|0,1:0|0:0,0:0:0:0:
186,213,168674,2,2,P|153:179|131:44,1,170,10|0,0:1|1:0,0:1:0:0:
256,286,169286,6,2,P|289:252|311:117,1,170,2|0,1:0|1:0,0:1:0:0:
379,3,169898,2,0,P|373:48|376:111,1,85,2|0,3:0|0:0,0:0:0:0:
241,176,170306,1,8,0:0:0:0:
245,86,170511,1,2,0:1:0:0:
434,149,170715,2,0,P|440:194|437:257,1,85,2|0,1:0|0:0,0:0:0:0:
498,344,171123,6,2,B|406:346|424:304|312:312,2,170,4|0|8,1:0|1:0|0:0,0:1:0:0:
498,344,172347,1,2,1:0:0:0:
324,236,172551,6,0,P|267:249|229:367,1,170,2|0,1:0|1:0,0:0:0:0:
151,378,173164,1,0,0:0:0:0:
302,328,173368,1,0,1:0:0:0:
170,189,173572,2,0,P|154:230|154:288,1,85,10|0,0:1|0:0,0:0:0:0:
272,156,173980,1,2,1:0:0:0:
50,86,174388,6,0,P|116:84|220:81,1,170,4|0,1:2|1:0,0:0:0:0:
219,81,175000,1,0,0:0:0:0:
367,4,175204,2,0,P|329:26|283:34,1,85,10|0,0:1|0:0,0:0:0:0:
324,220,175613,2,0,P|290:189|267:142,1,85,2|0,1:0|0:0,0:0:0:0:
387,149,176021,5,8,3:0:0:0:
300,317,176225,1,4,3:0:0:0:
132,230,176429,1,4,3:0:0:0:
219,62,176633,1,4,3:0:0:0:
248,173,176837,5,8,0:0:0:0:
255,206,176939,1,8,0:0:0:0:
249,239,177041,1,8,0:0:0:0:
231,268,177143,1,8,0:0:0:0:
202,286,177245,1,8,0:0:0:0:
179,311,177347,1,8,0:0:0:0:
171,344,177449,1,8,0:0:0:0:
143,364,177551,1,8,0:0:0:0:
109,360,177653,6,0,B|69:345|69:345|25:356,1,85,4|0,1:0|0:0,0:0:0:0:
358,298,178062,2,2,B|409:269|409:269|473:290,1,127.5,2|0,1:0|0:0,0:1:0:0:
474,290,178470,2,2,P|497:242|503:193,1,85,10|0,0:1|0:1,0:1:0:0:
382,66,178878,2,0,P|379:108|388:149,1,85,0|2,1:0|1:0,0:0:0:0:
451,29,179286,5,2,3:1:0:0:
299,7,179490,1,2,1:0:0:0:
169,69,179694,1,0,0:0:0:0:
54,37,179898,1,0,1:0:0:0:
241,133,180102,6,0,P|245:182|240:237,1,85,10|0,0:1|0:0,0:0:0:0:
79,362,180511,2,0,P|88:311|198:286,2,170,0|2|0,1:0|1:0|1:0,0:0:0:0:
151,384,181531,1,2,0:1:0:0:
55,278,181735,2,0,P|50:237|55:174,1,85,10|0,0:1|0:0,0:0:0:0:
183,49,182143,1,0,1:0:0:0:
256,75,182347,2,2,B|159:61|186:113|88:104,1,170,0|0,1:0|1:0,0:1:0:0:
21,45,182960,5,2,0:1:0:0:
173,136,183164,1,2,1:0:0:0:
7,221,183368,5,8,0:0:0:0:
88,200,183572,1,2,0:1:0:0:
336,331,183776,5,2,1:0:0:0:
155,270,183980,1,10,0:1:0:0:
216,384,184184,6,0,P|226:342|227:300,1,85,4|0,1:0|0:0,0:0:0:0:
321,75,184592,2,0,P|322:139|337:202,1,127.5,0|0,1:0|0:0,0:0:0:0:
336,200,185000,2,0,P|387:189|438:189,1,85,8|0,0:0|0:0,0:0:0:0:
112,169,185409,2,0,P|69:166|28:157,1,85,2|2,1:0|1:0,0:0:0:0:
166,106,185817,5,2,3:1:0:0:
190,237,186021,1,0,1:0:0:0:
58,262,186225,1,0,0:0:0:0:
33,130,186429,1,0,1:0:0:0:
199,245,186633,6,0,P|202:299|197:355,1,85,10|0,0:1|0:0,0:0:0:0:
25,139,187041,2,0,P|22:85|27:29,1,85,2|0,1:0|0:0,0:0:0:0:
266,187,187449,6,2,B|368:157|358:214|436:220,1,170,2|0,1:0|1:0,0:1:0:0:
492,181,188062,1,0,0:0:0:0:
189,329,188266,2,0,P|125:346|49:376,1,127.5,10|0,0:1|0:0,0:0:0:0:
67,367,188674,2,0,B|39:332|39:332|56:277,1,85,2|0,1:0|0:0,0:0:0:0:
236,244,189082,5,0,3:0:0:0:
279,236,189184,1,0,3:0:0:0:
323,253,189286,1,0,3:0:0:0:
356,282,189388,1,0,3:0:0:0:
362,325,189490,1,0,3:0:0:0:
386,342,189592,1,0,3:0:0:0:
427,370,189694,1,0,3:0:0:0:
481,359,189796,1,0,3:0:0:0:
496,328,189898,6,0,L|491:272,3,42.5,4|4|4|4,3:0|3:0|3:0|3:0,0:0:0:0:
509,247,190306,1,4,3:0:0:0:
269,371,190511,1,8,3:0:0:0:
269,371,190613,1,8,3:0:0:0:
269,371,190715,6,2,B|248:255|312:306|284:183,2,187.000005706787,4|0|8,1:0|1:0|0:0,0:1:0:0:
269,371,191939,1,0,1:0:0:0:
215,235,192143,6,2,P|190:166|75:133,1,187.000005706787,2|0,1:0|1:0,0:1:0:0:
23,80,192755,1,2,3:0:0:0:
118,224,192960,1,2,1:0:0:0:
216,26,193164,2,0,P|160:24|118:16,1,93.5000028533936,10|0,0:1|0:0,0:0:0:0:
281,137,193572,2,0,P|298:186|317:223,1,93.5000028533936,4|0,1:2|0:0,0:0:0:0:
402,370,193980,6,0,P|404:296|416:169,1,187.000005706787,4|0,1:0|1:0,0:0:0:0:
414,183,194592,1,0,0:0:0:0:
274,289,194796,2,0,P|227:294|166:309,1,93.5000028533936,8|0,0:0|0:0,0:0:0:0:
41,361,195204,1,2,1:0:0:0:
139,219,195409,1,2,1:0:0:0:
158,383,195613,1,2,3:0:0:0:
37,243,195817,1,0,1:0:0:0:
226,171,196021,6,0,P|223:221|224:276,1,93.5000028533936,2|0,0:1|1:0,0:0:0:0:
347,373,196429,1,10,0:1:0:0:
356,241,196633,1,2,0:1:0:0:
144,272,196837,1,0,1:0:0:0:
250,345,197041,1,0,0:0:0:0:
247,147,197245,6,2,B|260:109|260:109|229:59|229:59|253:12,1,140.25000428009,4|0,1:0|0:0,0:1:0:0:
248,22,197653,2,0,B|293:9|293:9|337:31,1,93.5000028533936,2|0,1:0|0:0,0:0:0:0:
161,107,198062,2,0,L|56:122,1,93.5000028533936,10|0,0:1|0:0,0:0:0:0:
68,120,198470,1,0,1:0:0:0:
230,217,198674,6,2,B|290:251|290:251|367:221,1,140.25000428009,2|0,1:0|0:0,0:1:0:0:
355,225,199082,2,0,B|373:272|373:272|355:322,1,93.5000028533936,0|2,1:0|0:1,0:0:0:0:
305,368,199490,1,2,1:0:0:0:
436,216,199694,1,10,0:1:0:0:
478,324,199898,1,0,0:0:0:0:
292,271,200102,1,2,1:0:0:0:
420,141,200306,1,0,0:0:0:0:
378,80,200511,6,2,B|344:190|420:158|394:294,2,203.999993774414,2|0|8,1:0|1:0|0:0,0:1:0:0:
393,6,201531,1,2,0:1:0:0:
467,21,201735,1,2,1:0:0:0:
452,95,201939,1,2,0:1:0:0:
325,155,202143,5,0,1:0:0:0:
198,29,202347,1,0,1:0:0:0:
307,3,202551,5,12,0:0:0:0:
249,197,202755,1,0,1:0:0:0:
347,79,202960,5,8,0:0:0:0:
140,107,203164,1,0,1:0:0:0:
361,66,203368,2,0,P|416:76|523:76,1,152.999995330811,4|0,1:0|0:0,0:0:0:0:
512,77,203776,6,2,P|404:81|336:199,1,255,0|0,0:0|0:0,0:1:0:0:
83,24,210306,6,0,P|38:15|-8:11,1,85,4|0,1:0|0:0,0:0:0:0:
185,104,210715,2,0,P|227:99|268:91,1,85,0|0,1:0|0:0,0:0:0:0:
76,174,211123,2,0,P|26:204|2:294,1,127.5,8|0,0:0|0:0,0:0:0:0:
0,265,211531,5,2,1:0:0:0:
147,364,211735,2,2,B|240:358|209:323|310:317,1,170,2|0,1:0|1:0,0:1:0:0:
510,355,212347,2,0,P|469:350|414:333,1,85,2|0,3:0|1:0,0:0:0:0:
367,177,212755,5,10,0:1:0:0:
339,83,212960,1,2,0:1:0:0:
461,12,213164,1,0,1:0:0:0:
433,105,213369,1,10,0:1:0:0:
220,88,213572,6,0,P|210:55|210:2,1,85,2|0,1:0|0:0,0:0:0:0:
357,174,213980,2,0,P|390:181|436:208,1,85,0|2,1:0|0:1,0:0:0:0:
155,243,214388,2,0,P|121:250|75:277,1,85,10|0,0:1|0:0,0:0:0:0:
330,384,214796,5,0,1:0:0:0:
257,362,215000,2,2,P|252:279|257:192,1,170,2|0,1:0|1:0,0:1:0:0:
326,57,215613,2,0,P|328:98|325:141,1,85,0|0,0:0|1:0,0:0:0:0:
155,214,216021,5,10,0:1:0:0:
11,191,216225,1,2,0:1:0:0:
32,47,216429,1,0,1:0:0:0:
175,69,216633,1,10,0:1:0:0:
0,208,216837,6,0,P|2:271|12:334,1,127.5,4|0,1:0|0:0,0:0:0:0:
12,334,217245,2,0,P|53:327|96:324,1,85,0|0,1:0|0:0,0:0:0:0:
298,271,217653,2,0,P|255:268|213:261,1,85,8|0,0:0|0:0,0:0:0:0:
164,205,218062,1,2,1:0:0:0:
389,223,218266,6,2,P|450:240|493:348,1,170,2|0,1:0|1:0,0:1:0:0:
348,384,218878,2,0,P|389:377|432:374,1,85,0|0,3:0|1:0,0:0:0:0:
497,234,219286,5,10,0:1:0:0:
512,161,219490,1,2,0:1:0:0:
469,101,219694,1,0,1:0:0:0:
395,92,219898,1,10,0:1:0:0:
253,20,220102,5,2,1:0:0:0:
253,20,220511,2,0,P|256:63|254:105,1,85,0|0,1:0|0:0,0:0:0:0:
37,224,220919,2,0,P|34:181|38:139,1,85,8|0,0:0|0:0,0:0:0:0:
100,94,221327,1,2,1:0:0:0:
244,242,221531,2,2,P|238:301|123:347,1,170,2|0,1:0|1:0,0:1:0:0:
4,324,222143,2,0,P|56:315|108:294,1,85,2|0,0:1|1:0,0:0:0:0:
355,348,222551,6,2,P|419:358|497:387,1,127.5,10|0,0:1|0:0,0:1:0:0:
481,383,222960,2,0,B|509:348|509:348|492:293,1,85,4|0,1:2|0:0,0:0:0:0:
410,110,223368,6,0,P|407:153|406:207,1,85,4|0,1:0|0:0,0:0:0:0:
280,292,223776,2,0,P|278:249|275:207,1,85,0|0,1:0|0:0,0:0:0:0:
214,32,224184,2,0,P|262:47|306:56,1,85,10|0,0:1|0:0,0:0:0:0:
364,25,224592,1,2,1:0:0:0:
216,156,224796,6,0,P|169:210|51:204,1,170,2|0,1:0|1:0,0:0:0:0:
15,110,225409,1,2,3:0:0:0:
15,110,225613,1,0,1:0:0:0:
22,283,225817,1,10,0:1:0:0:
89,141,226021,1,2,0:1:0:0:
2,187,226225,1,0,1:0:0:0:
137,266,226429,1,2,0:1:0:0:
281,210,226633,6,0,P|287:253|286:302,1,85,2|0,1:0|0:0,0:0:0:0:
204,384,227041,2,0,P|203:341|209:299,1,85,2|0,1:0|0:0,0:0:0:0:
362,222,227449,2,0,P|408:237|449:245,1,85,8|0,0:0|0:0,0:0:0:0:
286,294,227857,1,2,1:0:0:0:
202,225,228062,6,2,P|162:199|174:88,1,170,0|0,1:0|1:0,0:1:0:0:
244,122,228674,1,2,0:1:0:0:
292,58,228878,1,0,1:0:0:0:
81,6,229082,2,0,P|73:54|75:96,1,85,8|0,0:0|0:0,0:0:0:0:
202,225,229490,2,0,P|245:231|293:226,1,85,0|0,1:0|0:0,0:0:0:0:
504,64,229898,6,2,P|452:66|404:176,1,170,4|0,1:1|1:1,0:1:0:0:
399,159,230511,1,0,0:0:0:0:
441,296,230715,2,0,P|494:292|532:292,1,85,10|0,0:1|0:0,0:0:0:0:
369,242,231123,1,2,1:0:0:0:
310,290,231327,6,2,B|216:263|271:237|163:206,1,170,0|0,1:0|1:0,0:1:0:0:
99,238,231939,2,0,P|91:282|97:330,1,85,2|0,3:0|1:0,0:0:0:0:
156,371,232347,1,8,0:0:0:0:
20,177,232551,2,0,P|70:167|123:153,1,85,0|2,0:0|1:0,0:0:0:0:
301,73,232960,1,2,0:1:0:0:
149,0,233164,6,2,P|160:53|184:190,1,170,0|0,1:0|1:0,0:1:0:0:
335,381,233776,2,2,P|349:297|366:213,1,170,0|0,1:0|0:0,0:1:0:0:
28,274,234388,2,2,P|81:263|218:239,1,170,0|2,1:0|3:0,0:1:0:0:
195,242,235204,5,2,0:0:0:0:
220,320,235409,1,0,1:0:0:0:
277,193,235613,5,8,0:0:0:0:
108,153,235817,1,4,3:0:0:0:
141,298,236021,5,0,1:0:0:0:
239,111,236225,1,4,3:0:0:0:
63,42,236429,5,4,1:0:0:0:
63,42,236837,2,0,P|61:84|66:127,1,85,2|0,1:0|0:0,0:0:0:0:
249,198,237245,2,0,P|253:155|251:113,1,85,10|0,0:1|0:0,0:0:0:0:
120,275,237653,1,0,1:0:0:0:
120,275,237857,2,2,P|64:300|-1:390,1,170,2|0,1:0|1:0,0:1:0:0:
215,370,238470,2,0,P|166:350|128:351,1,85,2|0,3:0|1:0,0:0:0:0:
329,354,238878,5,10,0:1:0:0:
413,336,239082,1,2,0:1:0:0:
358,269,239286,1,0,1:0:0:0:
272,285,239490,1,0,0:0:0:0:
466,243,239694,6,0,P|469:205|464:147,1,85,4|0,1:0|0:0,0:0:0:0:
337,16,240102,2,0,P|333:58|336:100,1,85,2|0,1:0|0:0,0:0:0:0:
512,57,240511,2,0,P|469:53|427:56,1,85,8|0,0:0|0:0,0:0:0:0:
284,163,240919,1,2,1:0:0:0:
284,163,241123,2,2,P|221:141|209:43,1,170,0|0,1:0|1:0,0:1:0:0:
67,31,241735,1,2,3:0:0:0:
139,1,241939,1,0,1:0:0:0:
192,163,242143,5,10,0:1:0:0:
2,142,242347,1,2,0:1:0:0:
85,108,242551,2,0,B|98:150|98:150|84:189,1,85,4|0,1:2|0:0,0:0:0:0:
1,367,242960,6,0,P|44:297|126:288,2,170,4|0|8,1:0|1:0|0:0,0:0:0:0:
1,367,244184,1,0,1:0:0:0:
197,251,244388,2,2,B|293:231|268:287|363:274,1,170,2|0,1:0|1:0,0:1:0:0:
411,214,245000,1,2,3:0:0:0:
439,287,245204,1,0,1:0:0:0:
272,126,245409,5,10,0:1:0:0:
414,12,245613,1,2,0:1:0:0:
359,127,245817,2,0,P|345:81|348:38,1,85,0|0,1:0|0:0,0:0:0:0:
508,189,246225,6,0,P|511:241|416:290,1,170,4|0,1:0|1:0,0:0:0:0:
228,365,246837,2,0,P|276:353|317:349,1,85,2|8,0:1|0:0,0:0:0:0:
388,362,247245,1,0,0:0:0:0:
271,217,247449,2,0,P|245:166|242:40,1,170,2|0,1:0|1:0,0:0:0:0:
294,5,248062,1,2,1:0:0:0:
108,194,248266,6,0,P|60:211|-14:276,1,127.5,12|0,0:0|0:0,0:0:0:0:
0,257,248674,1,0,1:0:0:0:
321,119,248878,6,0,P|384:125|443:151,1,127.5,4|0,1:2|0:0,0:0:0:0:
442,150,249286,1,0,1:0:0:0:
246,65,249490,6,0,P|234:111|235:152,1,85,4|0,1:0|0:0,0:0:0:0:
394,288,249898,2,0,P|393:245|382:204,1,85,0|0,1:0|0:0,0:0:0:0:
180,207,250306,2,0,P|140:187|80:178,1,85,8|0,0:0|0:0,0:0:0:0:
100,178,250715,1,2,1:0:0:0:
198,351,250919,6,2,P|208:305|326:252,1,170,2|0,1:0|1:0,0:1:0:0:
382,204,251531,1,2,3:0:0:0:
394,288,251735,1,0,1:0:0:0:
253,168,251939,2,0,B|241:127|241:127|256:80,1,85,10|0,0:1|0:0,0:0:0:0:
420,90,252347,2,0,B|460:102|460:102|501:90,1,85,2|0,1:0|0:0,0:0:0:0:
312,3,252755,6,2,B|320:55|320:55|338:71|338:71|350:135,1,127.5,0|0,1:0|0:0,0:1:0:0:
347,120,253164,1,0,1:0:0:0:
185,122,253368,1,0,0:0:0:0:
259,276,253572,2,0,L|281:189,1,85,10|0,0:1|0:0,0:0:0:0:
185,122,253980,1,2,1:0:0:0:
33,229,254184,6,2,P|121:206|208:207,1,170,2|0,1:0|1:0,0:1:0:0:
358,240,254796,1,2,3:0:0:0:
287,359,255000,1,0,1:0:0:0:
374,234,255204,2,0,P|368:187|368:137,1,85,8|0,0:0|0:0,0:0:0:0:
512,319,255613,2,0,P|470:308|412:309,1,85,2|0,1:0|0:0,0:0:0:0:
378,63,256021,6,0,P|331:66|275:191,2,170,4|0|8,1:0|1:0|0:0,0:0:0:0:
442,122,257041,1,0,0:0:0:0:
496,53,257245,1,2,1:0:0:0:
487,193,257449,6,0,B|430:210|430:210|402:257|402:257|338:282,1,170,2|0,1:0|1:0,0:0:0:0:
275,373,258062,2,0,B|262:332|262:332|275:287,1,85,2|0,3:0|1:0,0:0:0:0:
319,203,258470,2,0,B|332:162|332:162|319:117,1,85,10|0,0:1|0:0,0:0:0:0:
84,181,258878,2,0,L|173:201,1,85,2|0,1:0|0:0,0:0:0:0:
350,277,259286,5,2,1:0:0:0:
350,277,259490,1,2,0:1:0:0:
206,129,259694,1,0,1:0:0:0:
206,129,259898,1,2,0:1:0:0:
192,350,260102,2,0,L|217:260,1,85,10|0,0:1|0:0,0:0:0:0:
286,107,260511,2,0,B|328:94|328:94|371:106,1,85,0|0,1:0|0:0,0:0:0:0:
211,31,260919,5,0,1:0:0:0:
306,205,261123,1,0,1:0:0:0:
296,28,261327,5,8,0:0:0:0:
119,151,261531,1,0,1:0:0:0:
143,0,261735,6,0,B|157:42|157:42|145:82,1,85,8|0,0:0|0:0,0:0:0:0:
239,326,262143,2,0,B|227:286|227:286|241:244,1,85,8|0,3:0|0:0,0:0:0:0:
403,154,262551,5,4,1:0:0:0:
256,192,262653,12,0,265817,0:0:0:0:
