osu file format v14

[General]
AudioFilename: audio.mp3
AudioLeadIn: 0
PreviewTime: 69361
Countdown: 1
SampleSet: Soft
StackLeniency: 0.7
Mode: 0
LetterboxInBreaks: 0
WidescreenStoryboard: 1

[Editor]
Bookmarks: 13179,61179,69907,139725,148452
DistanceSpacing: 0.8
BeatDivisor: 16
GridSize: 16
TimelineZoom: 3.899998

[Metadata]
Title:Beautiful Nightmare
TitleUnicode:Beautiful Nightmare
Artist:8#Prince
ArtistUnicode:八王子P
Creator:Zweib
Version:1/8
Source:
Tags:
BeatmapID:1298522
BeatmapSetID:615356

[Difficulty]
HPDrainRate:5
CircleSize:4
OverallDifficulty:8.8
ApproachRate:9.6
SliderMultiplier:2.4
SliderTickRate:1

[Events]
//Background and Video events
0,0,"bg.jpg",0,0
//Break Periods
2,65743,67216
2,139725,147943
//Storyboard Layer 0 (Background)
//Storyboard Layer 1 (Fail)
//Storyboard Layer 2 (Pass)
//Storyboard Layer 3 (Foreground)
//Storyboard Sound Samples

[TimingPoints]
89,545.454545454546,4,2,1,80,1,0
8816,-133.333333333333,4,2,1,50,0,0
15361,-100,4,2,1,50,0,0
16452,-80,4,2,1,50,0,0
16998,-333.333333333333,4,2,1,50,0,0
17543,-50,4,2,1,50,0,0
18089,-83.3333333333333,4,2,1,50,0,0
19725,-55.5555555555556,4,2,1,50,0,0
20816,-100,4,2,1,50,0,0
21907,-55.5555555555556,4,2,1,50,0,0
22452,-83.3333333333333,4,2,1,50,0,0
23134,-100,4,2,1,50,0,0
24089,-55.5555555555556,4,2,1,50,0,0
24770,-83.3333333333333,4,2,1,50,0,0
26270,-55.5555555555556,4,2,1,50,0,0
26816,-83.3333333333333,4,2,1,50,0,0
28452,-55.5555555555556,4,2,1,50,0,0
29543,-100,4,2,1,50,0,0
30634,-55.5555555555556,4,2,1,50,0,0
31725,-66.6666666666667,4,2,1,50,0,0
34998,-100,4,2,1,50,0,0
39361,-55.5555555555556,4,2,1,50,0,0
41543,-83.3333333333333,4,2,1,50,0,0
42907,-200,4,2,1,50,0,0
43725,-100,4,2,1,50,0,1
60634,-200,4,2,1,50,0,1
61179,-100,4,2,1,50,0,0
69907,-55.5555555555556,4,2,1,50,0,0
70452,-83.3333333333333,4,2,1,50,0,0
72089,-55.5555555555556,4,2,1,50,0,0
72907,-100,4,2,1,50,0,0
74270,-55.5555555555556,4,2,1,50,0,0
74816,-100,4,2,1,50,0,0
76452,-55.5555555555556,4,2,1,50,0,0
76998,-100,4,2,1,50,0,0
78634,-55.5555555555556,4,2,1,50,0,0
79316,-83.3333333333333,4,2,1,50,0,0
80816,-55.5555555555556,4,2,1,50,0,0
81361,-100,4,2,1,50,0,0
82998,-55.5555555555556,4,2,1,50,0,0
83543,-83.3333333333333,4,2,1,50,0,0
85179,-66.6666666666667,4,2,1,50,0,0
86270,-100,4,2,1,50,0,0
91725,-55.5555555555556,4,2,1,50,0,0
93907,-83.3333333333333,4,2,1,50,0,0
95270,-200,4,2,1,50,0,0
96089,-100,4,2,1,50,0,1
113543,-83.3333333333333,4,2,1,50,0,0
130452,-66.6666666666667,4,2,1,50,0,0
130998,-83.3333333333333,4,2,1,50,0,0
135361,-55.5555555555556,4,2,1,50,0,0
137543,-83.3333333333333,4,2,1,50,0,0
138634,-200,4,2,1,50,0,0
138907,-83.3333333333333,4,2,1,50,0,0
148452,-133.333333333333,4,2,1,50,0,0
152816,-83.3333333333333,4,2,1,50,0,0
156361,-133.333333333333,4,2,1,50,0,0
157179,-100,4,2,1,50,0,1
174089,-133.333333333333,4,2,1,50,0,1
174634,-83.3333333333333,4,2,1,50,0,0

[Colours]
Combo1 : 164,170,181
Combo2 : 105,163,157
Combo3 : 191,132,125
Combo4 : 177,107,151

[HitObjects]
21,114,89,6,0,P|73:76|142:115,1,120,4|0,0:0|0:0,0:0:0:0:
363,318,498,2,0,P|452:329|492:226,1,180,2|0,0:0|0:0,0:0:0:0:
405,28,1179,6,0,P|443:78|437:138,1,120,2|0,0:0|0:0,0:0:0:0:
74,375,1589,2,0,P|43:318|150:245,1,180,2|0,0:0|0:0,0:0:0:0:
271,236,2270,6,0,P|246:195|227:240,1,120,2|0,0:0|0:0,0:0:0:0:
309,139,2679,2,0,P|233:166|209:89,1,180,2|0,0:0|0:0,0:0:0:0:
70,59,3361,6,0,P|92:100|50:190,1,120,2|0,0:0|0:0,0:0:0:0:
447,238,3770,2,0,P|416:187|429:116,2,120,2|2|0,0:0|0:0|0:0,0:0:0:0:
239,263,4452,6,0,P|215:313|228:375,1,120,2|0,0:0|0:0,0:0:0:0:
276,135,4861,2,0,P|298:54|225:16,1,180,2|0,0:0|0:0,0:0:0:0:
22,282,5543,6,0,P|85:269|130:306,1,120,2|0,0:0|0:0,0:0:0:0:
474,213,5952,2,0,P|407:203|354:245,2,120,2|2|0,0:0|0:0|0:0,0:0:0:0:
245,255,6634,6,0,L|237:173,1,60,0|2,0:0|0:0,0:0:0:0:
293,92,6907,1,0,0:0:0:0:
140,181,7043,2,0,P|221:158|170:106,1,180,2|2,0:0|0:0,0:0:0:0:
48,45,7725,5,2,0:0:0:0:
140,181,7861,5,0,0:0:0:0:
409,62,8134,5,2,0:0:0:0:
313,235,8407,6,0,L|304:366,1,120,2|0,0:0|0:0,0:0:0:0:
208,330,8816,6,0,L|165:315,1,45.0000017166138,4|0,0:0|0:0,0:0:0:0:
447,287,9089,2,0,L|406:271,1,45.0000017166138
222,211,9361,2,0,L|209:143,3,45.0000017166138,8|0|0|0,0:0|0:0|0:0|0:0,0:0:0:0:
49,197,9907,6,0,L|99:219,1,45.0000017166138
177,72,10179,2,0,L|242:48,1,45.0000017166138
335,153,10452,2,0,L|402:181,3,45.0000017166138,8|0|0|0,0:0|0:0|0:0|0:0,0:0:0:0:
241,302,10998,6,0,L|234:369,1,45.0000017166138
124,262,11270,2,0,L|93:304,1,45.0000017166138
345,241,11543,2,0,L|441:273,1,90.0000034332277,8|0,0:0|0:0,0:0:0:0:
231,275,11952,1,0,0:0:0:0:
188,165,12089,6,0,L|183:102,1,45.0000017166138
273,98,12361,2,0,L|274:54,1,45.0000017166138
375,71,12634,2,0,L|398:7,1,45.0000017166138,8|0,0:0|0:0,0:0:0:0:
472,80,12907,2,0,L|506:51,1,45.0000017166138
259,229,13179,6,0,L|268:273,1,45.0000017166138
397,243,13452,2,0,L|465:232,1,45.0000017166138
141,221,13725,2,0,L|11:196,1,90.0000034332277,8|0,0:0|0:0,0:0:0:0:
208,161,14134,1,0,0:0:0:0:
221,74,14270,6,0,L|213:13,1,45.0000017166138
314,121,14543,2,0,L|375:110,1,45.0000017166138
124,109,14816,2,0,L|61:119,1,45.0000017166138,8|0,0:0|0:0,0:0:0:0:
341,207,15089,2,0,L|352:275,1,45.0000017166138
224,275,15361,6,0,L|74:285,1,120,2|8,0:0|0:0,0:0:0:0:
4,292,15770,1,0,0:0:0:0:
286,189,15907,2,0,L|439:180,1,120,2|8,0:0|0:0,0:0:0:0:
501,176,16316,1,0,0:0:0:0:
169,177,16452,6,0,L|173:268,1,75,2|0,0:0|0:0,0:0:0:0:
352,76,16725,2,0,L|356:167,1,75,2|0,0:0|0:0,0:0:0:0:
24,165,16998,6,0,L|26:214,1,35.9999989013672,2|0,0:0|0:0,0:0:0:0:
26,201,17407,1,0,0:0:0:0:
230,298,17543,6,0,B|212:311|212:311|15:317|15:317|0:330,1,240,4|0,0:0|0:0,0:0:0:0:
183,206,17952,1,0,0:0:0:0:
288,368,18089,1,8,0:0:0:0:
358,286,18225,2,0,L|350:214,1,71.9999978027344,0|2,0:0|0:0,0:0:0:0:
456,338,18498,1,0,0:0:0:0:
501,199,18634,6,0,P|507:163|508:127,1,71.9999978027344,2|0,0:0|0:0,0:0:0:0:
238,246,18907,1,2,0:0:0:0:
500,199,19043,1,2,0:0:0:0:
335,20,19179,5,8,0:0:0:0:
276,156,19316,1,0,0:0:0:0:
335,20,19452,5,2,0:0:0:0:
276,156,19589,1,0,0:0:0:0:
155,89,19725,6,0,P|102:76|16:111,1,143.999995605469,2|0,0:0|0:0,0:0:0:0:
390,234,19998,2,0,B|480:248|519:195|519:195|474:272,1,215.999993408203,0|8,0:0|0:0,0:0:0:0:
300,328,20407,5,8,0:0:0:0:
175,250,20543,1,8,0:0:0:0:
300,328,20679,1,8,0:0:0:0:
394,236,20816,6,0,L|377:224,1,15,2|0,0:0|0:0,0:0:0:0:
385,197,20884,6,0,L|361:188,1,15
370,162,20952,6,0,L|350:167,1,15
345,134,21020,6,0,L|327:153,1,15
308,118,21089,6,0,L|302:136,1,15
268,112,21157,6,0,L|261:133,1,15
234,115,21225,6,0,L|235:133,1,15,2|0,0:0|0:0,0:0:0:0:
200,129,21293,6,0,L|209:145,1,15
175,154,21361,6,0,L|164:88,1,60,8|0,0:0|0:0,0:0:0:0:
429,91,21634,2,0,L|445:21,1,60
285,333,21907,6,0,P|176:308|212:233,1,215.999993408203,6|0,0:0|0:0,0:0:0:0:
309,51,22316,1,0,0:0:0:0:
466,293,22452,2,0,L|451:363,1,71.9999978027344,8|0,0:0|0:0,0:0:0:0:
493,172,22725,1,2,0:0:0:0:
253,303,22861,2,0,L|348:289,1,71.9999978027344,0|2,0:0|0:0,0:0:0:0:
59,312,23134,6,0,L|1:324,1,60
173,185,23407,1,2,0:0:0:0:
74,120,23543,2,0,L|15:131,1,60,8|0,0:0|0:0,0:0:0:0:
89,228,23816,5,2,0:0:0:0:
341,277,23952,1,0,0:0:0:0:
324,19,24089,6,0,P|261:15|194:66,1,143.999995605469
248,367,24361,2,0,P|325:274|243:249,1,215.999993408203,0|8,0:0|0:0,0:0:0:0:
169,264,24770,5,8,0:0:0:0:
323,151,24907,1,8,0:0:0:0:
358,337,25043,1,8,0:0:0:0:
105,351,25179,6,0,L|82:336,12,17.9999994506836,2|0|0|0|0|0|0|0|0|0|0|0|0,0:0|0:0|0:0|0:0|0:0|0:0|0:0|0:0|0:0|0:0|0:0|0:0|0:0,0:0:0:0:
16,231,25725,5,8,0:0:0:0:
229,369,25861,1,8,0:0:0:0:
292,119,25998,5,8,0:0:0:0:
110,288,26134,1,8,0:0:0:0:
468,349,26270,6,0,B|544:302|536:217|470:177|387:191|372:259|372:259|411:328,1,323.999990112305,6|0,0:0|0:0,0:0:0:0:
287,337,26816,1,8,0:0:0:0:
277,230,26952,6,0,L|269:131,1,71.9999978027344,0|2,0:0|0:0,0:0:0:0:
482,163,27225,2,0,L|487:91,1,71.9999978027344,0|2,0:0|0:0,0:0:0:0:
259,0,27497,1,0,0:0:0:0:
366,271,27634,5,0,0:0:0:0:
96,264,27770,1,2,0:0:0:0:
260,290,27907,5,8,0:0:0:0:
3,217,28043,1,0,0:0:0:0:
240,205,28179,5,2,0:0:0:0:
112,347,28316,1,0,0:0:0:0:
0,129,28452,6,0,B|23:95|23:95|96:64|157:99|157:99|139:61,2,215.999993408203,2|0|8,0:0|0:0|0:0,0:0:0:0:
20,373,29134,5,8,0:0:0:0:
195,360,29271,1,8,0:0:0:0:
88,202,29407,1,8,0:0:0:0:
183,275,29544,6,0,L|170:297,1,15,2|0,0:0|0:0,0:0:0:0:
221,262,29611,6,0,L|217:284,1,15
257,254,29679,6,0,L|255:280,1,15
295,255,29748,6,0,L|296:282,1,15
333,256,29816,6,0,L|338:280,1,15
371,259,29884,6,0,L|382:284,1,15
406,266,29952,6,0,L|415:289,1,15,2|0,0:0|0:0,0:0:0:0:
443,276,30020,6,0,L|457:295,1,15
456,241,30089,6,0,L|520:265,1,60,8|0,0:0|0:0,0:0:0:0:
305,168,30362,2,0,L|361:147,1,60
19,269,30634,6,0,P|92:270|175:286,1,143.999995605469,6|0,0:0|0:0,0:0:0:0:
296,46,30907,2,0,P|178:66|147:66,1,143.999995605469
28,24,31180,5,8,0:0:0:0:
64,149,31317,1,0,0:0:0:0:
167,214,31452,1,2,0:0:0:0:
296,237,31589,1,0,0:0:0:0:
440,160,31725,5,2,0:0:0:0:
377,208,31861,1,0,0:0:0:0:
362,286,31998,1,0,0:0:0:0:
389,360,32134,1,2,0:0:0:0:
506,280,32270,5,8,0:0:0:0:
477,259,32407,1,0,0:0:0:0:
462,289,32544,1,2,0:0:0:0:
488,306,32680,1,0,0:0:0:0:
20,220,32816,6,0,L|13:48,1,157.500006008148,2|0,0:0|0:0,0:0:0:0:
14,63,33089,2,0,L|136:175,1,157.500006008148
130,169,33361,2,0,P|183:121|267:149,1,157.500006008148,8|0,0:0|0:0,0:0:0:0:
260,143,33634,1,8,0:0:0:0:
329,25,33770,1,8,0:0:0:0:
493,165,33907,6,0,L|517:171,12,22.5000008583069,2|0|0|0|0|0|0|0|0|0|0|0|0,0:0|0:0|0:0|0:0|0:0|0:0|0:0|0:0|0:0|0:0|0:0|0:0|0:0,0:0:0:0:
497,66,34453,5,8,0:0:0:0:
432,238,34589,1,8,0:0:0:0:
497,66,34726,5,8,0:0:0:0:
432,238,34862,1,8,0:0:0:0:
176,93,34998,6,0,L|164:2,1,60,2|0,0:0|0:0,0:0:0:0:
336,291,35270,2,0,L|348:382,1,60,2|0,0:0|0:0,0:0:0:0:
157,272,35543,2,0,L|97:279,1,60,2|0,0:0|0:0,0:0:0:0:
355,112,35815,2,0,L|414:104,1,60,2|0,0:0|0:0,0:0:0:0:
112,170,36089,6,0,P|76:115|96:45,1,120,2|8,0:0|0:0,0:0:0:0:
192,4,36498,1,0,0:0:0:0:
254,203,36634,2,0,L|238:299,1,60,2|0,0:0|0:0,0:0:0:0:
122,326,36907,1,8,0:0:0:0:
399,288,37043,1,8,0:0:0:0:
349,139,37179,6,0,L|365:55,1,60,2|0,0:0|0:0,0:0:0:0:
137,81,37452,2,0,L|159:162,1,60,2|0,0:0|0:0,0:0:0:0:
388,270,37725,2,0,L|487:283,1,60,2|0,0:0|0:0,0:0:0:0:
116,266,37998,2,0,L|26:285,1,60,2|0,0:0|0:0,0:0:0:0:
352,126,38270,6,0,L|433:106,1,60,2|0,0:0|0:0,0:0:0:0:
512,146,38543,1,8,0:0:0:0:
257,198,38679,2,0,L|245:107,1,60,8|2,0:0|0:0,0:0:0:0:
277,13,38952,5,8,0:0:0:0:
16,101,39089,1,8,0:0:0:0:
277,13,39225,1,8,0:0:0:0:
161,265,39361,6,0,L|157:146,1,107.999996704102,2|8,0:0|0:0,0:0:0:0:
354,206,39634,2,0,L|350:87,1,107.999996704102,2|8,0:0|0:0,0:0:0:0:
503,352,39907,2,0,L|499:233,1,107.999996704102,2|8,0:0|0:0,0:0:0:0:
24,326,40179,2,0,L|20:207,1,107.999996704102,2|8,0:0|0:0,0:0:0:0:
0,11,40452,5,8,0:0:0:0:
68,145,40589,1,8,0:0:0:0:
179,175,40725,1,8,0:0:0:0:
252,160,40861,1,8,0:0:0:0:
290,139,40998,5,8,0:0:0:0:
308,127,41134,5,8,0:0:0:0:
322,125,41270,5,8,0:0:0:0:
328,126,41407,5,8,0:0:0:0:
490,169,41543,6,0,P|431:203|353:196,1,143.999995605469,2|8,0:0|0:0,0:0:0:0:
258,44,41952,1,2,0:0:0:0:
55,192,42089,6,0,P|127:143|198:150,1,143.999995605469,2|8,0:0|0:0,0:0:0:0:
314,122,42498,1,2,0:0:0:0:
279,276,42634,1,2,0:0:0:0:
279,276,42907,6,0,L|275:234,1,30
279,276,43179,2,0,P|226:290|250:321,1,90
379,303,43725,6,0,L|499:288,1,120,6|8,0:0|0:0,0:0:0:0:
306,361,44134,1,0,0:0:0:0:
403,187,44270,1,2,0:0:0:0:
275,227,44407,2,0,L|268:165,1,60,0|8,0:0|0:0,0:0:0:0:
314,83,44679,1,0,0:0:0:0:
172,170,44816,5,2,0:0:0:0:
344,275,44952,1,0,0:0:0:0:
185,197,45089,2,0,L|44:222,1,120,8|2,0:0|0:0,0:0:0:0:
0,129,45498,1,0,0:0:0:0:
63,322,45634,2,0,L|41:399,1,60,8|0,0:0|0:0,0:0:0:0:
286,97,45907,6,0,P|260:23|194:1,1,120,2|8,0:0|0:0,0:0:0:0:
213,181,46316,1,0,0:0:0:0:
421,219,46452,2,0,P|368:206|308:230,1,120,2|8,0:0|0:0,0:0:0:0:
413,102,46861,1,0,0:0:0:0:
373,311,46998,6,0,L|383:370,1,60,2|8,0:0|0:0,0:0:0:0:
512,176,47270,1,8,0:0:0:0:
491,296,47407,1,8,0:0:0:0:
287,248,47543,2,0,L|271:190,1,60
133,226,47816,2,0,L|57:243,1,60,8|0,0:0|0:0,0:0:0:0:
396,320,48089,6,0,L|419:232,1,60,2|0,0:0|0:0,0:0:0:0:
397,148,48361,1,8,0:0:0:0:
234,316,48498,1,0,0:0:0:0:
240,178,48634,2,0,L|223:101,1,60,2|0,0:0|0:0,0:0:0:0:
431,240,48907,2,0,L|505:275,1,60,8|0,0:0|0:0,0:0:0:0:
316,238,49179,5,2,0:0:0:0:
220,277,49316,1,0,0:0:0:0:
119,315,49452,2,0,L|103:231,1,60,8|8,0:0|0:0,0:0:0:0:
102,241,49657,1,0,0:0:0:0:
97,225,49725,6,0,L|118:141,1,60,2|0,0:0|0:0,0:0:0:0:
0,79,49998,2,0,L|15:154,1,60,8|0,0:0|0:0,0:0:0:0:
329,153,50270,6,0,L|312:79,1,60,2|0,0:0|0:0,0:0:0:0:
456,65,50543,2,0,L|435:137,1,60,8|0,0:0|0:0,0:0:0:0:
250,357,50816,6,0,L|234:281,1,60,2|8,0:0|0:0,0:0:0:0:
207,178,51089,1,8,0:0:0:0:
356,267,51225,1,8,0:0:0:0:
104,269,51361,5,2,0:0:0:0:
13,246,51498,1,8,0:0:0:0:
207,178,51634,1,8,0:0:0:0:
300,196,51770,1,8,0:0:0:0:
361,66,51907,5,2,0:0:0:0:
272,104,52044,1,8,0:0:0:0:
178,85,52180,1,8,0:0:0:0:
108,19,52316,1,8,0:0:0:0:
207,178,52452,6,0,L|205:265,1,60,2|0,0:0|0:0,0:0:0:0:
158,313,52725,1,0,0:0:0:0:
327,232,52861,1,0,0:0:0:0:
79,136,52998,1,8,0:0:0:0:
385,171,53134,2,0,L|318:197,1,60,0|2,0:0|0:0,0:0:0:0:
305,320,53407,1,0,0:0:0:0:
273,112,53543,5,2,0:0:0:0:
479,244,53679,1,0,0:0:0:0:
449,70,53816,1,0,0:0:0:0:
314,286,53952,1,2,0:0:0:0:
164,177,54089,2,0,L|142:58,1,120,8|2,0:0|0:0,0:0:0:0:
22,1,54498,1,0,0:0:0:0:
16,221,54634,6,0,L|-6:300,1,60,2|0,0:0|0:0,0:0:0:0:
133,138,54907,1,0,0:0:0:0:
151,289,55043,1,0,0:0:0:0:
269,209,55179,6,0,L|284:360,1,120,8|8,0:0|0:0,0:0:0:0:
370,340,55589,1,8,0:0:0:0:
512,124,55725,5,2,0:0:0:0:
500,262,55861,1,0,0:0:0:0:
343,159,55998,1,0,0:0:0:0:
379,311,56134,1,2,0:0:0:0:
464,58,56270,2,0,P|487:113|473:174,1,120,8|2,0:0|0:0,0:0:0:0:
388,286,56679,1,0,0:0:0:0:
400,261,56816,6,0,L|330:268,1,60,2|0,0:0|0:0,0:0:0:0:
109,208,57089,2,0,L|219:199,1,60,2|0,0:0|0:0,0:0:0:0:
389,111,57361,6,0,L|307:149,1,60,2|0,0:0|0:0,0:0:0:0:
91,338,57634,2,0,L|165:300,1,60,2|0,0:0|0:0,0:0:0:0:
213,148,57907,1,2,0:0:0:0:
259,292,58043,1,0,0:0:0:0:
53,195,58179,2,0,L|26:108,1,60,2|0,0:0|0:0,0:0:0:0:
364,91,58452,6,0,P|345:171|293:167,1,120,2|2,0:0|0:0,0:0:0:0:
231,257,58861,1,0,0:0:0:0:
165,151,58998,5,2,0:0:0:0:
45,345,59134,1,2,0:0:0:0:
222,160,59270,5,2,0:0:0:0:
167,349,59407,1,2,0:0:0:0:
273,142,59543,5,2,0:0:0:0:
310,324,59679,1,2,0:0:0:0:
311,104,59816,5,2,0:0:0:0:
426,282,59952,1,2,0:0:0:0:
241,106,60089,5,2,0:0:0:0:
270,340,60225,1,2,0:0:0:0:
151,73,60361,5,2,0:0:0:0:
60,369,60498,1,2,0:0:0:0:
40,12,60634,6,0,P|34:54|55:142,1,120,8|4,0:0|0:0,0:0:0:0:
256,192,61316,12,0,65543,0:0:0:0:
256,192,67725,12,0,69634,0:0:0:0:
122,206,69907,6,0,B|87:215|87:215|125:82|125:82|147:131,1,215.999993408203,6|0,0:0|0:0,0:0:0:0:
177,286,70316,1,0,0:0:0:0:
0,240,70452,1,8,0:0:0:0:
245,163,70589,2,0,P|254:128|251:87,2,71.9999978027344,0|2|0,0:0|0:0|0:0,0:0:0:0:
46,380,70998,6,0,P|44:344|53:309,1,71.9999978027344,2|0,0:0|0:0,0:0:0:0:
237,276,71271,5,0,0:0:0:0:
466,332,71407,1,2,0:0:0:0:
353,214,71543,5,8,0:0:0:0:
342,357,71680,1,0,0:0:0:0:
353,214,71816,1,2,0:0:0:0:
216,384,71953,1,0,0:0:0:0:
438,162,72089,6,0,B|550:144|550:144|517:184,1,143.999995605469,2|0,0:0|0:0,0:0:0:0:
222,292,72361,2,0,B|72:262|72:262|151:238,1,215.999993408203,0|8,0:0|0:0,0:3:0:0:
342,106,72771,1,8,0:0:0:0:
342,106,72907,5,8,0:0:0:0:
342,106,73043,1,8,0:0:0:0:
470,292,73179,6,0,L|491:299,1,15,2|0,0:0|0:0,0:0:0:0:
439,277,73248,6,0,L|454:290,1,15
403,270,73316,6,0,L|421:290,1,15
366,273,73384,6,0,L|376:298,1,15
331,280,73452,6,0,L|339:303,1,15
298,295,73520,6,0,L|304:322,1,15
270,316,73589,6,0,L|271:337,1,15,2|2,0:0|0:0,0:0:0:0:
249,344,73656,6,0,L|242:367,1,15
219,339,73725,6,0,L|143:333,1,60,8|0,0:0|0:0,0:0:0:0:
423,139,73998,2,0,L|496:122,1,60
137,167,74270,6,0,P|93:66|181:88,1,215.999993408203,6|0,0:0|0:0,0:0:0:0:
275,15,74680,1,0,0:0:0:0:
362,217,74816,1,8,0:0:0:0:
116,312,74952,2,0,L|105:391,1,60,0|2,0:0|0:0,0:0:0:0:
219,217,75225,2,0,L|243:273,1,60,0|2,0:0|0:0,0:0:0:0:
134,17,75497,5,0,0:0:0:0:
59,233,75634,2,0,L|0:244,1,60,0|2,0:0|0:0,0:0:0:0:
378,159,75907,1,8,0:0:0:0:
152,103,76043,5,0,0:0:0:0:
196,307,76180,1,2,0:0:0:0:
266,135,76316,1,0,0:0:0:0:
296,366,76452,6,0,P|366:323|318:305,1,143.999995605469,2|0,0:0|0:0,0:0:0:0:
80,185,76725,2,0,P|28:207|48:146,1,143.999995605469
226,36,76998,1,8,0:0:0:0:
173,285,77134,5,8,0:0:0:0:
323,151,77271,1,8,0:0:0:0:
358,337,77407,1,8,0:0:0:0:
70,342,77543,6,0,L|52:335,12,15,2|0|0|0|0|0|0|0|0|0|0|0|2,0:0|0:0|0:0|0:0|0:0|0:0|0:0|0:0|0:0|0:0|0:0|0:0|0:0,0:0:0:0:
123,178,78089,5,8,0:0:0:0:
191,382,78225,1,0,0:0:0:0:
123,178,78362,5,0,0:0:0:0:
191,382,78498,1,0,0:0:0:0:
441,353,78634,6,0,B|477:327|543:324|543:324|472:313|434:260,1,215.999993408203,6|0,0:0|0:0,0:0:0:0:
344,304,79043,1,0,0:0:0:0:
512,198,79179,1,8,0:0:0:0:
340,166,79316,6,0,L|332:67,1,71.9999978027344,0|2,0:0|0:0,0:0:0:0:
254,8,79589,1,0,0:0:0:0:
176,327,79725,2,0,L|182:256,1,71.9999978027344,2|0,0:0|0:0,0:0:0:0:
230,103,79998,5,0,0:0:0:0:
272,283,80134,1,2,0:0:0:0:
56,237,80270,5,8,0:0:0:0:
321,189,80407,1,0,0:0:0:0:
56,237,80543,5,2,0:0:0:0:
321,189,80680,1,0,0:0:0:0:
258,81,80816,6,0,P|179:107|106:125,1,143.999995605469,2|0,0:0|0:0,0:0:0:0:
375,286,81089,2,0,P|454:260|527:242,1,143.999995605469
422,85,81361,5,8,0:0:0:0:
238,302,81499,1,0,0:0:0:0:
422,85,81635,5,2,0:0:0:0:
238,302,81771,1,0,0:0:0:0:
343,245,81907,2,0,L|330:223,1,15,2|0,0:0|0:0,0:0:0:0:
344,210,81976,6,0,L|330:201,1,15,2|0,0:0|0:0,0:0:0:0:
331,173,82043,6,0,L|309:164,1,15
304,145,82111,6,0,L|286:151,1,15
270,127,82179,6,0,L|252:140,1,15
228,127,82247,6,0,L|220:140,1,15
188,135,82316,6,0,L|182:153,1,15,2|0,0:0|0:0,0:0:0:0:
154,154,82384,6,0,L|164:177,1,15
131,175,82452,6,0,L|53:169,1,60,8|0,0:0|0:0,0:0:0:0:
238,265,82726,2,0,L|224:323,1,60
355,113,82998,6,0,L|203:85,1,143.999995605469,6|0,0:0|0:0,0:0:0:0:
487,270,83270,2,0,L|512:120,1,143.999995605469
345,362,83544,1,8,0:0:0:0:
276,256,83679,5,0,0:0:0:0:
438,346,83816,1,2,0:0:0:0:
256,379,83953,1,0,0:0:0:0:
372,203,84089,2,0,L|364:114,1,71.9999978027344,2|0,0:0|0:0,0:0:0:0:
345,362,84362,1,0,0:0:0:0:
175,341,84498,2,0,L|91:330,1,71.9999978027344,2|8,0:0|0:0,0:0:0:0:
90,130,84771,1,0,0:0:0:0:
0,320,84908,1,2,0:0:0:0:
239,258,85044,1,0,0:0:0:0:
383,42,85179,6,0,B|334:18|334:18|221:51,1,157.500006008148,2|0,0:0|0:0,0:0:0:0:
235,46,85452,2,0,B|285:93|285:93|288:195,1,157.500006008148
287,181,85725,2,0,B|382:159|382:159|362:226,1,157.500006008148,8|0,0:0|0:0,0:0:0:0:
364,216,85998,5,8,0:0:0:0:
180,195,86134,1,8,0:0:0:0:
47,334,86270,6,0,L|40:357,12,15,2|0|0|0|0|0|0|0|0|0|0|0|2,0:0|0:0|0:0|0:0|0:0|0:0|0:0|0:0|0:0|0:0|0:0|0:0|0:0,0:0:0:0:
16,231,86817,5,8,0:0:0:0:
229,369,86953,1,0,0:0:0:0:
292,119,87090,5,0,0:0:0:0:
110,288,87226,1,0,0:0:0:0:
430,243,87362,6,0,L|509:223,1,60,2|0,0:0|0:0,0:0:0:0:
275,240,87634,2,0,L|288:308,1,60,2|0,0:0|0:0,0:0:0:0:
363,121,87907,2,0,L|436:100,1,60,2|0,0:0|0:0,0:0:0:0:
147,317,88180,2,0,L|65:300,1,60,2|0,0:0|0:0,0:0:0:0:
130,59,88452,2,0,P|124:117|159:165,1,120,2|8,0:0|0:0,0:0:0:0:
223,11,88862,1,0,0:0:0:0:
269,238,88998,2,0,L|186:251,1,60,2|0,0:0|0:0,0:0:0:0:
78,273,89271,1,8,0:0:0:0:
446,381,89407,1,8,0:0:0:0:
423,268,89543,6,0,L|439:195,1,60,2|0,0:0|0:0,0:0:0:0:
332,55,89816,2,0,L|397:93,1,60,2|0,0:0|0:0,0:0:0:0:
134,348,90089,2,0,L|76:316,1,60,2|0,0:0|0:0,0:0:0:0:
265,199,90362,2,0,L|249:265,1,60,2|0,0:0|0:0,0:0:0:0:
141,127,90634,6,0,L|125:49,1,60,2|0,0:0|0:0,0:0:0:0:
0,68,90907,1,8,0:0:0:0:
284,8,91043,1,8,0:0:0:0:
163,253,91179,5,2,0:0:0:0:
284,8,91316,1,8,0:0:0:0:
362,205,91453,1,8,0:0:0:0:
454,48,91589,1,8,0:0:0:0:
252,156,91725,6,0,L|265:274,1,107.999996704102,2|8,0:0|0:0,0:0:0:0:
465,217,91998,2,0,L|478:335,1,107.999996704102,2|8,0:0|0:0,0:0:0:0:
0,267,92270,2,0,L|13:385,1,107.999996704102,2|8,0:0|0:0,0:0:0:0:
130,30,92543,2,0,L|143:148,1,107.999996704102,0|8,0:0|0:0,0:0:0:0:
181,344,92816,5,8,0:0:0:0:
355,144,92953,5,8,0:0:0:0:
315,314,93089,5,8,0:0:0:0:
315,314,93225,5,8,0:0:0:0:
315,314,93362,5,8,0:0:0:0:
315,314,93498,5,8,0:0:0:0:
315,314,93634,5,8,0:0:0:0:
315,314,93771,5,8,0:0:0:0:
164,236,93907,6,0,P|95:254|27:236,1,143.999995605469,2|8,0:0|0:0,0:0:0:0:
238,89,94316,1,2,0:0:0:0:
504,219,94453,2,0,P|435:204|368:226,1,143.999995605469,2|8,0:0|0:0,0:0:0:0:
214,348,94862,1,2,0:0:0:0:
142,91,94998,1,2,0:0:0:0:
410,129,95271,6,0,P|410:105|407:90,1,30,2|0,0:0|0:0,0:0:0:0:
50,28,95543,6,0,P|48:74|46:129,1,90
165,165,96089,6,0,L|300:157,1,120,6|8,0:0|0:0,0:0:0:0:
342,86,96498,1,0,0:0:0:0:
237,297,96634,2,0,L|205:215,1,60,2|0,0:0|0:0,0:0:0:0:
76,88,96907,2,0,L|56:177,1,60,8|0,0:0|0:0,0:0:0:0:
17,308,97180,5,2,0:0:0:0:
246,378,97316,1,0,0:0:0:0:
470,295,97452,2,0,L|481:198,1,60,8|8,0:0|0:0,0:0:0:0:
374,158,97657,1,0,0:0:0:0:
357,170,97725,2,0,L|346:249,1,60,2|0,0:0|0:0,0:0:0:0:
416,377,97998,1,8,0:0:0:0:
469,84,98134,1,0,0:0:0:0:
270,269,98271,6,0,L|133:311,1,120,2|8,0:0|0:0,0:0:0:0:
265,13,98680,1,0,0:0:0:0:
358,83,98816,2,0,L|372:210,1,120,2|8,0:0|0:0,0:0:0:0:
360,306,99225,1,0,0:0:0:0:
217,180,99362,6,0,L|226:112,1,60,2|8,0:0|0:0,0:0:0:0:
113,54,99634,1,8,0:0:0:0:
319,154,99771,1,8,0:0:0:0:
70,244,99907,2,0,L|13:224,1,60,2|0,0:0|0:0,0:0:0:0:
210,318,100180,2,0,L|134:335,1,60,8|0,0:0|0:0,0:0:0:0:
355,333,100452,6,0,L|377:257,1,60,2|0,0:0|0:0,0:0:0:0:
430,184,100725,1,8,0:0:0:0:
283,233,100862,1,0,0:0:0:0:
130,285,100998,2,0,L|64:308,1,60,2|0,0:0|0:0,0:0:0:0:
413,318,101271,2,0,L|487:353,1,60,8|0,0:0|0:0,0:0:0:0:
512,231,101543,5,2,0:0:0:0:
257,362,101680,1,0,0:0:0:0:
352,163,101816,2,0,L|341:87,1,60,8|8,0:0|0:0,0:0:0:0:
288,32,102021,1,0,0:0:0:0:
272,48,102089,2,0,L|262:133,1,60,2|0,0:0|0:0,0:0:0:0:
119,220,102362,2,0,L|59:211,1,60,8|0,0:0|0:0,0:0:0:0:
444,72,102634,6,0,L|434:1,1,60,2|0,0:0|0:0,0:0:0:0:
434,264,102907,2,0,L|444:335,1,60,8|0,0:0|0:0,0:0:0:0:
251,223,103179,2,0,L|241:152,1,60,2|0,0:0|0:0,0:0:0:0:
189,90,103453,1,8,0:0:0:0:
328,341,103589,1,8,0:0:0:0:
356,110,103725,5,2,0:0:0:0:
169,319,103862,1,8,0:0:0:0:
128,199,103998,1,8,0:0:0:0:
393,233,104134,1,8,0:0:0:0:
165,35,104271,5,2,0:0:0:0:
211,246,104407,1,8,0:0:0:0:
338,87,104543,1,8,0:0:0:0:
42,209,104680,1,8,0:0:0:0:
283,273,104816,6,0,L|274:360,1,60,2|0,0:0|0:0,0:0:0:0:
142,365,105089,1,0,0:0:0:0:
433,295,105225,1,0,0:0:0:0:
278,139,105362,1,8,0:0:0:0:
512,211,105498,2,0,L|426:193,1,60,0|2,0:0|0:0,0:0:0:0:
364,351,105771,1,0,0:0:0:0:
370,105,105907,5,2,0:0:0:0:
238,282,106043,1,0,0:0:0:0:
232,48,106180,1,0,0:0:0:0:
352,246,106316,1,2,0:0:0:0:
151,368,106452,2,0,P|118:316|127:246,1,120,8|2,0:0|0:0,0:0:0:0:
150,164,106862,1,0,0:0:0:0:
0,25,106998,6,0,L|17:150,1,120,2|0,0:0|0:0,0:0:0:0:
14,262,107407,1,0,0:0:0:0:
270,86,107543,1,8,0:0:0:0:
270,86,107816,1,8,0:0:0:0:
371,188,107952,1,8,0:0:0:0:
268,256,108089,6,0,L|263:197,1,60,2|0,0:0|0:0,0:0:0:0:
378,51,108361,1,0,0:0:0:0:
487,264,108498,1,2,0:0:0:0:
300,374,108634,2,0,L|165:345,1,120,8|2,0:0|0:0,0:0:0:0:
239,107,109179,6,0,L|179:111,1,60,2|0,0:0|0:0,0:0:0:0:
113,224,109452,2,0,L|186:219,1,60,2|0,0:0|0:0,0:0:0:0:
154,8,109724,6,0,L|72:46,1,60,2|0,0:0|0:0,0:0:0:0:
199,312,109997,2,0,L|273:274,1,60,2|0,0:0|0:0,0:0:0:0:
61,133,110270,1,2,0:0:0:0:
246,200,110406,1,0,0:0:0:0:
394,63,110542,2,0,L|401:3,1,60,2|0,0:0|0:0,0:0:0:0:
477,270,110816,6,0,P|485:239|419:200,1,120,2|2,0:0|0:0,0:0:0:0:
205,229,111224,1,0,0:0:0:0:
130,116,111362,5,2,0:0:0:0:
276,300,111498,1,2,0:0:0:0:
249,100,111634,5,2,0:0:0:0:
152,313,111771,1,2,0:0:0:0:
103,80,111907,5,2,0:0:0:0:
305,320,112043,1,2,0:0:0:0:
270,58,112180,5,2,0:0:0:0:
127,341,112316,1,2,0:0:0:0:
106,33,112453,5,2,0:0:0:0:
287,356,112589,1,2,0:0:0:0:
253,22,112725,5,2,0:0:0:0:
148,369,112862,1,2,0:0:0:0:
0,141,112998,5,8,0:0:0:0:
0,141,113543,6,0,P|97:132|140:166,1,143.999995605469,6|0,0:0|0:0,0:0:0:0:
134,257,113952,1,0,0:0:0:0:
266,169,114089,5,8,0:0:0:0:
134,257,114225,1,0,0:0:0:0:
266,169,114361,6,0,P|343:196|368:192,1,71.9999978027344,2|0,0:0|0:0,0:0:0:0:
429,124,114634,5,2,0:0:0:0:
418,241,114770,1,0,0:0:0:0:
429,124,114907,5,0,0:0:0:0:
418,241,115043,1,2,0:0:0:0:
429,124,115179,2,0,P|449:93|459:58,1,71.9999978027344,8|0,0:0|0:0,0:0:0:0:
418,241,115452,2,0,P|426:281|437:310,1,71.9999978027344,2|0,0:0|0:0,0:0:0:0:
318,275,115725,6,0,P|255:196|210:188,1,143.999995605469,2|0,0:0|0:0,0:0:0:0:
199,85,116134,1,0,0:0:0:0:
108,163,116270,2,0,P|52:172|13:163,1,71.9999978027344,8|0,0:0|0:0,0:0:0:0:
157,266,116543,1,8,0:0:0:0:
157,266,116679,1,8,0:0:0:0:
30,384,116816,6,0,P|12:317|60:268,1,143.999995605469,2|0,0:0|0:0,0:0:0:0:
162,354,117225,1,2,0:0:0:0:
287,335,117361,2,0,P|354:346|434:364,1,143.999995605469,8|0,0:0|0:0,0:0:0:0:
490,112,117770,1,0,0:0:0:0:
490,112,117907,6,0,P|419:99|328:78,1,143.999995605469,2|0,0:0|0:0,0:0:0:0:
232,49,118316,1,0,0:0:0:0:
142,135,118452,2,0,P|81:115|35:107,1,71.9999978027344,8|0,0:0|0:0,0:0:0:0:
270,176,118725,2,0,P|310:169|368:165,1,71.9999978027344,2|0,0:0|0:0,0:0:0:0:
165,225,118998,5,2,0:0:0:0:
239,315,119134,1,0,0:0:0:0:
87,322,119270,2,0,P|70:327|15:331,1,71.9999978027344,0|2,0:0|0:0,0:0:0:0:
344,316,119543,2,0,P|385:335|428:364,1,71.9999978027344,8|0,0:0|0:0,0:0:0:0:
169,198,119816,2,0,P|165:153|167:100,1,71.9999978027344,2|0,0:0|0:0,0:0:0:0:
200,381,120089,6,0,P|245:328|206:272,1,143.999995605469,2|0,0:0|0:0,0:0:0:0:
253,147,120498,1,0,0:0:0:0:
79,208,120634,2,0,P|46:195|15:158,1,71.9999978027344,8|0,0:0|0:0,0:0:0:0:
164,26,120907,1,8,0:0:0:0:
164,26,121043,1,8,0:0:0:0:
378,91,121180,2,0,P|296:91|227:96,1,143.999995605469,2|0,0:0|0:0,0:0:0:0:
148,150,121589,1,2,0:0:0:0:
286,266,121725,2,0,P|289:182|242:220,1,143.999995605469,8|0,0:0|0:0,0:0:0:0:
61,378,122270,6,0,P|2:343|13:277,1,143.999995605469,2|0,0:0|0:0,0:0:0:0:
180,289,122679,1,0,0:0:0:0:
157,180,122816,5,8,0:0:0:0:
180,289,122952,1,0,0:0:0:0:
157,180,123088,6,0,L|165:84,1,71.9999978027344,2|0,0:0|0:0,0:0:0:0:
373,181,123361,5,2,0:0:0:0:
296,310,123497,1,0,0:0:0:0:
373,181,123634,5,0,0:0:0:0:
296,310,123770,1,2,0:0:0:0:
373,181,123906,6,0,L|465:169,1,71.9999978027344,8|0,0:0|0:0,0:0:0:0:
296,310,124179,2,0,L|225:320,1,71.9999978027344,2|0,0:0|0:0,0:0:0:0:
486,343,124452,6,0,P|423:264|379:277,1,143.999995605469,2|0,0:0|0:0,0:0:0:0:
359,379,124861,1,0,0:0:0:0:
292,233,124997,2,0,P|284:196|288:146,1,71.9999978027344,8|0,0:0|0:0,0:0:0:0:
177,85,125270,1,8,0:0:0:0:
388,144,125406,1,8,0:0:0:0:
172,203,125543,6,0,P|127:205|23:214,1,143.999995605469,2|0,0:0|0:0,0:0:0:0:
273,123,125952,1,2,0:0:0:0:
312,291,126088,2,0,P|239:298|165:311,1,143.999995605469,8|0,0:0|0:0,0:0:0:0:
436,340,126634,6,0,P|446:250|402:263,1,143.999995605469,2|8,0:0|0:0,0:0:0:0:
512,158,127043,1,0,0:0:0:0:
408,119,127179,6,0,L|418:41,1,71.9999978027344,2|0,0:0|0:0,0:0:0:0:
309,187,127452,2,0,L|308:88,1,71.9999978027344,8|0,0:0|0:0,0:0:0:0:
179,154,127725,5,2,0:0:0:0:
176,140,127861,1,0,0:0:0:0:
59,162,127998,2,0,L|45:73,1,71.9999978027344,8|0,0:0|0:0,0:0:0:0:
289,280,128270,6,0,L|275:350,1,71.9999978027344,2|0,0:0|0:0,0:0:0:0:
13,325,128543,2,0,L|-2:246,1,71.9999978027344,8|0,0:0|0:0,0:0:0:0:
246,104,128816,5,2,0:0:0:0:
149,230,128952,1,2,0:0:0:0:
324,95,129088,5,2,0:0:0:0:
223,256,129224,1,2,0:0:0:0:
397,85,129361,5,2,0:0:0:0:
295,276,129497,1,2,0:0:0:0:
473,74,129634,5,2,0:0:0:0:
370,293,129770,1,2,0:0:0:0:
421,54,129906,5,2,0:0:0:0:
438,313,130042,1,2,0:0:0:0:
370,37,130179,5,2,0:0:0:0:
508,334,130315,1,2,0:0:0:0:
262,140,130452,6,0,B|268:131|268:131|262:124|262:124|269:113|269:113|263:104|263:104|270:97|270:97|264:87|264:87|271:77|271:77|266:66,1,90.0000034332277
175,276,130725,2,0,B|180:287|180:287|173:297|173:297|179:307|179:307|172:314|172:314|178:323|178:323|171:334|171:334|177:341|177:341|171:350,1,90.0000034332277
122,122,130998,6,0,L|46:108,1,71.9999978027344,6|0,0:0|0:0,0:0:0:0:
354,273,131270,2,0,L|425:263,1,71.9999978027344,2|0,0:0|0:0,0:0:0:0:
449,135,131543,2,0,L|378:146,1,71.9999978027344,2|0,0:0|0:0,0:0:0:0:
70,244,131816,2,0,L|-25:231,1,71.9999978027344,2|0,0:0|0:0,0:0:0:0:
206,30,132089,6,0,P|250:91|204:173,1,143.999995605469,2|8,0:0|0:0,0:0:0:0:
196,300,132498,1,0,0:0:0:0:
328,198,132634,2,0,L|324:279,1,71.9999978027344,2|0,0:0|0:0,0:0:0:0:
92,175,132907,1,8,0:0:0:0:
175,384,133043,1,8,0:0:0:0:
391,122,133179,6,0,L|377:51,1,71.9999978027344,2|0,0:0|0:0,0:0:0:0:
504,190,133452,2,0,L|492:118,1,71.9999978027344,2|0,0:0|0:0,0:0:0:0:
175,252,133724,2,0,L|155:330,1,71.9999978027344,2|0,0:0|0:0,0:0:0:0:
45,273,133997,2,0,L|20:365,1,71.9999978027344,2|0,0:0|0:0,0:0:0:0:
0,54,134270,6,0,P|44:132|104:118,1,143.999995605469,2|8,0:0|0:0,0:0:0:0:
321,65,134679,1,8,0:0:0:0:
197,170,134815,2,0,L|279:204,1,71.9999978027344,2|8,0:0|0:0,0:0:0:0:
476,86,135088,1,8,0:0:0:0:
372,279,135224,1,8,0:0:0:0:
100,235,135361,6,0,L|84:106,1,107.999996704102,2|8,0:0|0:0,0:0:0:0:
510,309,135634,2,0,L|494:180,1,107.999996704102,2|8,0:0|0:0,0:0:0:0:
308,120,135907,2,0,L|292:-9,1,107.999996704102,2|8,0:0|0:0,0:0:0:0:
16,384,136179,2,0,L|0:255,1,107.999996704102,2|8,0:0|0:0,0:0:0:0:
202,38,136452,5,8,0:0:0:0:
197,172,136589,5,8,0:0:0:0:
245,260,136725,5,8,0:0:0:0:
329,284,136862,5,8,0:0:0:0:
221,362,136998,5,8,0:0:0:0:
61,252,137135,5,8,0:0:0:0:
283,192,137270,5,8,0:0:0:0:
500,142,137407,5,8,0:0:0:0:
249,98,137543,6,0,L|237:248,1,143.999995605469,2|8,0:0|0:0,0:0:0:0:
372,164,137953,1,2,0:0:0:0:
125,235,138089,2,0,L|138:324,1,71.9999978027344,2|0,0:0|0:0,0:0:0:0:
29,145,138361,1,8,0:0:0:0:
215,371,138498,1,2,0:0:0:0:
417,291,138634,6,0,L|416:238,1,30,2|0,0:0|0:0,0:0:0:0:
428,244,138907,6,0,P|454:211|432:152,1,71.9999978027344
106,327,139179,1,0,0:0:0:0:
46,106,148452,5,8,0:0:0:0:
158,79,148725,1,8,0:0:0:0:
262,116,148998,1,8,0:0:0:0:
371,80,149270,1,8,0:0:0:0:
476,323,149543,5,8,0:0:0:0:
364,350,149816,1,8,0:0:0:0:
260,313,150089,1,8,0:0:0:0:
151,349,150361,1,8,0:0:0:0:
304,96,150634,6,0,P|302:126|298:151,1,45.0000017166138,8|0,0:0|0:0,0:0:0:0:
163,308,150907,1,8,0:0:0:0:
276,81,151179,5,8,0:0:0:0:
193,317,151452,1,8,0:0:0:0:
252,63,151725,5,8,0:0:0:0:
217,335,151998,1,8,0:0:0:0:
231,42,152270,5,8,0:0:0:0:
238,356,152543,1,8,0:0:0:0:
116,159,152816,5,8,0:0:0:0:
378,252,152952,1,8,0:0:0:0:
149,297,153089,1,8,0:0:0:0:
351,124,153225,1,8,0:0:0:0:
76,152,153361,5,8,0:0:0:0:
418,259,153497,1,8,0:0:0:0:
109,290,153634,1,8,0:0:0:0:
391,131,153770,1,8,0:0:0:0:
82,182,153907,5,8,0:0:0:0:
412,229,154043,1,8,0:0:0:0:
115,320,154180,1,8,0:0:0:0:
385,101,154316,1,8,0:0:0:0:
45,174,154452,5,8,0:0:0:0:
449,237,154588,1,8,0:0:0:0:
78,312,154725,1,8,0:0:0:0:
422,109,154861,1,8,0:0:0:0:
210,120,154998,6,0,L|54:109,1,143.999995605469,2|8,0:0|0:0,0:0:0:0:
240,236,155407,1,2,0:0:0:0:
109,345,155543,2,0,P|56:265|95:207,1,143.999995605469,2|8,0:0|0:0,0:0:0:0:
182,37,155952,1,2,0:0:0:0:
341,280,156089,5,2,0:0:0:0:
341,280,156361,2,0,L|345:348,1,45.0000017166138,2|0,0:0|0:0,0:0:0:0:
260,214,156634,2,0,P|316:181|307:107,1,135.000005149841
133,81,157179,6,0,L|13:96,1,120,6|8,0:0|0:0,0:0:0:0:
206,23,157588,1,0,0:0:0:0:
109,197,157724,1,2,0:0:0:0:
237,157,157861,2,0,L|244:219,1,60,0|8,0:0|0:0,0:0:0:0:
198,301,158133,1,0,0:0:0:0:
340,214,158270,5,2,0:0:0:0:
168,109,158406,1,0,0:0:0:0:
327,187,158543,2,0,L|468:162,1,120,8|2,0:0|0:0,0:0:0:0:
512,255,158952,1,0,0:0:0:0:
449,62,159088,2,0,L|471:-15,1,60,8|0,0:0|0:0,0:0:0:0:
226,287,159361,6,0,P|252:361|318:383,1,120,2|8,0:0|0:0,0:0:0:0:
299,203,159770,1,0,0:0:0:0:
91,165,159906,2,0,P|144:178|204:154,1,120,2|8,0:0|0:0,0:0:0:0:
99,282,160315,1,0,0:0:0:0:
139,73,160452,6,0,L|129:14,1,60,2|8,0:0|0:0,0:0:0:0:
0,208,160724,1,8,0:0:0:0:
21,88,160861,1,8,0:0:0:0:
225,136,160997,2,0,L|241:194,1,60,2|0,0:0|0:0,0:0:0:0:
379,158,161270,2,0,L|455:141,1,60,8|0,0:0|0:0,0:0:0:0:
116,64,161543,6,0,L|93:152,1,60,6|0,0:0|0:0,0:0:0:0:
115,236,161816,1,8,0:0:0:0:
278,68,161952,1,0,0:0:0:0:
272,206,162088,2,0,L|289:283,1,60,2|0,0:0|0:0,0:0:0:0:
81,144,162361,2,0,L|7:109,1,60,8|0,0:0|0:0,0:0:0:0:
196,146,162633,5,2,0:0:0:0:
292,107,162770,1,0,0:0:0:0:
393,69,162907,2,0,L|409:153,1,60,8|8,0:0|0:0,0:0:0:0:
410,143,163111,1,0,0:0:0:0:
415,159,163179,6,0,L|394:243,1,60,2|0,0:0|0:0,0:0:0:0:
512,305,163452,2,0,L|497:230,1,60,8|0,0:0|0:0,0:0:0:0:
183,231,163725,6,0,L|200:305,1,60,2|0,0:0|0:0,0:0:0:0:
56,319,163998,2,0,L|77:247,1,60,8|0,0:0|0:0,0:0:0:0:
262,27,164270,6,0,L|278:103,1,60,2|0,0:0|0:0,0:0:0:0:
305,206,164543,1,8,0:0:0:0:
156,117,164679,1,8,0:0:0:0:
408,115,164815,5,2,0:0:0:0:
499,138,164952,1,8,0:0:0:0:
305,206,165088,1,8,0:0:0:0:
212,188,165224,1,8,0:0:0:0:
151,318,165361,5,2,0:0:0:0:
240,280,165498,1,8,0:0:0:0:
334,299,165634,1,8,0:0:0:0:
404,365,165770,1,8,0:0:0:0:
305,206,165906,6,0,L|307:119,1,60,6|0,0:0|0:0,0:0:0:0:
354,71,166179,1,0,0:0:0:0:
185,152,166315,1,0,0:0:0:0:
433,248,166452,1,8,0:0:0:0:
127,213,166588,2,0,L|194:187,1,60,0|2,0:0|0:0,0:0:0:0:
207,64,166861,1,0,0:0:0:0:
239,272,166997,5,2,0:0:0:0:
33,140,167133,1,0,0:0:0:0:
63,314,167270,1,0,0:0:0:0:
198,98,167406,1,2,0:0:0:0:
348,207,167543,2,0,L|370:326,1,120,8|2,0:0|0:0,0:0:0:0:
490,383,167952,1,0,0:0:0:0:
496,163,168089,6,0,L|518:84,1,60,2|0,0:0|0:0,0:0:0:0:
379,246,168361,1,0,0:0:0:0:
361,95,168497,1,0,0:0:0:0:
243,175,168634,6,0,L|228:24,1,120,8|0,0:0|0:0,0:0:0:0:
142,44,169043,1,8,0:0:0:0:
0,260,169179,5,2,0:0:0:0:
12,122,169315,1,0,0:0:0:0:
169,225,169452,1,0,0:0:0:0:
133,73,169588,1,2,0:0:0:0:
48,326,169725,2,0,P|25:271|39:210,1,120,8|2,0:0|0:0,0:0:0:0:
124,98,170133,1,0,0:0:0:0:
112,123,170270,6,0,L|182:116,1,60,2|0,0:0|0:0,0:0:0:0:
403,176,170543,2,0,L|293:185,1,60,2|0,0:0|0:0,0:0:0:0:
123,273,170815,6,0,L|205:235,1,60,2|0,0:0|0:0,0:0:0:0:
421,46,171088,2,0,L|347:84,1,60,2|0,0:0|0:0,0:0:0:0:
303,297,171361,1,2,0:0:0:0:
253,92,171497,1,0,0:0:0:0:
459,189,171634,2,0,L|486:276,1,60,2|0,0:0|0:0,0:0:0:0:
148,293,171906,6,0,P|167:213|219:217,1,120,0|2,0:0|0:0,0:0:0:0:
264,141,172315,5,0,0:0:0:0:
17,230,172452,5,2,0:0:0:0:
346,353,172588,1,2,0:0:0:0:
55,211,172724,5,2,0:0:0:0:
341,317,172861,1,2,0:0:0:0:
89,175,172997,5,2,0:0:0:0:
350,272,173133,1,2,0:0:0:0:
110,130,173270,5,2,0:0:0:0:
380,232,173406,1,2,0:0:0:0:
112,79,173543,5,2,0:0:0:0:
427,206,173679,1,2,0:0:0:0:
97,21,173815,5,2,0:0:0:0:
486,197,173952,1,2,0:0:0:0:
248,10,174089,6,0,P|250:73|263:155,1,135.000005149841,8|0,0:0|0:0,0:0:0:0:
295,239,174634,6,0,P|254:165|195:215,1,143.999995605469,6|0,0:0|0:0,0:0:0:0:
94,143,175043,1,0,0:0:0:0:
107,247,175179,2,0,P|106:289|95:326,1,71.9999978027344,8|0,0:0|0:0,0:0:0:0:
413,289,175452,2,0,P|406:248|406:212,1,71.9999978027344,2|0,0:0|0:0,0:0:0:0:
399,105,175725,5,2,0:0:0:0:
264,262,175861,1,0,0:0:0:0:
252,137,175998,2,0,L|253:49,1,71.9999978027344,0|2,0:0|0:0,0:0:0:0:
382,190,176270,2,0,L|469:189,1,71.9999978027344,8|0,0:0|0:0,0:0:0:0:
114,180,176543,2,0,L|42:184,1,71.9999978027344,2|0,0:0|0:0,0:0:0:0:
209,306,176816,6,0,P|225:244|298:286,1,143.999995605469,2|0,0:0|0:0,0:0:0:0:
313,366,177225,1,0,0:0:0:0:
126,365,177361,2,0,P|99:372|31:365,1,71.9999978027344,8|0,0:0|0:0,0:0:0:0:
0,264,177634,1,8,0:0:0:0:
0,264,177770,1,8,0:0:0:0:
123,188,177907,6,0,P|110:123|106:3,1,143.999995605469,2|0,0:0|0:0,0:0:0:0:
221,247,178316,1,2,0:0:0:0:
294,152,178452,2,0,P|308:68|308:10,1,143.999995605469,8|0,0:0|0:0,0:0:0:0:
471,287,178998,6,0,P|485:221|405:217,1,143.999995605469,2|0,0:0|0:0,0:0:0:0:
452,110,179407,1,0,0:0:0:0:
332,228,179543,2,0,P|312:195|312:144,1,71.9999978027344,8|0,0:0|0:0,0:0:0:0:
338,354,179816,2,0,P|302:358|266:359,1,71.9999978027344,2|0,0:0|0:0,0:0:0:0:
0,216,180089,5,0,0:0:0:0:
155,211,180225,1,0,0:0:0:0:
39,301,180362,2,0,L|35:379,1,71.9999978027344,0|2,0:0|0:0,0:0:0:0:
139,121,180634,2,0,L|125:34,1,71.9999978027344,8|0,0:0|0:0,0:0:0:0:
216,301,180907,2,0,L|300:308,1,71.9999978027344,2|0,0:0|0:0,0:0:0:0:
395,219,181180,6,0,P|461:206|496:264,1,143.999995605469,2|0,0:0|0:0,0:0:0:0:
512,116,181589,1,0,0:0:0:0:
295,205,181725,2,0,P|261:210|200:205,1,71.9999978027344
375,95,181998,1,0,0:0:0:0:
375,95,182134,1,0,0:0:0:0:
395,219,182271,6,0,P|392:277|398:362,1,143.999995605469,2|0,0:0|0:0,0:0:0:0:
292,288,182680,1,2,0:0:0:0:
213,349,182816,2,0,P|114:333|67:371,1,143.999995605469,8|0,0:0|0:0,0:0:0:0:
0,81,183361,6,0,P|39:136|108:128,1,143.999995605469,2|0,0:0|0:0,0:0:0:0:
232,51,183770,1,0,0:0:0:0:
178,209,183906,2,0,P|175:243|186:306,1,71.9999978027344,8|0,0:0|0:0,0:0:0:0:
319,224,184179,2,0,P|321:177|316:142,1,71.9999978027344,2|0,0:0|0:0,0:0:0:0:
260,322,184452,5,2,0:0:0:0:
260,322,184588,1,0,0:0:0:0:
107,326,184725,2,0,P|75:325|30:331,1,71.9999978027344,0|2,0:0|0:0,0:0:0:0:
225,225,184997,2,0,P|191:222|154:217,1,71.9999978027344,8|0,0:0|0:0,0:0:0:0:
406,258,185270,2,0,P|367:258|334:262,1,71.9999978027344,2|0,0:0|0:0,0:0:0:0:
417,155,185543,6,0,P|484:164|509:229,1,143.999995605469,2|0,0:0|0:0,0:0:0:0:
379,338,185952,1,0,0:0:0:0:
307,158,186088,2,0,P|301:113|301:74,1,71.9999978027344,8|0,0:0|0:0,0:0:0:0:
205,221,186361,1,8,0:0:0:0:
205,221,186497,1,8,0:0:0:0:
0,141,186634,6,0,P|35:139|158:132,1,143.999995605469,2|0,0:0|0:0,0:0:0:0:
227,79,187043,1,2,0:0:0:0:
433,160,187179,2,0,P|353:161|268:167,1,143.999995605469,8|0,0:0|0:0,0:0:0:0:
114,362,187725,6,0,P|51:283|97:250,1,143.999995605469,2|8,0:0|0:0,0:0:0:0:
197,312,188134,1,0,0:0:0:0:
309,259,188270,2,0,L|381:259,1,71.9999978027344,2|0,0:0|0:0,0:0:0:0:
289,367,188543,2,0,L|387:356,1,71.9999978027344,8|0,0:0|0:0,0:0:0:0:
198,101,188816,5,2,0:0:0:0:
163,199,188952,1,0,0:0:0:0:
268,174,189089,2,0,L|376:160,1,71.9999978027344,8|0,0:0|0:0,0:0:0:0:
438,307,189361,2,0,L|294:295,1,143.999995605469,2|8,0:0|0:0,0:0:0:0:
35,121,189907,5,2,0:0:0:0:
431,76,190043,1,2,0:0:0:0:
64,151,190180,5,2,0:0:0:0:
416,108,190316,1,2,0:0:0:0:
86,193,190452,5,2,0:0:0:0:
409,144,190588,1,2,0:0:0:0:
99,237,190725,5,2,0:0:0:0:
413,180,190861,1,2,0:0:0:0:
101,283,190998,5,2,0:0:0:0:
426,213,191134,1,2,0:0:0:0:
90,330,191270,5,2,0:0:0:0:
446,243,191406,1,2,0:0:0:0:
213,107,191543,5,8,0:0:0:0:
