osu file format v14

[General]
AudioFilename: audio.mp3
AudioLeadIn: 0
PreviewTime: 98519
Countdown: 0
SampleSet: Normal
StackLeniency: 0.7
Mode: 1
LetterboxInBreaks: 0
WidescreenStoryboard: 0

[Editor]
DistanceSpacing: 0.8
BeatDivisor: 12
GridSize: 32
TimelineZoom: 4.500003

[Metadata]
Title:mck r nttles
TitleUnicode:mck r nttles
Artist:7_7
ArtistUnicode:7_7
Creator:Nifty
Version:stnging
Source:
Tags:mg mappers' guild fa featured artist electronic instrumental polyrhythm muck or nettles futsuu muzukashii oni stinging
BeatmapID:4473055
BeatmapSetID:2127798

[Difficulty]
HPDrainRate:5
CircleSize:2
OverallDifficulty:6.5
ApproachRate:10
SliderMultiplier:1.4
SliderTickRate:1

[Events]
//Background and Video events
0,0,"hedgehoge.png",0,-20
//Break Periods
2,68883,76244
2,95283,97184
//Storyboard Layer 0 (Background)
//Storyboard Layer 1 (Fail)
//Storyboard Layer 2 (Pass)
//Storyboard Layer 3 (Foreground)
//Storyboard Layer 4 (Overlay)
//Storyboard Sound Samples

[TimingPoints]
284,300,4,1,0,40,1,0
284,-200,4,1,0,40,0,0
19784,-166.666666666667,4,1,0,100,0,0
20083,-142.85715,4,1,0,100,0,0
20233,-127.59344,4,1,0,100,0,0
20383,-113.96058,4,1,0,100,0,0
20533,-101.78435,4,1,0,100,0,0
20683,-90.909096,4,1,0,100,0,0
20809,-125.000009625001,4,1,0,80,0,0
30283,-125.00001,4,1,0,80,0,0
30358,-121.56158,4,1,0,80,0,0
30433,-118.21772,4,1,0,80,0,0
30508,-114.96583,4,1,0,80,0,0
30583,-111.803406,4,1,0,80,0,0
30658,-108.727974,4,1,0,80,0,0
30733,-105.73713,4,1,0,80,0,0
30808,-102.82856,4,1,0,80,0,0
30882,-100.00001,4,1,0,90,0,0
31033,-104.58883,4,1,0,90,0,0
31183,-109.355705,4,1,0,90,0,0
31258,-111.820015,4,1,0,90,0,0
31333,-114.33986,4,1,0,90,0,0
31483,-119.55118,4,1,0,90,0,0
31633,-125.00001,4,1,0,90,0,0
31784,-100.0000064,4,1,0,90,0,0
32007,-111.12846,4,1,0,90,0,0
32082,-109.8351,4,1,0,90,0,0
32232,-107.29335,4,1,0,90,0,0
32307,-106.044624,4,1,0,90,0,0
32382,-104.81042,4,1,0,90,0,0
32457,-103.59059,4,1,0,90,0,0
32532,-102.38495,4,1,0,90,0,0
32607,-101.19335,4,1,0,90,0,0
32682,-100.01562,4,1,0,90,0,0
33282,-100,4,1,0,90,0,0
33432,-102.669014,4,1,0,90,0,0
33582,-105.409256,4,1,0,90,0,0
33732,-108.22264,4,1,0,90,0,0
33807,-109.657364,4,1,0,90,0,0
33881,-111.111115,4,1,0,90,0,0
34033,-105.62161,4,1,0,90,0,0
34108,-103.01376,4,1,0,90,0,0
34183,-100.47029,4,1,0,90,0,0
34333,-95.570206,4,1,0,90,0,0
34483,-90.909096,4,1,0,90,0,0
34783,-100,4,1,0,90,0,0
34858,-102.669014,4,1,0,90,0,0
34933,-105.409256,4,1,0,90,0,0
35008,-108.22264,4,1,0,90,0,0
35083,-111.111115,4,1,0,90,0,0
35233,-105.67444,4,1,0,90,0,0
35383,-100.503784,4,1,0,90,0,0
35533,-95.586136,4,1,0,90,0,0
35683,-90.909096,4,1,0,90,0,0
35983,-95.2381,4,1,0,90,0,0
36058,-96.40688,4,1,0,90,0,0
36133,-97.59001,4,1,0,90,0,0
36208,-98.78765,4,1,0,90,0,0
36283,-100,4,1,0,90,0,0
36433,-95.2381,4,1,0,90,0,0
36582,-105.26316,4,1,0,90,0,0
36658,-103.96948,4,1,0,90,0,0
36733,-102.708405,4,1,0,90,0,0
36808,-101.46263,4,1,0,90,0,0
36883,-100.23197,4,1,0,90,0,0
37033,-97.81525,4,1,0,90,0,0
37183,-95.45678,4,1,0,90,0,0
37333,-93.15519,4,1,0,90,0,0
37408,-92.02529,4,1,0,90,0,0
37483,-90.90909,4,1,0,90,0,0
37709,-95.2380952380952,4,1,0,90,0,0
37784,-90.90909,4,1,0,90,0,0
38009,-95.2380952380952,4,1,0,90,0,0
38083,-90.90909,4,1,0,90,0,0
38233,-93.10124,4,1,0,90,0,0
38308,-94.217064,4,1,0,90,0,0
38383,-95.34625,4,1,0,90,0,0
38458,-96.48899,4,1,0,90,0,0
38533,-97.64541,4,1,0,90,0,0
38683,-100,4,1,0,90,0,0
38833,-98.78765,4,1,0,90,0,0
38908,-98.187004,4,1,0,90,0,0
38983,-97.59001,4,1,0,90,0,0
39133,-96.40688,4,1,0,90,0,0
39283,-95.2381,4,1,0,90,0,0
39433,-98.98636,4,1,0,90,0,0
39508,-100.91544,4,1,0,90,0,0
39583,-102.88214,4,1,0,90,0,0
39733,-106.93124,4,1,0,90,0,0
39882,-111.111115,4,1,0,100,0,0
39983,-109.17702,4,1,0,100,0,0
40083,-107.276596,4,1,0,100,0,0
40183,-105.409256,4,1,0,100,0,0
40258,-104.03011,4,1,0,100,0,0
40333,-102.669014,4,1,0,100,0,0
40408,-101.32571,4,1,0,100,0,0
40483,-99.999985,4,1,0,100,0,0
40583,-101.771515,4,1,0,100,0,0
40683,-103.574425,4,1,0,100,0,0
40783,-105.409256,4,1,0,100,0,0
40858,-106.80669,4,1,0,100,0,0
40933,-108.22264,4,1,0,100,0,0
41008,-109.657364,4,1,0,100,0,0
41083,-111.111115,4,1,0,100,0,0
41183,-107.276596,4,1,0,100,0,0
41283,-103.57441,4,1,0,100,0,0
41383,-99.999985,4,1,0,100,0,0
41683,-105.26316,4,1,0,100,0,0
41783,-109.23905,4,1,0,100,0,0
41883,-113.365135,4,1,0,100,0,0
41983,-117.64706,4,1,0,100,0,0
42183,-125.00001,4,1,0,100,0,0
42283,-121.372955,4,1,0,100,0,0
42383,-117.85113,4,1,0,100,0,0
42483,-114.4315,4,1,0,100,0,0
42583,-111.111115,4,1,0,100,0,0
42883,-105.26316,4,1,0,100,0,0
42983,-109.23905,4,1,0,100,0,0
43083,-113.365135,4,1,0,100,0,0
43183,-117.64706,4,1,0,100,0,0
43382,-125,4,1,0,100,0,0
43482,-123.580536,4,1,0,100,0,0
43582,-122.177185,4,1,0,100,0,0
43682,-120.789764,4,1,0,100,0,0
43782,-119.418106,4,1,0,100,0,0
43857,-118.39958,4,1,0,100,0,0
43932,-117.38976,4,1,0,100,0,0
44082,-115.395874,4,1,0,100,0,0
44194,-113.92923,4,1,0,100,0,0
44307,-112.46837,4,1,0,100,0,0
44382,-111.50912,4,1,0,100,0,0
44532,-109.61511,4,1,0,100,0,0
44582,-108.99097,4,1,0,100,0,0
44682,-107.75328,4,1,0,100,0,0
44832,-105.923065,4,1,0,100,0,0
44982,-104.12395,4,1,0,100,0,0
45132,-102.355385,4,1,0,100,0,0
45282,-100.61687,4,1,0,100,0,0
45382,-99.47429,4,1,0,100,0,0
45434,-98.5221674876847,4,1,0,100,0,0
45482,-98.34467,4,1,0,100,0,0
45582,-97.2279,4,1,0,100,0,0
45682,-96.123795,4,1,0,100,0,0
45782,-95.03224,4,1,0,100,0,0
45882,-93.953064,4,1,0,100,0,0
45982,-92.88616,4,1,0,100,0,0
46032,-92.35726,4,1,0,100,0,0
46082,-91.83137,4,1,0,100,0,0
46182,-90.78855,4,1,0,100,0,0
46332,-89.24649,4,1,0,100,0,0
46482,-87.73062,4,1,0,100,0,0
46582,-86.734375,4,1,0,100,0,0
46632,-86.24049,4,1,0,100,0,0
46682,-85.749435,4,1,0,100,0,0
46782,-84.77569,4,1,0,100,0,0
46932,-83.33576,4,1,0,100,0,0
47009,-82.86123,4,1,0,100,0,0
47082,-81.92029,4,1,0,100,0,0
47157,-81.22159,4,1,0,100,0,0
47232,-80.528854,4,1,0,100,0,0
47307,-79.84202,4,1,0,100,0,0
47382,-79.16105,4,1,0,100,0,0
47457,-78.4859,4,1,0,100,0,0
47532,-77.81649,4,1,0,100,0,0
47607,-77.152794,4,1,0,100,0,0
47682,-76.49476,4,1,0,100,0,0
47757,-75.84233,4,1,0,100,0,0
47832,-75.19548,4,1,0,100,0,0
47907,-74.55414,4,1,0,100,0,0
47982,-73.91826,4,1,0,100,0,0
48057,-73.28782,4,1,0,100,0,0
48132,-72.66276,4,1,0,100,0,0
48207,-72.04301,4,1,0,100,0,0
48282,-71.428566,4,1,0,100,0,0
48334,-70.4225352112676,4,1,0,100,0,0
48384,-69.4444444444444,4,1,0,100,0,0
48733,-100,4,1,0,100,0,0
49033,-107.2766,4,1,0,100,0,0
49183,-111.111115,4,1,0,100,0,0
49483,-76.92308,4,1,0,100,0,0
49484,-125.000008125001,4,1,0,100,0,0
49782,-82.50416,4,1,0,100,0,0
49857,-83.70114,4,1,0,100,0,0
49932,-84.915504,4,1,0,100,0,0
50007,-86.14747,4,1,0,100,0,0
50082,-87.397316,4,1,0,100,0,0
50232,-89.95167,4,1,0,100,0,0
50408,-93.04413,4,1,0,100,0,0
50420,-93.258804,4,1,0,100,0,0
50683,-125,4,1,0,100,0,0
50708,-98.562386,4,1,0,100,0,0
51033,-104.91042,4,1,0,100,0,0
51332,-111.111115,4,1,0,100,0,0
51545,-98.69894,4,1,0,100,0,0
51733,-94.28722,4,1,0,100,0,0
51883,-124.99999828125,4,1,0,100,0,0
51885,-90.90909,4,1,0,100,0,0
52049,-93.269844,4,1,0,100,0,0
52283,-96.70215,4,1,0,100,0,0
52534,-100.89764,4,1,0,100,0,0
52809,-105.06399,4,1,0,100,0,0
53084,-125,4,1,0,100,0,0
53109,-110.04632,4,1,0,100,0,0
53495,-116.60779,4,1,0,100,0,0
53934,-125,4,1,0,100,0,0
54282,-76.92308,4,1,0,100,0,0
54284,-125.000008125001,4,1,0,100,0,0
54582,-81.6496,4,1,0,100,0,0
54657,-82.87593,4,1,0,100,0,0
54732,-84.12068,4,1,0,100,0,0
54807,-85.384125,4,1,0,100,0,0
54882,-86.66655,4,1,0,100,0,0
55032,-89.28946,4,1,0,100,0,0
55209,-92.910576,4,1,0,100,0,0
55483,-125,4,1,0,100,0,0
55509,-98.36496,4,1,0,100,0,0
55834,-105.200584,4,1,0,100,0,0
56131,-111.111115,4,1,0,100,0,0
56344,-102.81769,4,1,0,100,0,0
56532,-96.01353,4,1,0,100,0,0
56684,-124.99999828125,4,1,0,100,0,0
56685,-90.90909,4,1,0,100,0,0
56849,-93.61855,4,1,0,100,0,0
57083,-97.57561,4,1,0,100,0,0
57334,-102.4403,4,1,0,100,0,0
57609,-107.30045,4,1,0,100,0,0
57884,-125,4,1,0,100,0,0
57909,-113.14932,4,1,0,100,0,0
58295,-120.91079,4,1,0,100,0,0
58483,-125,4,1,0,100,0,0
58734,-100,4,1,0,100,0,0
58783,-98.09195,4,1,0,100,0,0
58858,-94.43226,4,1,0,100,0,0
58933,-90.90909,4,1,0,100,0,0
59081,-76.90778,4,1,0,100,0,0
59084,-125.000008125001,4,1,0,100,0,0
59381,-81.63338,4,1,0,100,0,0
59456,-82.85946,4,1,0,100,0,0
59531,-84.103966,4,1,0,100,0,0
59606,-85.36716,4,1,0,100,0,0
59681,-86.64933,4,1,0,100,0,0
59831,-89.27172,4,1,0,100,0,0
60009,-92.89212,4,1,0,100,0,0
60281,-97.62478,4,1,0,100,0,0
60284,-125,4,1,0,100,0,0
60309,-98.3454,4,1,0,100,0,0
60634,-105.17968,4,1,0,100,0,0
60731,-106.75942,4,1,0,100,0,0
60881,-109.99044,4,1,0,100,0,0
60921,-111.08903,4,1,0,100,0,0
61143,-102.87824,4,1,0,100,0,0
61331,-96.05811,4,1,0,100,0,0
61484,-125,4,1,0,100,0,0
61485,-90.942276,4,1,0,100,0,0
61649,-93.269844,4,1,0,100,0,0
61883,-96.70215,4,1,0,100,0,0
62083,-99.73569,4,1,0,100,0,0
62134,-100.89764,4,1,0,100,0,0
62409,-105.06399,4,1,0,100,0,0
62683,-109.41928,4,1,0,100,0,0
62684,-125,4,1,0,100,0,0
62709,-110.04632,4,1,0,100,0,0
63095,-116.60779,4,1,0,100,0,0
63283,-120.04308,4,1,0,100,0,0
63534,-125,4,1,0,100,0,0
63882,-76.92308,4,1,0,100,0,0
63884,-125.000008125001,4,1,0,100,0,0
64182,-81.6496,4,1,0,100,0,0
64257,-82.87593,4,1,0,100,0,0
64332,-84.12068,4,1,0,100,0,0
64407,-85.384125,4,1,0,100,0,0
64482,-86.66655,4,1,0,100,0,0
64632,-89.28946,4,1,0,100,0,0
64809,-92.910576,4,1,0,100,0,0
65082,-97.64419,4,1,0,100,0,0
65084,-125,4,1,0,100,0,0
65109,-98.36496,4,1,0,100,0,0
65382,-103.64391,4,1,0,100,0,0
65434,-105.200584,4,1,0,100,0,0
65682,-110.0123,4,1,0,100,0,0
65721,-111.111115,4,1,0,100,0,0
65944,-102.840706,4,1,0,100,0,0
66132,-96.023056,4,1,0,100,0,0
66284,-125,4,1,0,100,0,0
66285,-90.90909,4,1,0,100,0,0
66449,-93.269844,4,1,0,100,0,0
66683,-96.70215,4,1,0,100,0,0
66884,-100,4,1,0,100,0,0
66934,-100.89764,4,1,0,100,0,0
67209,-105.06399,4,1,0,100,0,0
67483,-109.41928,4,1,0,100,0,0
67484,-125,4,1,0,100,0,0
67509,-110.04632,4,1,0,100,0,0
67895,-116.60779,4,1,0,100,0,0
68083,-120.04308,4,1,0,100,0,0
68334,-125,4,1,0,100,0,0
68680,-50,4,1,0,100,0,0
68684,-125,4,1,0,100,0,0
68909,-142.85715,4,1,0,40,0,0
71083,-151.09726,4,1,0,40,0,0
72283,-159.8127,4,1,0,40,0,0
73483,-169.03085,4,1,0,40,0,0
74683,-178.7807,4,1,0,40,0,0
75883,-189.09296,4,1,0,40,0,0
77083,-200,4,1,0,40,0,0
77384,-166.666666666667,4,1,0,100,0,0
77683,-142.85715,4,1,0,100,0,0
77833,-127.59344,4,1,0,100,0,0
77983,-113.96058,4,1,0,100,0,0
78133,-101.78435,4,1,0,100,0,0
78283,-90.909096,4,1,0,100,0,0
78364,-125.000009625001,4,1,0,80,0,0
89083,-125.00001,4,1,0,80,0,0
89233,-124.941444,4,1,0,80,0,0
89383,-124.76607,4,1,0,80,0,0
89533,-124.47488,4,1,0,80,0,0
89608,-124.28634,4,1,0,80,0,0
89683,-124.06949,4,1,0,80,0,0
89833,-123.55213,4,1,0,80,0,0
89983,-122.925644,4,1,0,80,0,0
90058,-122.57251,4,1,0,80,0,0
90208,-121.78878,4,1,0,80,0,0
90283,-121.35923,4,1,0,80,0,0
90284,-125,4,1,0,80,0,0
90433,-120.427536,4,1,0,80,0,0
90508,-119.92655,4,1,0,80,0,0
90583,-119.403,4,1,0,80,0,0
90733,-118.29072,4,1,0,80,0,0
90883,-117.09603,4,1,0,80,0,0
90983,-116.256546,4,1,0,80,0,0
91083,-115.38463,4,1,0,80,0,0
91183,-114.48198,4,1,0,80,0,0
91383,-112.59149,4,1,0,80,0,0
91483,-111.607155,4,1,0,80,0,0
91484,-125.628156088988,4,1,0,80,0,0
91583,-110.59909,4,1,0,80,0,0
91683,-109.56903,4,1,0,80,0,0
91783,-108.51872,4,1,0,90,0,0
91858,-107.71873,4,1,0,90,0,0
91933,-106.909004,4,1,0,90,0,0
92008,-106.09025,4,1,0,90,0,0
92083,-105.26317,4,1,0,90,0,0
92183,-104.14859,4,1,0,90,0,0
92283,-103.02198,4,1,0,90,0,0
92383,-101.88488,4,1,0,90,0,0
92483,-100.738754,4,1,0,90,0,0
92583,-99.58507,4,1,0,90,0,0
92683,-98.42519,4,1,0,90,0,0
92684,-125,4,1,0,90,0,0
92783,-97.2605,4,1,0,90,0,0
92983,-94.92169,4,1,0,90,0,0
93058,-94.04296,4,1,0,90,0,0
93133,-93.164085,4,1,0,90,0,0
93208,-92.28551,4,1,0,90,0,0
93283,-91.40768,4,1,0,90,0,0
93383,-90.23913,4,1,0,90,0,0
93483,-89.07364,4,1,0,90,0,0
93583,-87.91209,4,1,0,90,0,0
93683,-86.755356,4,1,0,90,0,0
93783,-85.604225,4,1,0,90,0,0
93833,-85.031,4,1,0,90,0,0
93883,-84.45946,4,1,0,90,0,0
93884,-125,4,1,0,90,0,0
93983,-83.32177,4,1,0,90,0,0
94083,-82.19178,4,1,0,90,0,0
94183,-81.07012,4,1,0,90,0,0
94283,-79.95736,4,1,0,90,0,0
94333,-79.404465,4,1,0,90,0,0
94383,-78.85399,4,1,0,90,0,0
94433,-78.30598,4,1,0,90,0,0
94483,-77.760506,4,1,0,90,0,0
94583,-76.677315,4,1,0,90,0,0
94683,-75.60484,4,1,0,90,0,0
94783,-74.54343,4,1,0,90,0,0
94883,-73.493385,4,1,0,90,0,0
94933,-72.972725,4,1,0,90,0,0
94983,-72.45502,4,1,0,90,0,0
95033,-71.940285,4,1,0,90,0,0
95083,-71.42857,4,1,0,90,0,0
95084,-124.999995625,4,1,0,90,0,0
95144,-142.857137142857,4,1,0,40,0,0
97416,-166.666658888889,4,1,0,40,0,0
98594,-76.90778,4,1,0,100,0,0
98684,-124.959611582276,4,1,0,100,0,0
98983,-81.6496,4,1,0,100,0,0
99058,-82.87593,4,1,0,100,0,0
99133,-84.12068,4,1,0,100,0,0
99208,-85.384125,4,1,0,100,0,0
99283,-86.66655,4,1,0,100,0,0
99433,-89.28946,4,1,0,100,0,0
99609,-92.910576,4,1,0,100,0,0
99884,-124.959611582276,4,1,0,100,0,0
99909,-98.36496,4,1,0,100,0,0
100234,-105.200584,4,1,0,100,0,0
100533,-111.111115,4,1,0,100,0,0
100745,-102.840706,4,1,0,100,0,0
100933,-96.023056,4,1,0,100,0,0
101084,-124.959611582276,4,1,0,100,0,0
101085,-90.942276,4,1,0,100,0,0
101249,-93.269844,4,1,0,100,0,0
101483,-96.70215,4,1,0,100,0,0
101734,-100.89763,4,1,0,100,0,0
102009,-105.06399,4,1,0,100,0,0
102284,-124.959611582276,4,1,0,100,0,0
102309,-110.04631,4,1,0,100,0,0
102695,-116.60779,4,1,0,100,0,0
102883,-120.04307,4,1,0,100,0,0
103134,-124.99999,4,1,0,100,0,0
103482,-76.90778,4,1,0,100,0,0
103484,-124.959611582276,4,1,0,100,0,0
103783,-81.6496,4,1,0,100,0,0
103858,-82.87593,4,1,0,100,0,0
103933,-84.12068,4,1,0,100,0,0
104008,-85.384125,4,1,0,100,0,0
104083,-86.66655,4,1,0,100,0,0
104233,-89.28946,4,1,0,100,0,0
104409,-92.910576,4,1,0,100,0,0
104682,-97.62478,4,1,0,100,0,0
104684,-124.959611582276,4,1,0,100,0,0
104709,-98.36496,4,1,0,100,0,0
104983,-103.64391,4,1,0,100,0,0
105034,-105.200584,4,1,0,100,0,0
105283,-110.0123,4,1,0,100,0,0
105321,-111.111115,4,1,0,100,0,0
105545,-102.840706,4,1,0,100,0,0
105733,-96.023056,4,1,0,100,0,0
105884,-124.959611582276,4,1,0,100,0,0
105885,-90.942276,4,1,0,100,0,0
106049,-93.61855,4,1,0,100,0,0
106283,-97.57559,4,1,0,100,0,0
106483,-101.090004,4,1,0,100,0,0
106534,-102.4403,4,1,0,100,0,0
106809,-107.300446,4,1,0,100,0,0
107082,-112.39118,4,1,0,100,0,0
107084,-124.959611582276,4,1,0,100,0,0
107109,-113.14932,4,1,0,100,0,0
107495,-120.91078,4,1,0,100,0,0
107683,-124.99999,4,1,0,100,0,0
107934,-100,4,1,0,100,0,0
107983,-98.09195,4,1,0,100,0,0
108058,-94.43226,4,1,0,100,0,0
108133,-90.90909,4,1,0,100,0,0
108282,-76.90778,4,1,0,100,0,0
108284,-124.959611582276,4,1,0,100,0,0
108583,-81.6496,4,1,0,100,0,0
108658,-82.87593,4,1,0,100,0,0
108733,-84.12068,4,1,0,100,0,0
108808,-85.384125,4,1,0,100,0,0
108883,-86.66655,4,1,0,100,0,0
109033,-89.28946,4,1,0,100,0,0
109209,-92.910576,4,1,0,100,0,0
109482,-97.62478,4,1,0,100,0,0
109484,-124.959611582276,4,1,0,100,0,0
109509,-98.36496,4,1,0,100,0,0
109834,-105.200584,4,1,0,100,0,0
109933,-106.78064,4,1,0,100,0,0
110083,-110.0123,4,1,0,100,0,0
110121,-111.111115,4,1,0,100,0,0
110345,-102.840706,4,1,0,100,0,0
110533,-96.023056,4,1,0,100,0,0
110684,-124.959611582276,4,1,0,100,0,0
110685,-90.942276,4,1,0,100,0,0
110849,-93.269844,4,1,0,100,0,0
111083,-96.70215,4,1,0,100,0,0
111283,-99.73569,4,1,0,100,0,0
111334,-100.89763,4,1,0,100,0,0
111609,-105.06399,4,1,0,100,0,0
111882,-109.402374,4,1,0,100,0,0
111884,-124.959611582276,4,1,0,100,0,0
111909,-110.04631,4,1,0,100,0,0
112295,-116.60779,4,1,0,100,0,0
112483,-120.04307,4,1,0,100,0,0
112734,-124.99999,4,1,0,100,0,0
113082,-76.90778,4,1,0,100,0,0
113084,-124.959611582276,4,1,0,100,0,0
113383,-81.6496,4,1,0,100,0,0
113458,-82.87593,4,1,0,100,0,0
113533,-84.12068,4,1,0,100,0,0
113608,-85.384125,4,1,0,100,0,0
113683,-86.66655,4,1,0,100,0,0
113833,-89.28946,4,1,0,100,0,0
114009,-92.910576,4,1,0,100,0,0
114283,-97.64419,4,1,0,100,0,0
114284,-124.959611582276,4,1,0,100,0,0
114309,-98.36496,4,1,0,100,0,0
114583,-103.64391,4,1,0,100,0,0
114634,-105.200584,4,1,0,100,0,0
114883,-110.0123,4,1,0,100,0,0
114921,-111.111115,4,1,0,100,0,0
115145,-102.840706,4,1,0,100,0,0
115333,-96.023056,4,1,0,100,0,0
115484,-124.959611582276,4,1,0,100,0,0
115485,-90.90909,4,1,0,100,0,0
115649,-93.269844,4,1,0,100,0,0
115883,-96.70215,4,1,0,100,0,0
116084,-100,4,1,0,100,0,0
116134,-100.89763,4,1,0,100,0,0
116409,-105.06399,4,1,0,100,0,0
116683,-109.419266,4,1,0,100,0,0
116684,-124.959611582276,4,1,0,100,0,0
116709,-110.04631,4,1,0,100,0,0
117095,-116.60779,4,1,0,100,0,0
117283,-120.04307,4,1,0,100,0,0
117534,-124.99999,4,1,0,100,0,0
117883,-76.92308,4,1,0,100,0,0
117884,-124.959611582276,4,1,0,100,0,1
117958,-78.11075,4,1,0,100,0,1
118033,-79.31677,4,1,0,100,0,1
118108,-80.54141,4,1,0,100,0,1
118183,-81.78496,4,1,0,100,0,1
118258,-83.047714,4,1,0,100,0,1
118333,-84.329956,4,1,0,100,0,1
118408,-85.63199,4,1,0,100,0,1
118483,-86.95413,4,1,0,100,0,1
118633,-89.65999,4,1,0,100,0,1
118783,-92.450035,4,1,0,100,0,1
118833,-93.39921,4,1,0,100,0,1
119008,-96.79873,4,1,0,100,0,1
119084,-124.959611582276,4,1,0,100,0,1
119085,-98.0392156862745,4,1,0,100,0,1
119109,-99.03908,4,1,0,100,0,1
119233,-101.35199,4,1,0,100,0,1
119308,-102.91685,4,1,0,100,0,1
119383,-104.50587,4,1,0,100,0,1
119434,-106.11942,4,1,0,100,0,1
119533,-107.75788,4,1,0,100,0,1
119683,-111.111115,4,1,0,100,0,1
119721,-109.26851,4,1,0,100,0,1
119833,-105.67444,4,1,0,100,0,1
119945,-101.789246,4,1,0,100,0,1
119983,-100.503784,4,1,0,100,0,1
120058,-98.01411,4,1,0,100,0,1
120133,-95.58612,4,1,0,100,0,1
120183,-94.00097,4,1,0,100,0,1
120233,-92.44211,4,1,0,100,0,1
120283,-90.90909,4,1,0,100,0,1
120284,-124.959611582276,4,1,0,100,0,1
120366,-92.06055,4,1,0,100,0,1
120449,-93.2266,4,1,0,100,0,1
120516,-94.17862,4,1,0,100,0,1
120583,-95.14038,4,1,0,100,0,1
120683,-96.59412,4,1,0,100,0,1
120783,-98.070076,4,1,0,100,0,1
120883,-99.56859,4,1,0,100,0,1
120940,-100.70748,4,1,0,100,0,1
121033,-101.859406,4,1,0,100,0,1
121108,-103.0245,4,1,0,100,0,1
121183,-104.20292,4,1,0,100,0,1
121220,-104.78922,4,1,0,100,0,1
121333,-106.60036,4,1,0,100,0,1
121408,-107.81968,4,1,0,100,0,1
121483,-109.05295,4,1,0,100,0,1
121484,-124.959611582276,4,1,0,100,0,1
121520,-109.66654,4,1,0,100,0,1
121708,-112.83804,4,1,0,100,0,1
121783,-114.1287,4,1,0,100,0,1
121895,-116.08365,4,1,0,100,0,1
121933,-116.75451,4,1,0,100,0,1
122083,-119.44073,4,1,0,100,0,1
122158,-120.80692,4,1,0,100,0,1
122233,-122.18874,4,1,0,100,0,1
122334,-124.28174,4,1,0,100,0,1
122383,-124.99999,4,1,0,100,0,1
122683,-76.92308,4,1,0,100,0,1
122684,-124.959611582276,4,1,0,100,0,1
122758,-78.14496,4,1,0,100,0,1
122833,-79.38625,4,1,0,100,0,1
122908,-80.647255,4,1,0,100,0,1
122983,-81.9283,4,1,0,100,0,1
123058,-83.22969,4,1,0,100,0,1
123133,-84.55175,4,1,0,100,0,1
123208,-85.894806,4,1,0,100,0,1
123283,-87.2592,4,1,0,100,0,1
123433,-90.053345,4,1,0,100,0,1
123583,-92.93697,4,1,0,100,0,1
123633,-93.91856,4,1,0,100,0,1
123808,-97.43645,4,1,0,100,0,1
123884,-124.959611582276,4,1,0,100,0,1
123885,-99.009900990099,4,1,0,100,0,1
123909,-99.75676,4,1,0,100,0,1
124033,-102.15378,4,1,0,100,0,1
124108,-103.77643,4,1,0,100,0,1
124183,-105.42487,4,1,0,100,0,1
124234,-107.099495,4,1,0,100,0,1
124409,-111.111115,4,1,0,100,0,1
124483,-109.40914,4,1,0,100,0,1
124521,-107.733246,4,1,0,100,0,1
124633,-104.458084,4,1,0,100,0,1
124745,-100.90796,4,1,0,100,0,1
124783,-99.73107,4,1,0,100,0,1
124858,-97.448395,4,1,0,100,0,1
124933,-95.21797,4,1,0,100,0,1
124983,-93.759445,4,1,0,100,0,1
125033,-92.32327,4,1,0,100,0,1
125083,-90.90909,4,1,0,100,0,1
125084,-124.959611582276,4,1,0,100,0,1
125165,-92.04659,4,1,0,100,0,1
125249,-93.2266,4,1,0,100,0,1
125316,-94.17862,4,1,0,100,0,1
125383,-95.14038,4,1,0,100,0,1
125483,-96.59412,4,1,0,100,0,1
125583,-98.070076,4,1,0,100,0,1
125683,-99.56859,4,1,0,100,0,1
125740,-100.70748,4,1,0,100,0,1
125833,-101.859406,4,1,0,100,0,1
125908,-103.0245,4,1,0,100,0,1
125983,-104.20292,4,1,0,100,0,1
126020,-104.78922,4,1,0,100,0,1
126133,-106.60036,4,1,0,100,0,1
126208,-107.81968,4,1,0,100,0,1
126283,-109.05295,4,1,0,100,0,1
126284,-124.959611582276,4,1,0,100,0,1
126320,-109.66654,4,1,0,100,0,1
126508,-112.83804,4,1,0,100,0,1
126583,-114.1287,4,1,0,100,0,1
126695,-116.08365,4,1,0,100,0,1
126733,-116.75451,4,1,0,100,0,1
126883,-119.44073,4,1,0,100,0,1
126958,-120.80692,4,1,0,100,0,1
127033,-122.18874,4,1,0,100,0,1
127134,-124.28174,4,1,0,100,0,1
127183,-124.99999,4,1,0,100,0,1
127259,-120.481927710843,4,1,0,100,0,1
127333,-90.9090909090909,4,1,0,100,0,1
127383,-87.038826,4,1,0,100,0,1
127433,-83.33333,4,1,0,100,0,1
127483,-76.92308,4,1,0,100,0,1
127484,-124.959611582276,4,1,0,100,0,1
127558,-78.11075,4,1,0,100,0,1
127633,-79.31677,4,1,0,100,0,1
127708,-80.54141,4,1,0,100,0,1
127783,-81.78496,4,1,0,100,0,1
127858,-83.047714,4,1,0,100,0,1
127933,-84.329956,4,1,0,100,0,1
128008,-85.63199,4,1,0,100,0,1
128083,-86.95413,4,1,0,100,0,1
128233,-89.65999,4,1,0,100,0,1
128383,-92.450035,4,1,0,100,0,1
128433,-93.39921,4,1,0,100,0,1
128608,-96.79873,4,1,0,100,0,1
128683,-98.29328,4,1,0,100,0,1
128684,-124.959611582276,4,1,0,100,0,1
128709,-99.03908,4,1,0,100,0,1
128833,-101.35199,4,1,0,100,0,1
128983,-104.50587,4,1,0,100,0,1
129034,-106.11942,4,1,0,100,0,1
129133,-107.75788,4,1,0,100,0,1
129283,-111.111115,4,1,0,100,0,1
129321,-109.26851,4,1,0,100,0,1
129433,-105.67444,4,1,0,100,0,1
129545,-101.789246,4,1,0,100,0,1
129602,-99.267746,4,1,0,100,0,1
129659,-97.0873786407767,4,1,0,100,0,1
129733,-95.58612,4,1,0,100,0,1
129783,-94.00097,4,1,0,100,0,1
129833,-92.44211,4,1,0,100,0,1
129883,-90.90909,4,1,0,100,0,1
129884,-124.959611582276,4,1,0,100,0,1
129967,-92.07452,4,1,0,100,0,1
130049,-93.2266,4,1,0,100,0,1
130116,-94.17862,4,1,0,100,0,1
130183,-95.14038,4,1,0,100,0,1
130283,-96.59412,4,1,0,100,0,1
130333,-97.3293,4,1,0,100,0,1
130383,-98.070076,4,1,0,100,0,1
130483,-99.56859,4,1,0,100,0,1
130540,-100.70748,4,1,0,100,0,1
130633,-101.859406,4,1,0,100,0,1
130708,-103.0245,4,1,0,100,0,1
130783,-104.20292,4,1,0,100,0,1
130820,-104.78922,4,1,0,100,0,1
130933,-106.60036,4,1,0,100,0,1
131008,-107.81968,4,1,0,100,0,1
131083,-109.05295,4,1,0,100,0,1
131084,-124.959611582276,4,1,0,100,0,1
131120,-109.66654,4,1,0,100,0,1
131233,-111.561966,4,1,0,100,0,1
131308,-112.83804,4,1,0,100,0,1
131383,-114.1287,4,1,0,100,0,1
131495,-116.08365,4,1,0,100,0,1
131533,-116.75451,4,1,0,100,0,1
131683,-119.44073,4,1,0,100,0,1
131758,-120.80692,4,1,0,100,0,1
131833,-122.18874,4,1,0,100,0,1
131934,-124.28174,4,1,0,100,0,1
131983,-124.99999,4,1,0,100,0,1
132133,-90.90909,4,1,0,100,0,1
132208,-88.10573,4,1,0,100,0,1
132283,-76.92308,4,1,0,100,0,1
132284,-124.959611582276,4,1,0,100,0,1
132358,-78.11075,4,1,0,100,0,1
132433,-79.31677,4,1,0,100,0,1
132508,-80.54141,4,1,0,100,0,1
132583,-81.78496,4,1,0,100,0,1
132658,-83.047714,4,1,0,100,0,1
132733,-84.329956,4,1,0,100,0,1
132808,-85.63199,4,1,0,100,0,1
132883,-86.95413,4,1,0,100,0,1
133033,-89.65999,4,1,0,100,0,1
133183,-92.450035,4,1,0,100,0,1
133233,-93.39921,4,1,0,100,0,1
133333,-95.3269,4,1,0,100,0,1
133408,-96.79873,4,1,0,100,0,1
133483,-98.29328,4,1,0,100,0,1
133484,-124.959611582276,4,1,0,100,0,1
133509,-99.03908,4,1,0,100,0,1
133708,-102.91685,4,1,0,100,0,1
133783,-104.50587,4,1,0,100,0,1
133834,-106.11942,4,1,0,100,0,1
134008,-109.42166,4,1,0,100,0,1
134083,-111.111115,4,1,0,100,0,1
134121,-109.26851,4,1,0,100,0,1
134233,-105.67444,4,1,0,100,0,1
134345,-101.789246,4,1,0,100,0,1
134420,-99.267746,4,1,0,100,0,1
134533,-95.58612,4,1,0,100,0,1
134583,-94.00097,4,1,0,100,0,1
134633,-92.44211,4,1,0,100,0,1
134683,-90.90909,4,1,0,100,0,1
134684,-124.959611582276,4,1,0,100,0,1
134767,-92.07452,4,1,0,100,0,1
134849,-93.2266,4,1,0,100,0,1
134916,-94.17862,4,1,0,100,0,1
134983,-95.14038,4,1,0,100,0,1
135083,-96.59412,4,1,0,100,0,1
135133,-97.3293,4,1,0,100,0,1
135183,-98.070076,4,1,0,100,0,1
135283,-99.56859,4,1,0,100,0,1
135340,-100.70748,4,1,0,100,0,1
135433,-101.859406,4,1,0,100,0,1
135508,-103.0245,4,1,0,100,0,1
135583,-104.20292,4,1,0,100,0,1
135620,-104.78922,4,1,0,100,0,1
135733,-106.60036,4,1,0,100,0,1
135808,-107.81968,4,1,0,100,0,1
135883,-109.05295,4,1,0,100,0,1
135884,-124.959611582276,4,1,0,100,0,1
135920,-109.66654,4,1,0,100,0,1
136033,-111.561966,4,1,0,100,0,1
136108,-112.83804,4,1,0,100,0,1
136183,-114.1287,4,1,0,100,0,1
136295,-116.08365,4,1,0,100,0,1
136333,-116.75451,4,1,0,100,0,1
136483,-119.44073,4,1,0,100,0,1
136558,-120.80692,4,1,0,100,0,1
136633,-122.18874,4,1,0,100,0,1
136734,-124.28174,4,1,0,100,0,1
136783,-124.99999,4,1,0,100,0,1
137079,-50,4,1,0,100,0,1
137084,-124.99999,4,1,0,100,0,0

[HitObjects]
255,125,19859,5,0,0:0:0:0:
255,125,20084,1,8,0:0:0:0:
263,119,20234,1,8,0:0:0:0:
263,119,20384,1,8,0:0:0:0:
263,119,20534,1,8,0:0:0:0:
266,117,20684,1,0,0:0:0:0:
282,118,20984,1,0,0:0:0:0:
282,118,21134,1,0,0:0:0:0:
276,121,21284,1,8,0:0:0:0:
272,104,21584,1,0,0:0:0:0:
274,112,21884,1,8,0:0:0:0:
288,108,22034,1,0,0:0:0:0:
288,109,22334,1,8,0:0:0:0:
288,109,22409,1,0,0:0:0:0:
288,109,22484,1,8,0:0:0:0:
288,109,22634,1,0,0:0:0:0:
288,109,22784,1,8,0:0:0:0:
288,109,22859,1,0,0:0:0:0:
288,108,22934,1,8,0:0:0:0:
288,108,23009,1,8,0:0:0:0:
288,108,23084,1,0,0:0:0:0:
288,109,23309,1,0,0:0:0:0:
288,109,23384,1,8,0:0:0:0:
282,107,23534,1,0,0:0:0:0:
282,107,23684,1,8,0:0:0:0:
274,96,24209,1,0,0:0:0:0:
282,105,24246,1,0,0:0:0:0:
284,100,24284,1,8,0:0:0:0:
318,117,24584,1,8,0:0:0:0:
283,101,24734,1,0,0:0:0:0:
283,100,24884,1,8,0:0:0:0:
287,103,25034,1,0,0:0:0:0:
288,100,25109,1,8,0:0:0:0:
288,100,25184,1,0,0:0:0:0:
288,100,25259,1,0,0:0:0:0:
288,100,25334,1,8,0:0:0:0:
288,100,25409,1,8,0:0:0:0:
288,100,25484,1,0,0:0:0:0:
296,108,25784,1,0,0:0:0:0:
296,108,25934,1,0,0:0:0:0:
295,108,26084,1,8,0:0:0:0:
296,112,26384,1,0,0:0:0:0:
296,108,26684,1,8,0:0:0:0:
288,108,26834,1,8,0:0:0:0:
295,108,27134,1,0,0:0:0:0:
293,107,27209,1,0,0:0:0:0:
292,107,27284,1,8,0:0:0:0:
292,101,27434,1,0,0:0:0:0:
292,102,27509,1,8,0:0:0:0:
291,102,27584,1,0,0:0:0:0:
296,108,27659,1,0,0:0:0:0:
291,102,27734,1,8,0:0:0:0:
291,102,27884,1,0,0:0:0:0:
293,117,28109,1,0,0:0:0:0:
293,117,28334,1,0,0:0:0:0:
293,117,28484,1,8,0:0:0:0:
292,118,28634,1,8,0:0:0:0:
292,118,28784,1,0,0:0:0:0:
289,117,28934,1,0,0:0:0:0:
293,117,29084,1,8,0:0:0:0:
288,111,29384,1,8,0:0:0:0:
288,111,29534,1,0,0:0:0:0:
285,108,29684,1,8,0:0:0:0:
273,108,29834,1,0,0:0:0:0:
273,108,29909,1,8,0:0:0:0:
273,108,29984,1,0,0:0:0:0:
273,108,30134,1,8,0:0:0:0:
273,108,30284,1,0,0:0:0:0:
277,109,30359,1,0,0:0:0:0:
277,109,30434,1,0,0:0:0:0:
277,109,30509,1,0,0:0:0:0:
277,109,30584,1,8,0:0:0:0:
278,109,30659,1,8,0:0:0:0:
279,119,30734,1,0,0:0:0:0:
280,117,30809,1,0,0:0:0:0:
280,117,30884,1,8,0:0:0:0:
278,105,31034,1,8,0:0:0:0:
279,106,31184,1,0,0:0:0:0:
279,104,31259,1,8,0:0:0:0:
279,104,31334,1,0,0:0:0:0:
279,104,31484,1,8,0:0:0:0:
279,104,31634,1,0,0:0:0:0:
298,98,31784,1,8,0:0:0:0:
282,103,31821,1,8,0:0:0:0:
283,100,31859,1,0,0:0:0:0:
284,100,32009,1,0,0:0:0:0:
284,98,32084,1,8,0:0:0:0:
287,98,32234,1,0,0:0:0:0:
286,101,32309,1,0,0:0:0:0:
286,101,32384,1,8,0:0:0:0:
285,101,32459,1,0,0:0:0:0:
282,93,32534,1,8,0:0:0:0:
282,93,32609,1,8,0:0:0:0:
282,93,32684,1,0,0:0:0:0:
284,92,32984,1,0,0:0:0:0:
281,86,33284,1,8,0:0:0:0:
279,92,33434,1,0,0:0:0:0:
282,93,33584,1,0,0:0:0:0:
284,92,33734,1,0,0:0:0:0:
284,92,33809,1,0,0:0:0:0:
271,96,33884,1,8,0:0:0:0:
281,86,34034,1,0,0:0:0:0:
281,86,34109,1,8,0:0:0:0:
288,89,34184,1,8,0:0:0:0:
281,86,34334,1,0,0:0:0:0:
284,92,34484,1,8,0:0:0:0:
293,90,34784,1,8,0:0:0:0:
305,101,34859,1,8,0:0:0:0:
293,90,34934,1,0,0:0:0:0:
292,89,35009,1,0,0:0:0:0:
281,86,35084,1,8,0:0:0:0:
288,89,35234,1,0,0:0:0:0:
287,85,35384,1,8,0:0:0:0:
288,88,35534,1,0,0:0:0:0:
288,88,35684,1,8,0:0:0:0:
293,90,35984,1,0,0:0:0:0:
292,89,36059,1,8,0:0:0:0:
292,86,36134,1,0,0:0:0:0:
292,86,36209,1,0,0:0:0:0:
292,86,36284,1,8,0:0:0:0:
288,88,36434,1,0,0:0:0:0:
288,88,36584,1,8,0:0:0:0:
288,88,36659,1,8,0:0:0:0:
288,88,36734,1,0,0:0:0:0:
285,87,36809,1,0,0:0:0:0:
285,87,36884,1,8,0:0:0:0:
293,90,37034,1,0,0:0:0:0:
292,91,37184,1,8,0:0:0:0:
285,92,37334,1,8,0:0:0:0:
285,93,37409,1,8,0:0:0:0:
285,93,37484,1,0,0:0:0:0:
285,93,37709,1,8,0:0:0:0:
285,93,37784,1,0,0:0:0:0:
289,93,38009,1,0,0:0:0:0:
292,91,38084,1,8,0:0:0:0:
285,92,38234,1,0,0:0:0:0:
285,92,38309,1,8,0:0:0:0:
285,93,38384,1,0,0:0:0:0:
285,93,38459,1,8,0:0:0:0:
285,93,38534,1,0,0:0:0:0:
285,93,38684,1,8,0:0:0:0:
293,96,38834,1,0,0:0:0:0:
289,93,38909,1,8,0:0:0:0:
289,93,38984,1,8,0:0:0:0:
291,94,39134,1,0,0:0:0:0:
291,94,39284,1,8,0:0:0:0:
289,95,39434,1,0,0:0:0:0:
289,95,39509,1,0,0:0:0:0:
289,95,39584,1,0,0:0:0:0:
289,95,39734,1,0,0:0:0:0:
289,93,39884,1,8,0:0:0:0:
297,88,39984,1,0,0:0:0:0:
293,84,40084,1,0,0:0:0:0:
291,85,40184,1,8,0:0:0:0:
291,94,40259,1,8,0:0:0:0:
289,88,40334,1,0,0:0:0:0:
286,89,40409,1,0,0:0:0:0:
291,85,40484,1,8,0:0:0:0:
291,85,40584,1,8,0:0:0:0:
291,85,40684,1,8,0:0:0:0:
287,86,40784,1,0,0:0:0:0:
289,93,40859,1,0,0:0:0:0:
285,91,40934,1,8,0:0:0:0:
285,91,41009,1,8,0:0:0:0:
293,90,41084,1,0,0:0:0:0:
286,77,41184,1,8,0:0:0:0:
286,77,41284,1,8,0:0:0:0:
283,81,41384,1,0,0:0:0:0:
304,83,41684,1,8,0:0:0:0:
303,83,41784,1,8,0:0:0:0:
285,84,41884,1,0,0:0:0:0:
285,84,41984,1,0,0:0:0:0:
287,91,42184,1,0,0:0:0:0:
287,91,42284,1,8,0:0:0:0:
298,84,42384,1,0,0:0:0:0:
295,85,42484,1,0,0:0:0:0:
295,85,42584,1,8,0:0:0:0:
296,92,42884,1,8,0:0:0:0:
296,92,42984,1,0,0:0:0:0:
296,92,43084,1,8,0:0:0:0:
296,92,43184,1,0,0:0:0:0:
292,82,43384,1,0,0:0:0:0:
300,82,43484,1,8,0:0:0:0:
289,75,43584,1,0,0:0:0:0:
306,85,43684,1,0,0:0:0:0:
299,82,43784,1,8,0:0:0:0:
299,75,43859,1,8,0:0:0:0:
294,78,43934,1,0,0:0:0:0:
288,75,44084,1,8,0:0:0:0:
289,73,44196,1,8,0:0:0:0:
289,73,44309,1,0,0:0:0:0:
290,73,44384,1,8,0:0:0:0:
280,69,44534,1,0,0:0:0:0:
282,67,44584,1,0,0:0:0:0:
283,67,44684,1,8,0:0:0:0:
287,75,44834,1,8,0:0:0:0:
287,75,44984,1,8,0:0:0:0:
288,75,45134,1,8,0:0:0:0:
289,73,45284,1,0,0:0:0:0:
290,73,45384,1,8,0:0:0:0:
298,85,45434,1,0,0:0:0:0:
292,69,45484,1,0,0:0:0:0:
292,69,45584,1,8,0:0:0:0:
292,69,45734,1,8,0:0:0:0:
295,73,45884,1,0,0:0:0:0:
293,63,45984,1,8,0:0:0:0:
293,63,46034,1,8,0:0:0:0:
293,63,46084,1,0,0:0:0:0:
293,63,46184,1,8,0:0:0:0:
296,72,46334,1,0,0:0:0:0:
292,69,46484,1,8,0:0:0:0:
283,68,46584,1,0,0:0:0:0:
283,68,46634,1,0,0:0:0:0:
283,68,46684,1,8,0:0:0:0:
292,69,46784,1,0,0:0:0:0:
288,69,46934,1,8,0:0:0:0:
287,68,47009,1,8,0:0:0:0:
287,68,47084,1,0,0:0:0:0:
286,70,47159,1,0,0:0:0:0:
280,67,47234,1,8,0:0:0:0:
280,68,47309,1,8,0:0:0:0:
276,65,47384,1,0,0:0:0:0:
275,65,47459,1,0,0:0:0:0:
274,66,47534,1,8,0:0:0:0:
274,66,47609,1,0,0:0:0:0:
275,66,47684,1,8,0:0:0:0:
279,63,47759,1,0,0:0:0:0:
276,76,47834,1,0,0:0:0:0:
278,63,47909,1,0,0:0:0:0:
275,62,47984,1,8,0:0:0:0:
279,72,48059,1,8,0:0:0:0:
279,72,48134,1,0,0:0:0:0:
279,72,48209,1,0,0:0:0:0:
281,73,48284,1,8,0:0:0:0:
274,64,48334,1,8,0:0:0:0:
276,65,48384,1,8,0:0:0:0:
274,78,48734,1,8,0:0:0:0:
276,78,49034,1,0,0:0:0:0:
279,78,49184,1,8,0:0:0:0:
279,72,49483,1,0,0:0:0:0:
283,80,49784,1,8,0:0:0:0:
282,76,49859,1,8,0:0:0:0:
282,76,49934,1,8,0:0:0:0:
282,76,50009,1,8,0:0:0:0:
279,78,50084,1,8,0:0:0:0:
292,83,50234,1,8,0:0:0:0:
288,77,50421,1,8,0:0:0:0:
295,73,50709,1,8,0:0:0:0:
303,77,51034,1,8,0:0:0:0:
302,69,51334,1,8,0:0:0:0:
306,66,51546,1,8,0:0:0:0:
295,67,51734,1,8,0:0:0:0:
302,66,51885,1,8,0:0:0:0:
310,65,52050,1,8,0:0:0:0:
308,74,52284,1,8,0:0:0:0:
311,66,52534,1,8,0:0:0:0:
315,77,52809,1,8,0:0:0:0:
319,69,53109,1,8,0:0:0:0:
314,72,53496,1,8,0:0:0:0:
327,68,53934,1,8,0:0:0:0:
329,68,54283,1,0,0:0:0:0:
283,80,54584,1,8,0:0:0:0:
282,76,54659,1,8,0:0:0:0:
282,76,54734,1,8,0:0:0:0:
282,76,54809,1,8,0:0:0:0:
279,78,54884,1,8,0:0:0:0:
292,83,55034,1,8,0:0:0:0:
288,77,55221,1,8,0:0:0:0:
295,73,55509,1,8,0:0:0:0:
303,77,55834,1,8,0:0:0:0:
302,69,56134,1,8,0:0:0:0:
306,66,56346,1,8,0:0:0:0:
295,67,56534,1,8,0:0:0:0:
302,66,56685,1,8,0:0:0:0:
310,65,56850,1,8,0:0:0:0:
308,74,57084,1,8,0:0:0:0:
311,66,57334,1,8,0:0:0:0:
315,77,57609,1,8,0:0:0:0:
319,69,57909,1,8,0:0:0:0:
314,72,58296,1,8,0:0:0:0:
315,77,58484,1,0,0:0:0:0:
327,68,58734,1,8,0:0:0:0:
319,69,58784,1,8,0:0:0:0:
319,69,58859,1,0,0:0:0:0:
331,72,58934,1,0,0:0:0:0:
329,68,59083,1,0,0:0:0:0:
283,80,59384,1,8,0:0:0:0:
282,76,59459,1,8,0:0:0:0:
282,76,59534,1,8,0:0:0:0:
282,76,59609,1,8,0:0:0:0:
279,78,59684,1,8,0:0:0:0:
292,83,59834,1,8,0:0:0:0:
288,77,60021,1,8,0:0:0:0:
241,111,60283,1,8,0:0:0:0:
295,73,60309,1,8,0:0:0:0:
303,77,60634,1,8,0:0:0:0:
299,85,60734,1,0,0:0:0:0:
295,73,60884,1,8,0:0:0:0:
302,69,60934,1,8,0:0:0:0:
306,66,61146,1,8,0:0:0:0:
295,67,61334,1,8,0:0:0:0:
302,66,61485,1,0,0:0:0:0:
310,65,61650,1,8,0:0:0:0:
308,74,61884,1,8,0:0:0:0:
265,112,62084,1,8,0:0:0:0:
311,66,62134,1,8,0:0:0:0:
315,77,62409,1,8,0:0:0:0:
265,112,62683,1,8,0:0:0:0:
319,69,62709,1,8,0:0:0:0:
314,72,63096,1,8,0:0:0:0:
317,123,63284,1,0,0:0:0:0:
327,68,63534,1,8,0:0:0:0:
329,68,63883,1,0,0:0:0:0:
283,80,64184,1,8,0:0:0:0:
282,76,64259,1,8,0:0:0:0:
282,76,64334,1,8,0:0:0:0:
282,76,64409,1,8,0:0:0:0:
279,78,64484,1,8,0:0:0:0:
292,83,64634,1,8,0:0:0:0:
288,77,64821,1,8,0:0:0:0:
241,111,65083,1,8,0:0:0:0:
295,73,65109,1,8,0:0:0:0:
294,133,65384,1,0,0:0:0:0:
303,77,65434,1,8,0:0:0:0:
295,73,65684,1,8,0:0:0:0:
302,69,65734,1,8,0:0:0:0:
306,66,65946,1,8,0:0:0:0:
295,67,66134,1,8,0:0:0:0:
302,66,66285,1,0,0:0:0:0:
310,65,66450,1,8,0:0:0:0:
308,74,66684,1,8,0:0:0:0:
265,112,66884,1,8,0:0:0:0:
311,66,66934,1,8,0:0:0:0:
315,77,67209,1,8,0:0:0:0:
265,112,67483,1,8,0:0:0:0:
319,69,67509,1,8,0:0:0:0:
314,72,67896,1,8,0:0:0:0:
317,123,68084,1,0,0:0:0:0:
327,68,68334,1,8,0:0:0:0:
329,68,68683,1,4,0:0:0:0:
304,131,77459,5,0,0:0:0:0:
304,131,77684,1,8,0:0:0:0:
286,118,77834,1,8,0:0:0:0:
287,117,77984,1,8,0:0:0:0:
287,117,78134,1,0,0:0:0:0:
287,117,78284,1,0,0:0:0:0:
298,115,78584,1,0,0:0:0:0:
298,115,78734,1,0,0:0:0:0:
298,115,78809,1,0,0:0:0:0:
298,115,78884,1,8,0:0:0:0:
306,108,79484,1,0,0:0:0:0:
305,105,79634,1,8,0:0:0:0:
304,107,79784,1,0,0:0:0:0:
306,108,79934,1,8,0:0:0:0:
306,108,80009,1,0,0:0:0:0:
306,108,80084,1,8,0:0:0:0:
306,108,80384,1,0,0:0:0:0:
304,110,80459,1,0,0:0:0:0:
304,110,80534,1,0,0:0:0:0:
304,107,80609,1,0,0:0:0:0:
304,107,80684,1,0,0:0:0:0:
312,110,80909,1,0,0:0:0:0:
315,108,80984,1,8,0:0:0:0:
315,108,81134,1,0,0:0:0:0:
315,108,81284,1,8,0:0:0:0:
315,109,81434,1,8,0:0:0:0:
312,110,81734,1,8,0:0:0:0:
312,113,81884,1,0,0:0:0:0:
312,113,82184,1,8,0:0:0:0:
312,113,82334,1,0,0:0:0:0:
312,110,82484,1,8,0:0:0:0:
317,119,82634,1,0,0:0:0:0:
315,117,82859,1,0,0:0:0:0:
315,117,83009,1,0,0:0:0:0:
315,117,83084,1,8,0:0:0:0:
312,110,83384,1,0,0:0:0:0:
311,114,83534,1,0,0:0:0:0:
315,117,83684,1,8,0:0:0:0:
315,117,83834,1,0,0:0:0:0:
312,110,84059,1,0,0:0:0:0:
312,110,84134,1,0,0:0:0:0:
314,114,84284,1,8,0:0:0:0:
311,114,84434,1,0,0:0:0:0:
315,117,84584,1,0,0:0:0:0:
315,117,84734,1,8,0:0:0:0:
313,114,84884,1,8,0:0:0:0:
314,114,85034,1,0,0:0:0:0:
314,114,85109,1,0,0:0:0:0:
311,114,85184,1,8,0:0:0:0:
311,114,85259,1,8,0:0:0:0:
311,114,85334,1,0,0:0:0:0:
310,114,85484,1,0,0:0:0:0:
305,110,85709,1,0,0:0:0:0:
305,110,85934,1,0,0:0:0:0:
305,110,86084,1,8,0:0:0:0:
306,96,86684,1,8,0:0:0:0:
299,105,86984,1,8,0:0:0:0:
303,103,87134,1,0,0:0:0:0:
303,103,87284,1,8,0:0:0:0:
299,105,87884,1,0,0:0:0:0:
290,97,88184,1,0,0:0:0:0:
299,105,88334,1,0,0:0:0:0:
288,111,88484,1,8,0:0:0:0:
290,97,89084,1,8,0:0:0:0:
285,98,89234,1,8,0:0:0:0:
280,97,89384,1,0,0:0:0:0:
296,95,89534,1,8,0:0:0:0:
294,94,89609,1,0,0:0:0:0:
280,97,89684,1,8,0:0:0:0:
280,94,89834,1,0,0:0:0:0:
280,94,89984,1,0,0:0:0:0:
280,94,90059,1,0,0:0:0:0:
280,97,90209,1,0,0:0:0:0:
286,101,90283,1,8,0:0:0:0:
279,108,90434,1,0,0:0:0:0:
279,108,90509,1,0,0:0:0:0:
273,108,90584,1,8,0:0:0:0:
280,94,90734,1,0,0:0:0:0:
277,101,90884,1,8,0:0:0:0:
277,87,90984,1,0,0:0:0:0:
280,91,91084,1,8,0:0:0:0:
281,92,91184,1,0,0:0:0:0:
271,91,91384,1,0,0:0:0:0:
271,91,91483,1,8,0:0:0:0:
268,78,91584,1,0,0:0:0:0:
270,79,91684,1,0,0:0:0:0:
271,80,91784,1,8,0:0:0:0:
266,77,91859,1,8,0:0:0:0:
266,83,91934,1,0,0:0:0:0:
267,84,92009,1,0,0:0:0:0:
264,84,92084,1,8,0:0:0:0:
283,79,92184,1,8,0:0:0:0:
280,76,92284,1,0,0:0:0:0:
276,78,92384,1,8,0:0:0:0:
276,78,92484,1,0,0:0:0:0:
276,78,92584,1,0,0:0:0:0:
271,80,92683,1,8,0:0:0:0:
268,75,92784,1,0,0:0:0:0:
268,75,92984,1,8,0:0:0:0:
271,68,93059,1,0,0:0:0:0:
271,70,93134,1,0,0:0:0:0:
270,71,93209,1,0,0:0:0:0:
270,71,93284,1,8,0:0:0:0:
276,78,93384,1,8,0:0:0:0:
276,78,93484,1,0,0:0:0:0:
276,77,93584,1,8,0:0:0:0:
269,83,93684,1,8,0:0:0:0:
272,82,93784,1,0,0:0:0:0:
266,81,93834,1,0,0:0:0:0:
274,85,93883,1,8,0:0:0:0:
271,70,93984,1,0,0:0:0:0:
270,71,94084,1,8,0:0:0:0:
276,78,94184,1,8,0:0:0:0:
276,78,94284,1,0,0:0:0:0:
276,77,94334,1,0,0:0:0:0:
276,77,94384,1,0,0:0:0:0:
281,78,94434,1,0,0:0:0:0:
279,75,94484,1,8,0:0:0:0:
285,67,94584,1,0,0:0:0:0:
281,71,94684,1,0,0:0:0:0:
282,73,94784,1,8,0:0:0:0:
307,77,94884,1,0,0:0:0:0:
305,77,94934,1,0,0:0:0:0:
304,76,94984,1,8,0:0:0:0:
304,75,95034,1,8,0:0:0:0:
304,75,95083,1,0,0:0:0:0:
279,72,98683,5,0,0:0:0:0:
283,80,98984,1,8,0:0:0:0:
282,76,99059,1,8,0:0:0:0:
282,76,99134,1,8,0:0:0:0:
282,76,99209,1,8,0:0:0:0:
279,78,99284,1,8,0:0:0:0:
292,83,99434,1,8,0:0:0:0:
288,77,99621,1,8,0:0:0:0:
295,73,99909,1,8,0:0:0:0:
303,77,100234,1,8,0:0:0:0:
302,69,100534,1,8,0:0:0:0:
306,66,100746,1,8,0:0:0:0:
295,67,100934,1,8,0:0:0:0:
302,66,101085,1,8,0:0:0:0:
310,65,101250,1,8,0:0:0:0:
308,74,101484,1,8,0:0:0:0:
311,66,101734,1,8,0:0:0:0:
315,77,102009,1,8,0:0:0:0:
319,69,102309,1,8,0:0:0:0:
314,72,102696,1,8,0:0:0:0:
275,143,102884,1,0,0:0:0:0:
327,68,103134,1,8,0:0:0:0:
329,68,103483,1,0,0:0:0:0:
283,80,103784,1,8,0:0:0:0:
282,76,103859,1,8,0:0:0:0:
282,76,103934,1,8,0:0:0:0:
282,76,104009,1,8,0:0:0:0:
279,78,104084,1,8,0:0:0:0:
292,83,104234,1,8,0:0:0:0:
288,77,104421,1,8,0:0:0:0:
241,111,104683,1,8,0:0:0:0:
295,73,104709,1,8,0:0:0:0:
279,122,104984,1,0,0:0:0:0:
303,77,105034,1,8,0:0:0:0:
295,73,105284,1,8,0:0:0:0:
302,69,105334,1,8,0:0:0:0:
306,66,105546,1,8,0:0:0:0:
295,67,105734,1,8,0:0:0:0:
302,66,105885,1,0,0:0:0:0:
310,65,106050,1,8,0:0:0:0:
308,74,106284,1,8,0:0:0:0:
265,112,106484,1,8,0:0:0:0:
311,66,106534,1,8,0:0:0:0:
315,77,106809,1,8,0:0:0:0:
265,112,107083,1,8,0:0:0:0:
319,69,107109,1,8,0:0:0:0:
314,72,107496,1,8,0:0:0:0:
317,123,107684,1,0,0:0:0:0:
327,68,107934,1,8,0:0:0:0:
316,108,107984,1,8,0:0:0:0:
310,110,108059,1,0,0:0:0:0:
308,111,108134,1,0,0:0:0:0:
329,68,108283,1,0,0:0:0:0:
283,80,108584,1,8,0:0:0:0:
282,76,108659,1,8,0:0:0:0:
282,76,108734,1,8,0:0:0:0:
282,76,108809,1,8,0:0:0:0:
279,78,108884,1,8,0:0:0:0:
292,83,109034,1,8,0:0:0:0:
288,77,109221,1,8,0:0:0:0:
241,111,109483,1,8,0:0:0:0:
295,73,109509,1,8,0:0:0:0:
303,77,109834,1,8,0:0:0:0:
299,85,109934,1,0,0:0:0:0:
295,73,110084,1,8,0:0:0:0:
302,69,110134,1,8,0:0:0:0:
306,66,110346,1,8,0:0:0:0:
295,67,110534,1,8,0:0:0:0:
302,66,110685,1,0,0:0:0:0:
310,65,110850,1,8,0:0:0:0:
308,74,111084,1,8,0:0:0:0:
265,112,111284,1,8,0:0:0:0:
311,66,111334,1,8,0:0:0:0:
315,77,111609,1,8,0:0:0:0:
265,112,111883,1,8,0:0:0:0:
319,69,111909,1,8,0:0:0:0:
314,72,112296,1,8,0:0:0:0:
317,123,112484,1,0,0:0:0:0:
327,68,112734,1,8,0:0:0:0:
329,68,113083,1,0,0:0:0:0:
283,80,113384,1,8,0:0:0:0:
282,76,113459,1,8,0:0:0:0:
282,76,113534,1,8,0:0:0:0:
282,76,113609,1,8,0:0:0:0:
279,78,113684,1,8,0:0:0:0:
292,83,113834,1,8,0:0:0:0:
288,77,114021,1,8,0:0:0:0:
241,111,114283,1,8,0:0:0:0:
295,73,114309,1,8,0:0:0:0:
294,133,114584,1,0,0:0:0:0:
303,77,114634,1,8,0:0:0:0:
295,73,114884,1,8,0:0:0:0:
302,69,114934,1,8,0:0:0:0:
306,66,115146,1,8,0:0:0:0:
295,67,115334,1,8,0:0:0:0:
302,66,115485,1,0,0:0:0:0:
310,65,115650,1,8,0:0:0:0:
308,74,115884,1,8,0:0:0:0:
265,112,116084,1,8,0:0:0:0:
311,66,116134,1,8,0:0:0:0:
315,77,116409,1,8,0:0:0:0:
265,112,116683,1,8,0:0:0:0:
319,69,116709,1,8,0:0:0:0:
314,72,117096,1,8,0:0:0:0:
317,123,117284,1,0,0:0:0:0:
327,68,117534,5,8,0:0:0:0:
279,72,117883,1,0,0:0:0:0:
289,71,117959,1,0,0:0:0:0:
289,71,118034,1,0,0:0:0:0:
288,71,118109,1,0,0:0:0:0:
283,80,118184,1,8,0:0:0:0:
282,76,118259,1,8,0:0:0:0:
282,76,118334,1,8,0:0:0:0:
282,76,118409,1,8,0:0:0:0:
279,78,118484,1,8,0:0:0:0:
292,83,118634,1,8,0:0:0:0:
293,71,118784,1,0,0:0:0:0:
288,77,118834,1,8,0:0:0:0:
298,74,119009,1,0,0:0:0:0:
241,121,119085,1,8,0:0:0:0:
295,73,119109,1,8,0:0:0:0:
308,69,119234,1,0,0:0:0:0:
281,90,119309,1,0,0:0:0:0:
300,73,119384,1,8,0:0:0:0:
303,77,119434,1,8,0:0:0:0:
292,83,119534,1,0,0:0:0:0:
307,69,119684,1,8,0:0:0:0:
302,69,119734,1,8,0:0:0:0:
293,66,119834,1,0,0:0:0:0:
306,66,119946,1,8,0:0:0:0:
300,60,120002,1,8,0:0:0:0:
305,63,120059,1,0,0:0:0:0:
295,67,120134,1,8,0:0:0:0:
308,69,120184,1,8,0:0:0:0:
311,60,120234,1,8,0:0:0:0:
302,66,120283,1,0,0:0:0:0:
298,61,120369,1,0,0:0:0:0:
310,65,120450,1,8,0:0:0:0:
301,63,120517,1,8,0:0:0:0:
306,68,120584,1,0,0:0:0:0:
308,74,120684,1,8,0:0:0:0:
291,68,120784,1,0,0:0:0:0:
312,72,120884,1,8,0:0:0:0:
311,66,120940,1,8,0:0:0:0:
309,66,121034,1,0,0:0:0:0:
310,67,121109,1,0,0:0:0:0:
315,68,121184,1,8,0:0:0:0:
315,77,121221,1,8,0:0:0:0:
306,68,121334,1,0,0:0:0:0:
309,60,121409,1,0,0:0:0:0:
309,60,121483,1,8,0:0:0:0:
319,69,121521,1,8,0:0:0:0:
316,72,121709,1,0,0:0:0:0:
333,73,121784,1,0,0:0:0:0:
314,72,121896,1,8,0:0:0:0:
328,67,121934,1,8,0:0:0:0:
322,64,122084,1,0,0:0:0:0:
317,73,122159,1,0,0:0:0:0:
317,74,122234,1,0,0:0:0:0:
327,68,122334,1,8,0:0:0:0:
299,67,122384,1,8,0:0:0:0:
329,68,122683,1,0,0:0:0:0:
296,58,122759,1,0,0:0:0:0:
297,74,122834,1,0,0:0:0:0:
296,74,122909,1,0,0:0:0:0:
283,80,122984,1,8,0:0:0:0:
282,76,123059,1,8,0:0:0:0:
282,76,123134,1,8,0:0:0:0:
282,76,123209,1,8,0:0:0:0:
279,78,123284,1,8,0:0:0:0:
292,83,123434,1,8,0:0:0:0:
306,112,123584,1,0,0:0:0:0:
288,77,123634,1,8,0:0:0:0:
300,91,123809,1,0,0:0:0:0:
217,125,123885,1,8,0:0:0:0:
295,73,123909,1,8,0:0:0:0:
298,89,124034,1,0,0:0:0:0:
298,89,124109,1,0,0:0:0:0:
302,75,124184,1,8,0:0:0:0:
303,77,124234,1,8,0:0:0:0:
302,68,124409,1,0,0:0:0:0:
305,68,124484,1,8,0:0:0:0:
302,69,124534,1,8,0:0:0:0:
302,69,124634,1,0,0:0:0:0:
306,66,124746,1,8,0:0:0:0:
302,69,124802,1,8,0:0:0:0:
302,68,124859,1,0,0:0:0:0:
295,67,124934,1,8,0:0:0:0:
299,66,124984,1,0,0:0:0:0:
296,68,125034,1,0,0:0:0:0:
302,66,125083,1,8,0:0:0:0:
309,64,125169,1,0,0:0:0:0:
310,65,125250,1,8,0:0:0:0:
322,66,125317,1,8,0:0:0:0:
305,68,125384,1,0,0:0:0:0:
308,74,125484,1,8,0:0:0:0:
299,74,125584,1,0,0:0:0:0:
291,62,125684,1,8,0:0:0:0:
311,66,125740,1,8,0:0:0:0:
318,72,125834,1,0,0:0:0:0:
318,72,125909,1,0,0:0:0:0:
319,67,125984,1,8,0:0:0:0:
315,77,126021,1,8,0:0:0:0:
315,60,126134,1,0,0:0:0:0:
327,64,126209,1,0,0:0:0:0:
305,68,126283,1,8,0:0:0:0:
319,69,126321,1,8,0:0:0:0:
315,71,126509,1,0,0:0:0:0:
315,68,126584,1,0,0:0:0:0:
314,72,126696,1,8,0:0:0:0:
293,77,126734,1,8,0:0:0:0:
315,77,126884,1,0,0:0:0:0:
312,77,126959,1,0,0:0:0:0:
252,101,127034,1,0,0:0:0:0:
327,68,127134,1,8,0:0:0:0:
319,69,127184,1,8,0:0:0:0:
314,54,127334,1,8,0:0:0:0:
329,68,127483,1,0,0:0:0:0:
320,76,127559,1,0,0:0:0:0:
315,77,127634,1,0,0:0:0:0:
315,77,127709,1,0,0:0:0:0:
283,80,127784,1,8,0:0:0:0:
282,76,127859,1,8,0:0:0:0:
282,76,127934,1,8,0:0:0:0:
282,76,128009,1,8,0:0:0:0:
279,78,128084,1,8,0:0:0:0:
292,83,128234,1,8,0:0:0:0:
283,80,128384,1,0,0:0:0:0:
288,77,128434,1,8,0:0:0:0:
292,83,128609,1,0,0:0:0:0:
290,69,128683,1,8,0:0:0:0:
295,73,128709,1,8,0:0:0:0:
296,72,128834,1,0,0:0:0:0:
296,72,128984,1,8,0:0:0:0:
303,77,129034,1,8,0:0:0:0:
287,68,129134,1,0,0:0:0:0:
304,65,129284,1,8,0:0:0:0:
302,69,129334,1,8,0:0:0:0:
297,68,129434,1,0,0:0:0:0:
306,66,129546,1,8,0:0:0:0:
301,66,129621,1,0,0:0:0:0:
295,67,129734,1,8,0:0:0:0:
298,65,129784,1,8,0:0:0:0:
298,65,129834,1,8,0:0:0:0:
302,66,129883,1,0,0:0:0:0:
320,64,129969,1,0,0:0:0:0:
310,65,130050,1,8,0:0:0:0:
248,96,130117,1,8,0:0:0:0:
310,60,130184,1,0,0:0:0:0:
308,74,130284,1,8,0:0:0:0:
307,58,130334,1,8,0:0:0:0:
314,63,130384,1,0,0:0:0:0:
295,72,130484,1,8,0:0:0:0:
311,66,130540,1,8,0:0:0:0:
312,62,130634,1,0,0:0:0:0:
312,62,130709,1,0,0:0:0:0:
311,60,130784,1,8,0:0:0:0:
315,77,130821,1,8,0:0:0:0:
313,61,130934,1,0,0:0:0:0:
329,67,131009,1,0,0:0:0:0:
304,66,131083,1,8,0:0:0:0:
319,69,131121,1,8,0:0:0:0:
328,67,131234,1,0,0:0:0:0:
328,67,131309,1,8,0:0:0:0:
328,67,131384,1,0,0:0:0:0:
314,72,131496,1,8,0:0:0:0:
316,64,131534,1,8,0:0:0:0:
323,68,131684,1,0,0:0:0:0:
305,67,131759,1,0,0:0:0:0:
300,64,131834,1,0,0:0:0:0:
327,68,131934,1,8,0:0:0:0:
319,62,131984,1,8,0:0:0:0:
329,68,132283,1,0,0:0:0:0:
316,83,132359,1,0,0:0:0:0:
316,81,132434,1,0,0:0:0:0:
316,81,132509,1,0,0:0:0:0:
283,80,132584,1,8,0:0:0:0:
282,76,132659,1,8,0:0:0:0:
282,76,132734,1,8,0:0:0:0:
282,76,132809,1,8,0:0:0:0:
279,78,132884,1,8,0:0:0:0:
292,83,133034,1,8,0:0:0:0:
303,73,133184,1,0,0:0:0:0:
288,77,133234,1,8,0:0:0:0:
302,67,133334,1,0,0:0:0:0:
302,67,133409,1,0,0:0:0:0:
308,68,133483,1,8,0:0:0:0:
295,73,133509,1,8,0:0:0:0:
304,67,133709,1,0,0:0:0:0:
291,68,133784,1,0,0:0:0:0:
303,77,133834,1,8,0:0:0:0:
317,79,134009,1,0,0:0:0:0:
312,69,134084,1,8,0:0:0:0:
302,69,134134,1,8,0:0:0:0:
302,67,134234,1,0,0:0:0:0:
306,66,134346,1,8,0:0:0:0:
313,63,134421,1,0,0:0:0:0:
295,67,134534,1,8,0:0:0:0:
301,62,134584,1,0,0:0:0:0:
301,62,134634,1,0,0:0:0:0:
302,66,134683,1,8,0:0:0:0:
301,62,134769,1,0,0:0:0:0:
310,65,134850,1,8,0:0:0:0:
289,77,134917,1,8,0:0:0:0:
305,58,134984,1,0,0:0:0:0:
308,74,135084,1,8,0:0:0:0:
282,73,135134,1,8,0:0:0:0:
306,66,135184,1,0,0:0:0:0:
305,72,135284,1,8,0:0:0:0:
311,66,135340,1,8,0:0:0:0:
312,67,135434,1,0,0:0:0:0:
312,67,135509,1,0,0:0:0:0:
319,64,135584,1,8,0:0:0:0:
315,77,135621,1,8,0:0:0:0:
319,64,135734,1,0,0:0:0:0:
319,64,135809,1,0,0:0:0:0:
307,63,135883,1,8,0:0:0:0:
319,69,135921,1,8,0:0:0:0:
320,64,136034,1,0,0:0:0:0:
320,64,136109,1,8,0:0:0:0:
320,64,136184,1,0,0:0:0:0:
314,72,136296,1,8,0:0:0:0:
326,68,136334,1,8,0:0:0:0:
318,71,136484,1,0,0:0:0:0:
322,69,136559,1,0,0:0:0:0:
318,73,136634,1,0,0:0:0:0:
327,68,136734,1,8,0:0:0:0:
297,89,136784,1,8,0:0:0:0:
329,68,137083,1,4,0:0:0:0:
