osu file format v14

[General]
AudioFilename: audio.mp3
AudioLeadIn: 0
PreviewTime: 101522
Countdown: 0
SampleSet: Normal
StackLeniency: 0.7
Mode: 1
LetterboxInBreaks: 0
WidescreenStoryboard: 1

[Editor]
DistanceSpacing: 0.8
BeatDivisor: 12
GridSize: 32
TimelineZoom: 3.599999

[Metadata]
Title:?_?
TitleUnicode:?_?
Artist:7_7
ArtistUnicode:7_7
Creator:7_7
Version:huh?
Source:
Tags:ktyn kitajimayn waribashi featured artist fa electronic instrumental
BeatmapID:2428158
BeatmapSetID:1163967

[Difficulty]
HPDrainRate:7.7
CircleSize:5
OverallDifficulty:6.6
ApproachRate:5
SliderMultiplier:1.4
SliderTickRate:1

[Events]
//Background and Video events
0,0,"huh.jpg",0,0
//Break Periods
2,73222,78504
//Storyboard Layer 0 (Background)
//Storyboard Layer 1 (Fail)
//Storyboard Layer 2 (Pass)
//Storyboard Layer 3 (Foreground)
//Storyboard Layer 4 (Overlay)
//Storyboard Sound Samples

[TimingPoints]
68,272.727272727273,4,1,0,90,1,0
2454,-100,4,1,0,60,0,0
10227,-100,4,1,0,80,0,0
10636,-100,4,1,0,90,0,0
10908,-100,4,1,0,60,0,0
19090,-100,4,1,0,90,0,0
38249,-90.9090909090909,4,1,0,90,0,1
55704,-90.9090909090909,4,1,0,90,0,0
57273,-95.2380952380952,4,1,0,90,0,0
57886,-90.9090909090909,4,1,0,90,0,1
73158,-100,4,1,0,90,0,0
79637,-100,4,1,0,60,0,0
80659,-100,4,1,0,70,0,0
81137,-100,4,1,0,80,0,0
81546,-100,4,1,0,90,0,0
82909,-125,4,1,0,60,0,0
97227,-181.818181818181,4,1,0,40,0,0
100909,-100,4,1,0,70,0,0
101522,-90.9090909090909,4,1,0,90,0,1
118977,-86.9565217391304,4,1,0,90,0,1
136431,-86.9565217391304,4,1,0,90,0,0

[HitObjects]
206,152,2249,5,4,0:0:0:0:
250,125,2522,1,0,0:0:0:0:
249,126,2795,1,2,0:0:0:0:
249,126,3068,1,2,0:0:0:0:
249,126,3204,1,0,0:0:0:0:
187,158,3340,1,2,0:0:0:0:
187,158,3477,1,2,0:0:0:0:
187,158,3613,1,0,0:0:0:0:
192,162,3886,1,0,0:0:0:0:
192,162,4022,1,2,0:0:0:0:
165,125,4158,1,2,0:0:0:0:
192,166,4295,1,0,0:0:0:0:
192,166,4431,1,0,0:0:0:0:
192,166,4704,1,0,0:0:0:0:
192,166,4977,1,2,0:0:0:0:
192,166,5249,1,2,0:0:0:0:
192,166,5386,1,0,0:0:0:0:
180,179,5522,1,2,0:0:0:0:
180,179,5658,1,2,0:0:0:0:
180,179,5795,1,0,0:0:0:0:
180,179,6068,1,0,0:0:0:0:
180,179,6136,1,0,0:0:0:0:
180,179,6204,1,2,0:0:0:0:
180,179,6340,1,2,0:0:0:0:
179,188,6477,1,0,0:0:0:0:
178,174,6613,1,0,0:0:0:0:
178,172,6886,1,0,0:0:0:0:
178,172,7158,1,2,0:0:0:0:
178,172,7431,1,2,0:0:0:0:
178,172,7568,1,0,0:0:0:0:
204,168,7704,1,2,0:0:0:0:
165,124,7840,1,0,0:0:0:0:
165,124,7977,1,2,0:0:0:0:
165,124,8249,1,0,0:0:0:0:
165,124,8318,1,0,0:0:0:0:
165,124,8386,1,2,0:0:0:0:
165,124,8522,1,2,0:0:0:0:
165,124,8590,1,0,0:0:0:0:
165,124,8658,1,0,0:0:0:0:
165,124,8795,1,0,0:0:0:0:
165,125,9068,1,0,0:0:0:0:
165,125,9340,1,2,0:0:0:0:
165,125,9408,1,2,0:0:0:0:
165,125,9477,1,0,0:0:0:0:
165,125,9545,1,0,0:0:0:0:
165,125,9613,1,2,0:0:0:0:
165,125,9749,1,2,0:0:0:0:
165,125,9886,1,0,0:0:0:0:
165,125,10022,1,0,0:0:0:0:
165,125,10158,1,2,0:0:0:0:
165,125,10295,1,2,0:0:0:0:
165,125,10363,1,0,0:0:0:0:
165,125,10499,1,0,0:0:0:0:
165,125,10568,1,2,0:0:0:0:
153,116,10704,1,2,0:0:0:0:
200,113,10749,1,2,0:0:0:0:
200,113,10795,1,2,0:0:0:0:
200,113,10840,1,2,0:0:0:0:
152,96,10977,1,0,0:0:0:0:
146,106,11249,1,0,0:0:0:0:
204,168,11522,1,2,0:0:0:0:
146,106,11795,1,2,0:0:0:0:
146,106,11931,1,0,0:0:0:0:
152,96,12068,1,0,0:0:0:0:
146,106,12204,1,0,0:0:0:0:
146,106,12340,1,2,0:0:0:0:
146,106,12613,1,0,0:0:0:0:
146,106,12681,1,2,0:0:0:0:
146,106,12749,1,2,0:0:0:0:
146,106,12886,1,2,0:0:0:0:
146,106,12954,1,2,0:0:0:0:
146,106,13022,1,0,0:0:0:0:
152,96,13158,1,0,0:0:0:0:
146,106,13431,1,0,0:0:0:0:
146,106,13704,1,2,0:0:0:0:
146,106,13840,1,0,0:0:0:0:
176,97,13908,1,0,0:0:0:0:
146,106,13977,1,2,0:0:0:0:
255,79,14113,1,0,0:0:0:0:
152,96,14249,1,0,0:0:0:0:
255,79,14386,1,0,0:0:0:0:
255,79,14522,1,2,0:0:0:0:
255,79,14795,1,0,0:0:0:0:
255,79,14863,1,0,0:0:0:0:
255,79,14931,1,2,0:0:0:0:
255,79,15068,1,2,0:0:0:0:
255,79,15136,1,2,0:0:0:0:
255,79,15204,1,0,0:0:0:0:
171,118,15340,1,0,0:0:0:0:
255,79,15613,1,0,0:0:0:0:
255,79,15886,1,2,0:0:0:0:
255,79,16158,1,2,0:0:0:0:
255,79,16295,1,0,0:0:0:0:
255,79,16431,1,0,0:0:0:0:
255,79,16568,1,0,0:0:0:0:
255,79,16704,1,2,0:0:0:0:
171,118,16977,1,0,0:0:0:0:
171,118,17045,1,0,0:0:0:0:
171,118,17113,1,2,0:0:0:0:
171,118,17181,1,0,0:0:0:0:
171,118,17249,1,2,0:0:0:0:
171,118,17318,1,0,0:0:0:0:
171,118,17386,1,0,0:0:0:0:
152,96,17522,1,0,0:0:0:0:
171,118,17795,1,0,0:0:0:0:
171,118,18068,1,2,0:0:0:0:
155,94,18408,1,2,0:0:0:0:
168,17,18579,1,0,0:0:0:0:
155,94,18766,1,2,0:0:0:0:
155,94,18971,1,0,0:0:0:0:
186,133,19158,1,2,0:0:0:0:
186,133,19295,1,0,0:0:0:0:
186,133,19431,1,0,0:0:0:0:
186,133,19499,1,0,0:0:0:0:
186,133,19568,1,0,0:0:0:0:
155,126,19704,1,4,0:0:0:0:
138,70,19840,1,0,0:0:0:0:
97,57,19977,1,2,0:0:0:0:
173,107,20113,1,2,0:0:0:0:
167,104,20181,1,2,0:0:0:0:
186,133,20249,1,0,0:0:0:0:
165,96,20386,1,0,0:0:0:0:
165,96,20454,1,0,0:0:0:0:
165,96,20522,1,2,0:0:0:0:
165,96,20658,1,2,0:0:0:0:
165,96,20795,1,0,0:0:0:0:
226,113,20931,1,0,0:0:0:0:
226,113,20999,1,2,0:0:0:0:
226,113,21068,1,2,0:0:0:0:
165,96,21204,1,2,0:0:0:0:
165,96,21272,1,2,0:0:0:0:
165,96,21340,1,0,0:0:0:0:
115,98,21408,1,2,0:0:0:0:
115,98,21477,1,0,0:0:0:0:
115,98,21545,1,0,0:0:0:0:
165,96,21613,1,2,0:0:0:0:
156,117,21749,1,2,0:0:0:0:
115,98,21818,1,2,0:0:0:0:
156,117,21886,1,0,0:0:0:0:
115,98,22022,1,0,0:0:0:0:
165,96,22158,1,2,0:0:0:0:
186,114,22295,1,2,0:0:0:0:
167,104,22363,1,2,0:0:0:0:
186,114,22431,1,0,0:0:0:0:
186,114,22568,1,0,0:0:0:0:
167,104,22636,1,0,0:0:0:0:
165,96,22704,1,2,0:0:0:0:
167,104,22840,1,2,0:0:0:0:
167,104,22977,1,0,0:0:0:0:
167,104,23045,1,2,0:0:0:0:
167,104,23113,1,0,0:0:0:0:
165,96,23249,1,2,0:0:0:0:
167,104,23386,1,2,0:0:0:0:
167,104,23454,1,2,0:0:0:0:
261,116,23522,1,0,0:0:0:0:
167,104,23658,1,0,0:0:0:0:
204,122,23727,1,0,0:0:0:0:
165,96,23795,1,2,0:0:0:0:
167,104,23863,1,0,0:0:0:0:
167,104,23931,1,2,0:0:0:0:
167,104,24068,1,0,0:0:0:0:
170,81,24204,1,0,0:0:0:0:
170,95,24340,1,2,0:0:0:0:
115,98,24477,1,2,0:0:0:0:
115,98,24545,1,2,0:0:0:0:
115,98,24613,1,0,0:0:0:0:
115,98,24749,1,0,0:0:0:0:
115,98,24818,1,0,0:0:0:0:
115,98,24886,1,2,0:0:0:0:
115,98,25022,1,2,0:0:0:0:
115,98,25158,1,0,0:0:0:0:
182,133,25227,1,2,0:0:0:0:
161,85,25295,1,2,0:0:0:0:
161,85,25363,1,0,0:0:0:0:
182,133,25431,1,2,0:0:0:0:
161,85,25568,1,2,0:0:0:0:
161,85,25636,1,2,0:0:0:0:
161,85,25704,1,0,0:0:0:0:
161,85,25772,1,2,0:0:0:0:
161,85,25840,1,0,0:0:0:0:
161,85,25908,1,0,0:0:0:0:
161,85,25977,1,2,0:0:0:0:
161,85,26045,1,0,0:0:0:0:
161,85,26113,1,2,0:0:0:0:
161,85,26249,1,0,0:0:0:0:
161,85,26386,1,0,0:0:0:0:
161,85,26522,1,2,0:0:0:0:
161,85,26658,1,2,0:0:0:0:
161,85,26727,1,2,0:0:0:0:
161,85,26795,1,0,0:0:0:0:
161,85,26863,1,2,0:0:0:0:
204,122,26931,1,0,0:0:0:0:
161,85,26999,1,0,0:0:0:0:
161,85,27068,1,2,0:0:0:0:
161,85,27204,1,2,0:0:0:0:
182,133,27340,1,0,0:0:0:0:
182,133,27408,1,2,0:0:0:0:
182,133,27477,1,0,0:0:0:0:
182,133,27545,1,0,0:0:0:0:
182,133,27613,1,2,0:0:0:0:
182,133,27749,1,2,0:0:0:0:
182,133,27818,1,0,0:0:0:0:
182,133,27886,1,2,0:0:0:0:
185,75,27954,1,2,0:0:0:0:
185,75,28022,1,0,0:0:0:0:
185,75,28090,1,0,0:0:0:0:
185,75,28158,1,2,0:0:0:0:
185,75,28295,1,2,0:0:0:0:
185,75,28340,1,2,0:0:0:0:
185,75,28386,1,2,0:0:0:0:
185,75,28431,1,0,0:0:0:0:
66,178,28568,1,0,0:0:0:0:
229,112,28704,1,2,0:0:0:0:
165,89,28840,1,0,0:0:0:0:
165,89,28908,1,2,0:0:0:0:
164,99,28977,1,0,0:0:0:0:
163,110,29113,1,0,0:0:0:0:
229,112,29249,1,2,0:0:0:0:
225,101,29386,1,2,0:0:0:0:
225,101,29454,1,2,0:0:0:0:
225,101,29522,1,0,0:0:0:0:
225,101,29658,1,0,0:0:0:0:
225,101,29727,1,0,0:0:0:0:
229,112,29795,1,2,0:0:0:0:
225,101,29931,1,0,0:0:0:0:
225,101,29999,1,2,0:0:0:0:
225,101,30068,1,0,0:0:0:0:
168,119,30136,1,0,0:0:0:0:
209,150,30204,1,0,0:0:0:0:
229,112,30340,1,2,0:0:0:0:
166,96,30408,5,2,0:0:0:0:
166,96,30477,1,2,0:0:0:0:
166,96,30545,1,2,0:0:0:0:
166,96,30613,1,0,0:0:0:0:
190,119,30749,1,0,0:0:0:0:
229,112,30886,1,2,0:0:0:0:
190,127,31022,1,0,0:0:0:0:
190,127,31090,1,2,0:0:0:0:
190,127,31158,1,0,0:0:0:0:
190,127,31295,1,0,0:0:0:0:
229,112,31431,1,2,0:0:0:0:
153,89,31568,1,2,0:0:0:0:
153,89,31636,1,2,0:0:0:0:
153,89,31704,1,0,0:0:0:0:
153,89,31840,1,0,0:0:0:0:
229,112,31977,1,2,0:0:0:0:
153,90,32113,1,0,0:0:0:0:
153,90,32181,1,2,0:0:0:0:
153,90,32249,1,0,0:0:0:0:
166,96,32386,1,0,0:0:0:0:
169,122,32454,1,0,0:0:0:0:
229,112,32522,1,2,0:0:0:0:
169,121,32590,1,2,0:0:0:0:
169,122,32658,1,0,0:0:0:0:
169,121,32727,1,2,0:0:0:0:
169,121,32795,1,0,0:0:0:0:
176,110,32931,1,0,0:0:0:0:
229,112,33068,1,2,0:0:0:0:
176,122,33204,1,0,0:0:0:0:
176,122,33340,1,2,0:0:0:0:
176,122,33408,1,0,0:0:0:0:
176,122,33477,1,0,0:0:0:0:
229,112,33613,1,2,0:0:0:0:
176,123,33749,1,2,0:0:0:0:
176,123,33886,1,0,0:0:0:0:
176,123,34022,1,0,0:0:0:0:
229,112,34158,1,2,0:0:0:0:
176,123,34295,1,0,0:0:0:0:
176,123,34431,1,2,0:0:0:0:
176,123,34499,1,0,0:0:0:0:
176,123,34568,1,0,0:0:0:0:
176,123,34636,1,0,0:0:0:0:
229,112,34704,1,2,0:0:0:0:
176,123,34840,1,2,0:0:0:0:
176,123,34977,1,0,0:0:0:0:
176,123,35045,1,0,0:0:0:0:
176,123,35113,1,2,0:0:0:0:
176,123,35181,1,0,0:0:0:0:
229,112,35249,1,2,0:0:0:0:
176,123,35318,1,2,0:0:0:0:
176,123,35386,1,0,0:0:0:0:
176,123,35454,1,2,0:0:0:0:
176,123,35522,1,0,0:0:0:0:
176,123,35590,1,0,0:0:0:0:
176,123,35658,1,2,0:0:0:0:
176,123,35727,1,0,0:0:0:0:
229,112,35795,1,2,0:0:0:0:
176,123,35863,1,2,0:0:0:0:
176,123,35931,1,0,0:0:0:0:
176,123,35999,1,0,0:0:0:0:
176,123,36068,1,2,0:0:0:0:
246,81,36113,1,2,0:0:0:0:
246,81,36158,1,2,0:0:0:0:
246,81,36204,1,0,0:0:0:0:
221,77,36272,1,0,0:0:0:0:
139,129,36340,5,2,0:0:0:0:
260,85,36386,1,0,0:0:0:0:
161,124,36431,1,0,0:0:0:0:
260,85,36477,1,2,0:0:0:0:
174,107,36545,1,0,0:0:0:0:
175,117,36613,1,2,0:0:0:0:
147,108,36681,1,2,0:0:0:0:
147,108,36749,1,0,0:0:0:0:
221,79,36886,1,12,0:0:0:0:
256,192,37158,12,0,38113,0:0:0:0:
210,124,38249,5,4,0:0:0:0:
229,54,38386,1,0,0:0:0:0:
173,77,38522,1,2,0:0:0:0:
166,55,38568,1,0,0:0:0:0:
167,59,38613,1,0,0:0:0:0:
173,77,38658,1,2,0:0:0:0:
238,67,38795,1,2,0:0:0:0:
217,76,38931,1,0,0:0:0:0:
210,124,39068,1,2,0:0:0:0:
144,62,39113,1,2,0:0:0:0:
144,62,39158,1,2,0:0:0:0:
157,62,39204,1,0,0:0:0:0:
157,62,39340,1,4,0:0:0:0:
207,85,39477,1,0,0:0:0:0:
207,85,39545,1,0,0:0:0:0:
207,85,39613,1,2,0:0:0:0:
207,90,39681,1,0,0:0:0:0:
211,102,39749,1,2,0:0:0:0:
211,102,39886,1,0,0:0:0:0:
221,61,39954,1,2,0:0:0:0:
221,61,40022,1,0,0:0:0:0:
146,88,40090,1,0,0:0:0:0:
146,88,40158,1,2,0:0:0:0:
203,95,40204,1,2,0:0:0:0:
203,97,40249,1,2,0:0:0:0:
203,97,40295,1,0,0:0:0:0:
146,88,40431,1,0,0:0:0:0:
137,77,40482,1,0,0:0:0:0:
137,77,40568,1,0,0:0:0:0:
137,77,40619,1,0,0:0:0:0:
209,124,40704,1,2,0:0:0:0:
137,77,40840,1,0,0:0:0:0:
137,77,40891,1,0,0:0:0:0:
137,77,40977,1,0,0:0:0:0:
137,77,41028,1,0,0:0:0:0:
137,77,41113,1,2,0:0:0:0:
170,135,41249,1,0,0:0:0:0:
209,37,41295,1,0,0:0:0:0:
209,37,41340,1,0,0:0:0:0:
209,37,41386,1,2,0:0:0:0:
215,34,41522,1,0,0:0:0:0:
236,43,41573,1,0,0:0:0:0:
236,43,41658,1,0,0:0:0:0:
236,43,41710,1,0,0:0:0:0:
209,124,41795,1,2,0:0:0:0:
236,43,41931,1,0,0:0:0:0:
236,43,41982,1,0,0:0:0:0:
236,43,42068,1,0,0:0:0:0:
236,43,42119,1,0,0:0:0:0:
181,61,42204,5,2,0:0:0:0:
145,92,42340,1,2,0:0:0:0:
131,112,42386,1,0,0:0:0:0:
131,112,42431,1,0,0:0:0:0:
131,112,42477,1,2,0:0:0:0:
203,62,42613,1,4,0:0:0:0:
181,84,42749,1,0,0:0:0:0:
209,124,42886,1,2,0:0:0:0:
183,44,42931,1,0,0:0:0:0:
183,45,42977,1,0,0:0:0:0:
183,48,43022,1,2,0:0:0:0:
241,66,43158,1,2,0:0:0:0:
177,67,43295,1,0,0:0:0:0:
177,67,43431,1,2,0:0:0:0:
177,67,43477,1,2,0:0:0:0:
177,67,43522,1,2,0:0:0:0:
177,67,43568,1,0,0:0:0:0:
160,72,43704,1,4,0:0:0:0:
177,67,43840,1,0,0:0:0:0:
180,56,43977,1,2,0:0:0:0:
180,56,44045,1,0,0:0:0:0:
180,56,44113,1,2,0:0:0:0:
180,56,44181,1,2,0:0:0:0:
180,56,44249,1,0,0:0:0:0:
180,56,44318,1,2,0:0:0:0:
180,56,44386,1,0,0:0:0:0:
180,56,44454,1,0,0:0:0:0:
209,124,44522,1,2,0:0:0:0:
227,53,44568,1,2,0:0:0:0:
227,53,44613,1,2,0:0:0:0:
227,53,44658,1,0,0:0:0:0:
227,53,44795,1,0,0:0:0:0:
227,53,44846,1,0,0:0:0:0:
227,53,44931,1,0,0:0:0:0:
227,53,44982,1,0,0:0:0:0:
209,124,45068,1,2,0:0:0:0:
227,53,45204,1,0,0:0:0:0:
227,53,45255,1,0,0:0:0:0:
227,53,45340,1,0,0:0:0:0:
227,53,45391,1,0,0:0:0:0:
227,53,45477,1,2,0:0:0:0:
131,112,45613,1,0,0:0:0:0:
206,55,45658,1,0,0:0:0:0:
206,55,45704,1,0,0:0:0:0:
206,55,45749,1,2,0:0:0:0:
247,42,45886,1,0,0:0:0:0:
247,42,45954,1,2,0:0:0:0:
247,42,46022,1,2,0:0:0:0:
247,42,46090,1,0,0:0:0:0:
247,42,46158,1,2,0:0:0:0:
247,42,46227,1,2,0:0:0:0:
247,42,46295,1,0,0:0:0:0:
247,42,46363,1,2,0:0:0:0:
247,42,46431,1,0,0:0:0:0:
247,42,46499,1,0,0:0:0:0:
247,42,46568,1,2,0:0:0:0:
247,42,46636,1,0,0:0:0:0:
209,124,46704,1,2,0:0:0:0:
247,42,46772,1,2,0:0:0:0:
245,47,46840,1,2,0:0:0:0:
247,42,46908,1,2,0:0:0:0:
247,42,46977,1,0,0:0:0:0:
216,138,47181,1,0,0:0:0:0:
245,47,47249,1,2,0:0:0:0:
216,138,47386,1,0,0:0:0:0:
223,119,47522,1,2,0:0:0:0:
216,138,47590,1,0,0:0:0:0:
216,138,47658,1,0,0:0:0:0:
245,47,47795,1,2,0:0:0:0:
215,137,47931,1,2,0:0:0:0:
176,20,47999,1,2,0:0:0:0:
215,137,48068,1,0,0:0:0:0:
215,137,48204,1,0,0:0:0:0:
214,105,48272,1,0,0:0:0:0:
245,47,48340,1,2,0:0:0:0:
245,69,48408,1,0,0:0:0:0:
214,105,48477,1,2,0:0:0:0:
214,105,48613,1,0,0:0:0:0:
214,105,48681,1,2,0:0:0:0:
214,105,48749,1,0,0:0:0:0:
214,105,48818,1,0,0:0:0:0:
245,47,48886,1,2,0:0:0:0:
209,87,48931,1,2,0:0:0:0:
209,88,48977,1,2,0:0:0:0:
209,90,49022,1,0,0:0:0:0:
227,53,49158,1,0,0:0:0:0:
227,53,49210,1,0,0:0:0:0:
227,53,49295,1,0,0:0:0:0:
227,53,49346,1,0,0:0:0:0:
209,124,49431,1,2,0:0:0:0:
227,53,49568,1,0,0:0:0:0:
227,53,49619,1,0,0:0:0:0:
227,53,49704,1,0,0:0:0:0:
227,53,49755,1,0,0:0:0:0:
227,53,49840,1,2,0:0:0:0:
131,112,49977,1,0,0:0:0:0:
206,55,50022,1,0,0:0:0:0:
206,55,50068,1,0,0:0:0:0:
206,55,50113,1,2,0:0:0:0:
227,53,50249,1,0,0:0:0:0:
227,53,50300,1,0,0:0:0:0:
227,53,50386,1,0,0:0:0:0:
227,53,50437,1,0,0:0:0:0:
209,124,50522,1,2,0:0:0:0:
227,53,50658,1,0,0:0:0:0:
227,53,50710,1,0,0:0:0:0:
227,53,50795,1,0,0:0:0:0:
227,53,50846,1,0,0:0:0:0:
227,53,50931,1,2,0:0:0:0:
209,124,51068,1,2,0:0:0:0:
206,55,51113,1,0,0:0:0:0:
206,55,51158,1,0,0:0:0:0:
206,55,51204,1,2,0:0:0:0:
131,112,51340,1,4,0:0:0:0:
171,134,51477,1,0,0:0:0:0:
245,47,51613,1,2,0:0:0:0:
125,87,51658,1,0,0:0:0:0:
128,92,51704,1,0,0:0:0:0:
128,93,51749,1,2,0:0:0:0:
171,134,51886,1,2,0:0:0:0:
171,134,52022,1,0,0:0:0:0:
148,42,52090,5,0,0:0:0:0:
245,47,52158,1,2,0:0:0:0:
205,52,52204,1,2,0:0:0:0:
205,52,52249,1,2,0:0:0:0:
228,104,52295,1,0,0:0:0:0:
166,117,52431,1,4,0:0:0:0:
228,104,52568,1,0,0:0:0:0:
228,104,52636,1,0,0:0:0:0:
245,47,52704,1,2,0:0:0:0:
228,104,52772,1,0,0:0:0:0:
228,104,52840,1,2,0:0:0:0:
228,104,52908,1,2,0:0:0:0:
228,104,52977,1,0,0:0:0:0:
228,104,53045,1,2,0:0:0:0:
228,104,53113,1,0,0:0:0:0:
228,104,53181,1,0,0:0:0:0:
245,47,53249,1,2,0:0:0:0:
211,69,53295,1,2,0:0:0:0:
211,69,53340,1,2,0:0:0:0:
211,69,53386,1,0,0:0:0:0:
227,53,53522,1,0,0:0:0:0:
227,53,53573,1,0,0:0:0:0:
227,53,53658,1,0,0:0:0:0:
227,53,53710,1,0,0:0:0:0:
209,124,53795,1,2,0:0:0:0:
227,53,53931,1,0,0:0:0:0:
227,53,53982,1,0,0:0:0:0:
227,53,54068,1,0,0:0:0:0:
227,53,54119,1,0,0:0:0:0:
227,53,54204,1,2,0:0:0:0:
131,112,54340,1,0,0:0:0:0:
206,55,54386,1,0,0:0:0:0:
206,55,54431,1,0,0:0:0:0:
206,55,54477,1,2,0:0:0:0:
214,159,54613,1,0,0:0:0:0:
214,159,54681,1,0,0:0:0:0:
214,159,54749,1,2,0:0:0:0:
214,159,54818,1,0,0:0:0:0:
214,159,54886,1,0,0:0:0:0:
214,159,54954,1,2,0:0:0:0:
214,159,55022,1,0,0:0:0:0:
214,159,55090,1,0,0:0:0:0:
214,164,55158,1,2,0:0:0:0:
214,164,55227,1,0,0:0:0:0:
214,164,55295,1,0,0:0:0:0:
214,164,55363,1,2,0:0:0:0:
214,164,55431,1,0,0:0:0:0:
214,164,55499,1,0,0:0:0:0:
214,164,55568,1,2,0:0:0:0:
214,164,55636,1,2,0:0:0:0:
256,192,55704,12,0,56795,0:0:0:0:
221,122,57340,5,0,0:0:0:0:
221,122,57408,1,0,0:0:0:0:
221,122,57477,1,0,0:0:0:0:
221,122,57545,1,0,0:0:0:0:
221,122,57613,1,0,0:0:0:0:
221,122,57681,1,0,0:0:0:0:
221,122,57749,1,0,0:0:0:0:
221,122,57886,1,4,0:0:0:0:
179,63,58090,1,0,0:0:0:0:
179,63,58158,1,2,0:0:0:0:
180,125,58295,1,0,0:0:0:0:
166,85,58431,1,2,0:0:0:0:
180,125,58499,1,2,0:0:0:0:
180,125,58568,1,0,0:0:0:0:
186,128,58704,1,2,0:0:0:0:
180,127,58840,1,2,0:0:0:0:
180,128,58908,1,0,0:0:0:0:
180,128,58977,1,0,0:0:0:0:
180,128,59113,1,0,0:0:0:0:
186,128,59249,1,2,0:0:0:0:
144,86,59386,5,0,0:0:0:0:
179,63,59454,1,2,0:0:0:0:
144,86,59522,1,2,0:0:0:0:
144,86,59590,1,2,0:0:0:0:
144,86,59658,1,0,0:0:0:0:
186,128,59795,1,2,0:0:0:0:
211,133,59931,1,0,0:0:0:0:
143,87,59999,1,0,0:0:0:0:
211,133,60068,1,2,0:0:0:0:
143,87,60136,1,2,0:0:0:0:
143,87,60204,1,2,0:0:0:0:
143,87,60272,1,0,0:0:0:0:
186,128,60340,1,2,0:0:0:0:
143,87,60477,1,2,0:0:0:0:
143,87,60613,1,0,0:0:0:0:
156,78,60749,1,0,0:0:0:0:
177,120,60818,1,0,0:0:0:0:
177,120,60886,1,2,0:0:0:0:
177,120,60954,1,2,0:0:0:0:
162,77,61090,1,2,0:0:0:0:
146,100,61158,1,0,0:0:0:0:
148,112,61227,1,0,0:0:0:0:
148,112,61295,1,2,0:0:0:0:
231,148,61363,1,0,0:0:0:0:
231,148,61431,1,2,0:0:0:0:
174,91,61568,1,0,0:0:0:0:
231,148,61636,1,2,0:0:0:0:
265,138,61704,1,0,0:0:0:0:
265,138,61772,1,0,0:0:0:0:
156,65,61840,1,2,0:0:0:0:
175,93,61908,1,0,0:0:0:0:
183,122,61977,1,2,0:0:0:0:
151,127,62045,1,2,0:0:0:0:
183,122,62113,1,0,0:0:0:0:
146,100,62181,1,2,0:0:0:0:
146,100,62249,1,0,0:0:0:0:
169,129,62386,1,2,0:0:0:0:
146,122,62454,1,0,0:0:0:0:
146,122,62522,1,2,0:0:0:0:
171,71,62590,1,2,0:0:0:0:
146,122,62658,1,0,0:0:0:0:
131,46,62704,1,0,0:0:0:0:
131,46,62749,1,0,0:0:0:0:
146,122,62795,1,2,0:0:0:0:
146,122,62863,1,2,0:0:0:0:
146,122,62931,1,0,0:0:0:0:
125,72,63068,1,2,0:0:0:0:
125,72,63136,1,2,0:0:0:0:
161,54,63272,1,2,0:0:0:0:
161,54,63340,1,0,0:0:0:0:
156,121,63477,1,2,0:0:0:0:
156,121,63545,1,0,0:0:0:0:
156,121,63613,1,2,0:0:0:0:
156,121,63681,1,2,0:0:0:0:
169,129,63749,1,0,0:0:0:0:
169,129,63818,1,0,0:0:0:0:
169,129,63886,1,2,0:0:0:0:
169,129,63954,1,0,0:0:0:0:
169,129,64022,1,0,0:0:0:0:
169,129,64090,1,2,0:0:0:0:
169,129,64158,1,0,0:0:0:0:
169,129,64227,1,0,0:0:0:0:
169,129,64295,1,2,0:0:0:0:
169,129,64363,1,2,0:0:0:0:
156,145,64431,1,0,0:0:0:0:
229,54,64568,1,0,0:0:0:0:
173,77,64704,1,2,0:0:0:0:
166,55,64749,1,0,0:0:0:0:
167,59,64795,1,0,0:0:0:0:
173,77,64840,1,2,0:0:0:0:
238,67,64977,1,2,0:0:0:0:
217,76,65113,1,0,0:0:0:0:
210,124,65249,1,2,0:0:0:0:
144,62,65295,1,2,0:0:0:0:
144,62,65340,1,2,0:0:0:0:
157,62,65386,1,0,0:0:0:0:
176,72,65522,1,0,0:0:0:0:
207,85,65658,1,0,0:0:0:0:
207,85,65727,1,0,0:0:0:0:
207,85,65795,1,2,0:0:0:0:
207,90,65863,1,0,0:0:0:0:
211,102,65931,1,2,0:0:0:0:
211,102,66068,1,0,0:0:0:0:
221,61,66136,1,2,0:0:0:0:
221,61,66204,1,0,0:0:0:0:
146,88,66272,1,0,0:0:0:0:
146,88,66340,1,2,0:0:0:0:
203,95,66386,1,2,0:0:0:0:
203,97,66431,1,2,0:0:0:0:
203,97,66477,1,0,0:0:0:0:
158,94,66613,1,0,0:0:0:0:
158,94,66681,1,2,0:0:0:0:
158,94,66749,1,2,0:0:0:0:
158,94,66818,1,2,0:0:0:0:
158,94,66886,1,2,0:0:0:0:
141,99,67090,1,2,0:0:0:0:
141,99,67158,1,0,0:0:0:0:
141,99,67295,1,0,0:0:0:0:
158,94,67431,1,2,0:0:0:0:
141,99,67499,1,2,0:0:0:0:
156,68,67636,1,2,0:0:0:0:
156,79,67704,1,0,0:0:0:0:
156,79,67840,1,0,0:0:0:0:
158,94,67977,1,2,0:0:0:0:
156,79,68045,1,0,0:0:0:0:
154,82,68113,1,0,0:0:0:0:
154,82,68181,1,0,0:0:0:0:
156,79,68249,1,2,0:0:0:0:
151,61,68295,1,2,0:0:0:0:
151,61,68340,1,2,0:0:0:0:
154,82,68386,1,0,0:0:0:0:
244,42,68454,1,0,0:0:0:0:
244,42,68522,1,2,0:0:0:0:
154,83,68658,1,0,0:0:0:0:
203,62,68795,1,4,0:0:0:0:
181,84,68931,1,0,0:0:0:0:
209,124,69068,1,2,0:0:0:0:
183,44,69113,1,0,0:0:0:0:
183,45,69158,1,0,0:0:0:0:
183,48,69204,1,2,0:0:0:0:
241,66,69340,1,2,0:0:0:0:
177,67,69477,1,0,0:0:0:0:
177,67,69613,1,2,0:0:0:0:
177,67,69658,1,2,0:0:0:0:
177,67,69704,1,2,0:0:0:0:
177,67,69749,1,0,0:0:0:0:
160,72,69886,1,4,0:0:0:0:
177,67,70022,1,0,0:0:0:0:
180,56,70158,1,2,0:0:0:0:
180,56,70227,1,0,0:0:0:0:
180,56,70295,1,2,0:0:0:0:
180,56,70363,1,2,0:0:0:0:
180,56,70431,1,0,0:0:0:0:
180,56,70499,1,2,0:0:0:0:
180,56,70568,1,0,0:0:0:0:
180,56,70636,1,0,0:0:0:0:
209,124,70704,1,2,0:0:0:0:
227,53,70749,1,2,0:0:0:0:
227,53,70795,1,2,0:0:0:0:
227,53,70840,1,0,0:0:0:0:
205,52,70977,1,0,0:0:0:0:
205,52,71181,1,0,0:0:0:0:
205,52,71249,1,2,0:0:0:0:
205,52,71386,1,2,0:0:0:0:
205,52,71454,1,0,0:0:0:0:
205,52,71522,1,2,0:0:0:0:
205,52,71658,1,0,0:0:0:0:
206,52,71795,1,2,0:0:0:0:
205,52,71863,1,2,0:0:0:0:
206,52,71999,1,2,0:0:0:0:
205,52,72068,1,0,0:0:0:0:
162,33,72204,1,2,0:0:0:0:
166,54,72272,1,0,0:0:0:0:
166,54,72340,1,0,0:0:0:0:
166,57,72408,1,2,0:0:0:0:
166,54,72477,1,0,0:0:0:0:
167,62,72545,1,0,0:0:0:0:
167,62,72613,1,2,0:0:0:0:
226,49,72681,1,0,0:0:0:0:
226,49,72749,1,0,0:0:0:0:
226,49,72818,1,2,0:0:0:0:
226,49,72886,1,0,0:0:0:0:
194,68,72931,1,0,0:0:0:0:
194,68,72977,1,0,0:0:0:0:
194,68,73022,1,2,0:0:0:0:
212,152,79704,5,0,0:0:0:0:
212,152,79977,1,2,0:0:0:0:
212,152,80045,1,2,0:0:0:0:
212,152,80113,1,0,0:0:0:0:
212,152,80181,1,2,0:0:0:0:
212,152,80249,1,0,0:0:0:0:
212,152,80318,1,0,0:0:0:0:
212,152,80386,1,2,0:0:0:0:
212,152,80522,1,2,0:0:0:0:
212,152,80727,1,2,0:0:0:0:
206,127,80795,5,0,0:0:0:0:
212,152,80931,1,0,0:0:0:0:
206,127,81068,1,2,0:0:0:0:
206,127,81204,1,2,0:0:0:0:
206,127,81340,1,0,0:0:0:0:
206,127,81408,1,0,0:0:0:0:
206,127,81477,1,2,0:0:0:0:
206,127,81613,1,2,0:0:0:0:
205,109,81658,1,2,0:0:0:0:
205,109,81704,1,2,0:0:0:0:
205,109,81749,1,2,0:0:0:0:
219,88,81818,1,2,0:0:0:0:
211,151,81886,1,0,0:0:0:0:
183,205,82977,1,0,0:0:0:0:
183,205,84068,1,0,0:0:0:0:
183,205,85158,1,0,0:0:0:0:
183,205,86249,1,0,0:0:0:0:
183,205,87340,1,0,0:0:0:0:
183,205,88431,1,0,0:0:0:0:
183,205,89522,1,0,0:0:0:0:
201,199,90068,1,2,0:0:0:0:
172,133,90613,1,0,0:0:0:0:
195,112,91704,1,0,0:0:0:0:
191,101,92795,1,0,0:0:0:0:
129,184,93886,1,0,0:0:0:0:
209,123,94977,1,0,0:0:0:0:
194,127,96068,1,0,0:0:0:0:
188,178,97158,5,0,0:0:0:0:
183,205,100977,1,0,0:0:0:0:
183,205,101045,1,0,0:0:0:0:
183,205,101113,1,0,0:0:0:0:
183,205,101181,1,0,0:0:0:0:
183,205,101249,1,0,0:0:0:0:
183,205,101318,1,0,0:0:0:0:
183,205,101386,1,0,0:0:0:0:
183,205,101522,1,4,0:0:0:0:
296,277,101658,1,2,0:0:0:0:
157,165,101727,1,0,0:0:0:0:
242,163,101795,1,2,0:0:0:0:
157,172,101931,1,2,0:0:0:0:
201,242,102068,1,2,0:0:0:0:
157,172,102136,1,0,0:0:0:0:
196,222,102204,1,0,0:0:0:0:
227,155,102272,1,0,0:0:0:0:
242,163,102340,1,2,0:0:0:0:
158,183,102477,1,2,0:0:0:0:
156,188,102613,1,0,0:0:0:0:
163,127,102749,1,0,0:0:0:0:
296,277,102818,1,0,0:0:0:0:
242,163,102886,1,2,0:0:0:0:
163,127,102954,1,0,0:0:0:0:
163,127,103022,1,2,0:0:0:0:
163,127,103090,1,2,0:0:0:0:
163,127,103158,1,0,0:0:0:0:
163,127,103227,1,2,0:0:0:0:
163,127,103295,1,0,0:0:0:0:
156,188,103363,1,0,0:0:0:0:
242,163,103431,1,2,0:0:0:0:
156,188,103499,1,2,0:0:0:0:
156,188,103568,1,2,0:0:0:0:
156,188,103636,1,2,0:0:0:0:
156,188,103704,1,0,0:0:0:0:
146,133,103908,1,0,0:0:0:0:
156,188,103977,1,2,0:0:0:0:
146,133,104113,1,0,0:0:0:0:
146,133,104181,1,2,0:0:0:0:
146,133,104249,1,0,0:0:0:0:
146,133,104386,1,0,0:0:0:0:
156,188,104522,1,2,0:0:0:0:
146,133,104658,1,2,0:0:0:0:
146,133,104727,1,0,0:0:0:0:
146,133,104795,1,0,0:0:0:0:
146,133,104931,1,0,0:0:0:0:
146,133,104999,1,0,0:0:0:0:
156,188,105068,1,2,0:0:0:0:
146,133,105136,1,0,0:0:0:0:
146,133,105204,1,2,0:0:0:0:
146,133,105272,1,2,0:0:0:0:
146,133,105340,1,0,0:0:0:0:
151,87,105408,1,2,0:0:0:0:
151,87,105477,1,0,0:0:0:0:
156,188,105613,1,2,0:0:0:0:
150,91,105749,1,2,0:0:0:0:
158,123,105886,1,0,0:0:0:0:
131,54,106022,1,2,0:0:0:0:
156,69,106090,1,0,0:0:0:0:
156,69,106158,1,2,0:0:0:0:
146,120,106227,1,2,0:0:0:0:
146,120,106363,1,2,0:0:0:0:
146,120,106431,1,0,0:0:0:0:
146,120,106499,1,2,0:0:0:0:
146,120,106568,1,0,0:0:0:0:
158,123,106704,1,2,0:0:0:0:
146,120,106772,1,2,0:0:0:0:
146,120,106840,1,0,0:0:0:0:
146,120,106908,1,2,0:0:0:0:
146,120,106977,1,0,0:0:0:0:
162,123,107045,1,0,0:0:0:0:
169,73,107113,1,2,0:0:0:0:
169,73,107249,1,0,0:0:0:0:
146,120,107318,1,2,0:0:0:0:
146,120,107454,1,2,0:0:0:0:
146,120,107522,1,0,0:0:0:0:
146,120,107590,1,2,0:0:0:0:
146,120,107658,1,0,0:0:0:0:
146,120,107727,1,0,0:0:0:0:
158,123,107795,1,2,0:0:0:0:
146,120,107863,1,2,0:0:0:0:
146,120,107999,1,2,0:0:0:0:
146,120,108068,1,0,0:0:0:0:
175,120,108204,1,2,0:0:0:0:
175,120,108272,1,2,0:0:0:0:
175,120,108340,1,0,0:0:0:0:
170,74,108386,1,0,0:0:0:0:
170,74,108431,1,0,0:0:0:0:
170,74,108477,1,2,0:0:0:0:
185,82,108613,1,2,0:0:0:0:
185,82,108681,1,2,0:0:0:0:
185,82,108749,1,0,0:0:0:0:
185,82,108818,1,0,0:0:0:0:
158,123,108886,1,2,0:0:0:0:
185,82,109022,1,2,0:0:0:0:
185,82,109158,1,2,0:0:0:0:
185,82,109227,1,2,0:0:0:0:
185,82,109295,1,0,0:0:0:0:
185,82,109363,1,2,0:0:0:0:
158,123,109431,1,2,0:0:0:0:
185,82,109499,1,0,0:0:0:0:
185,82,109568,1,2,0:0:0:0:
185,82,109636,1,2,0:0:0:0:
185,82,109704,1,0,0:0:0:0:
191,82,109772,1,2,0:0:0:0:
191,82,109840,1,2,0:0:0:0:
191,82,109908,1,0,0:0:0:0:
158,123,109977,1,2,0:0:0:0:
156,69,110045,1,2,0:0:0:0:
191,82,110113,1,0,0:0:0:0:
191,82,110181,1,0,0:0:0:0:
191,82,110249,1,0,0:0:0:0:
163,127,110386,1,0,0:0:0:0:
191,82,110454,1,0,0:0:0:0:
191,82,110522,1,2,0:0:0:0:
163,127,110658,1,2,0:0:0:0:
156,69,110795,1,2,0:0:0:0:
152,4,110863,1,0,0:0:0:0:
191,82,110931,1,0,0:0:0:0:
156,69,110999,1,0,0:0:0:0:
191,82,111068,1,2,0:0:0:0:
156,69,111204,1,2,0:0:0:0:
156,69,111272,1,2,0:0:0:0:
191,82,111340,1,0,0:0:0:0:
156,69,111477,1,2,0:0:0:0:
156,69,111545,1,2,0:0:0:0:
191,82,111613,1,2,0:0:0:0:
163,131,111681,1,0,0:0:0:0:
156,69,111749,1,2,0:0:0:0:
163,131,111818,1,2,0:0:0:0:
191,89,111886,1,0,0:0:0:0:
156,69,111954,1,2,0:0:0:0:
191,82,112022,1,0,0:0:0:0:
156,69,112090,1,0,0:0:0:0:
191,89,112158,1,2,0:0:0:0:
156,69,112227,1,2,0:0:0:0:
156,69,112295,1,2,0:0:0:0:
156,69,112363,1,2,0:0:0:0:
156,69,112431,1,0,0:0:0:0:
156,69,112636,1,0,0:0:0:0:
156,69,112704,1,2,0:0:0:0:
156,69,112840,1,0,0:0:0:0:
156,69,112908,1,2,0:0:0:0:
156,69,112977,1,0,0:0:0:0:
156,69,113113,1,0,0:0:0:0:
156,69,113249,1,2,0:0:0:0:
156,69,113386,1,2,0:0:0:0:
111,162,113454,1,0,0:0:0:0:
111,162,113522,1,0,0:0:0:0:
177,121,113658,1,0,0:0:0:0:
177,121,113727,1,0,0:0:0:0:
177,121,113795,1,2,0:0:0:0:
177,121,113931,1,0,0:0:0:0:
177,121,114068,1,2,0:0:0:0:
177,121,114136,1,2,0:0:0:0:
177,121,114204,1,0,0:0:0:0:
177,121,114340,1,2,0:0:0:0:
177,121,114477,1,2,0:0:0:0:
158,123,114613,1,0,0:0:0:0:
131,54,114749,1,2,0:0:0:0:
156,69,114818,1,0,0:0:0:0:
156,69,114886,1,2,0:0:0:0:
146,120,114954,1,2,0:0:0:0:
146,120,115090,1,2,0:0:0:0:
146,120,115158,1,0,0:0:0:0:
146,120,115227,1,2,0:0:0:0:
146,120,115295,1,0,0:0:0:0:
158,123,115431,1,2,0:0:0:0:
146,120,115499,1,2,0:0:0:0:
146,120,115568,1,0,0:0:0:0:
146,120,115636,1,2,0:0:0:0:
146,120,115704,1,0,0:0:0:0:
163,131,115772,1,0,0:0:0:0:
169,73,115840,1,2,0:0:0:0:
126,87,115908,1,2,0:0:0:0:
126,87,115977,1,0,0:0:0:0:
146,120,116045,1,2,0:0:0:0:
151,148,116181,1,2,0:0:0:0:
151,148,116249,1,0,0:0:0:0:
146,120,116318,1,2,0:0:0:0:
128,102,116386,1,0,0:0:0:0:
146,120,116454,1,0,0:0:0:0:
158,123,116522,1,2,0:0:0:0:
146,120,116590,1,2,0:0:0:0:
146,120,116727,1,2,0:0:0:0:
146,120,116795,1,0,0:0:0:0:
159,97,116931,1,2,0:0:0:0:
161,102,116999,1,2,0:0:0:0:
161,105,117068,1,0,0:0:0:0:
256,87,117113,1,0,0:0:0:0:
256,87,117158,1,0,0:0:0:0:
256,87,117204,1,2,0:0:0:0:
246,77,117340,1,2,0:0:0:0:
246,77,117408,1,2,0:0:0:0:
246,77,117477,1,0,0:0:0:0:
246,77,117545,1,0,0:0:0:0:
246,77,117613,1,2,0:0:0:0:
246,77,117749,1,0,0:0:0:0:
246,77,117886,1,2,0:0:0:0:
246,77,117954,1,2,0:0:0:0:
246,77,118022,1,0,0:0:0:0:
246,77,118090,1,2,0:0:0:0:
246,77,118158,1,0,0:0:0:0:
246,77,118227,1,0,0:0:0:0:
246,77,118295,1,2,0:0:0:0:
246,77,118363,1,2,0:0:0:0:
246,77,118431,1,0,0:0:0:0:
246,77,118499,1,2,0:0:0:0:
246,77,118568,1,2,0:0:0:0:
246,77,118636,1,0,0:0:0:0:
246,77,118704,1,2,0:0:0:0:
246,77,118772,1,2,0:0:0:0:
246,77,118840,1,0,0:0:0:0:
246,77,118908,1,0,0:0:0:0:
246,77,118977,1,2,0:0:0:0:
246,77,119045,1,2,0:0:0:0:
246,77,119113,1,0,0:0:0:0:
246,77,119181,1,0,0:0:0:0:
246,77,119249,1,2,0:0:0:0:
246,77,119318,1,0,0:0:0:0:
246,77,119386,1,2,0:0:0:0:
246,77,119454,1,2,0:0:0:0:
246,77,119522,1,0,0:0:0:0:
246,77,119590,1,2,0:0:0:0:
246,77,119658,1,0,0:0:0:0:
246,77,119727,1,0,0:0:0:0:
246,77,119795,1,2,0:0:0:0:
246,77,119863,1,2,0:0:0:0:
246,77,119931,1,2,0:0:0:0:
246,77,119999,1,0,0:0:0:0:
246,77,120068,1,2,0:0:0:0:
246,77,120136,1,2,0:0:0:0:
246,77,120204,1,0,0:0:0:0:
246,77,120272,1,0,0:0:0:0:
246,77,120340,1,2,0:0:0:0:
246,77,120408,1,0,0:0:0:0:
246,77,120477,1,2,0:0:0:0:
246,77,120545,1,2,0:0:0:0:
246,77,120613,1,0,0:0:0:0:
246,77,120681,1,2,0:0:0:0:
246,77,120749,1,0,0:0:0:0:
246,77,120818,1,0,0:0:0:0:
246,77,120886,1,2,0:0:0:0:
246,77,120954,1,2,0:0:0:0:
246,77,121022,1,2,0:0:0:0:
246,77,121090,1,0,0:0:0:0:
246,77,121158,1,2,0:0:0:0:
246,77,121227,1,2,0:0:0:0:
246,77,121295,1,0,0:0:0:0:
246,77,121363,1,0,0:0:0:0:
246,77,121431,1,2,0:0:0:0:
246,77,121499,1,0,0:0:0:0:
246,77,121568,1,2,0:0:0:0:
246,77,121636,1,2,0:0:0:0:
246,77,121704,1,0,0:0:0:0:
246,77,121772,1,2,0:0:0:0:
246,77,121840,1,0,0:0:0:0:
246,77,121908,1,0,0:0:0:0:
246,77,121977,1,2,0:0:0:0:
246,77,122045,1,2,0:0:0:0:
246,77,122113,1,0,0:0:0:0:
246,77,122181,1,0,0:0:0:0:
246,77,122249,1,2,0:0:0:0:
246,77,122318,1,2,0:0:0:0:
246,77,122386,1,2,0:0:0:0:
246,77,122454,1,0,0:0:0:0:
246,77,122522,1,2,0:0:0:0:
246,77,122590,1,2,0:0:0:0:
246,77,122658,1,0,0:0:0:0:
246,77,122727,1,0,0:0:0:0:
246,77,122795,1,2,0:0:0:0:
246,77,122863,1,2,0:0:0:0:
258,143,122931,1,0,0:0:0:0:
246,77,122999,1,0,0:0:0:0:
246,77,123068,1,2,0:0:0:0:
258,143,123136,1,2,0:0:0:0:
246,77,123204,1,0,0:0:0:0:
166,116,123272,1,0,0:0:0:0:
166,116,123340,1,2,0:0:0:0:
177,134,123408,1,0,0:0:0:0:
166,116,123477,1,0,0:0:0:0:
139,63,123545,1,2,0:0:0:0:
140,71,123613,1,0,0:0:0:0:
141,78,123681,1,0,0:0:0:0:
141,79,123749,1,2,0:0:0:0:
146,120,123818,1,2,0:0:0:0:
146,120,123886,1,0,0:0:0:0:
182,71,123954,1,2,0:0:0:0:
182,71,124022,1,0,0:0:0:0:
177,134,124090,1,0,0:0:0:0:
158,123,124158,1,2,0:0:0:0:
146,120,124227,1,2,0:0:0:0:
146,120,124295,1,0,0:0:0:0:
163,87,124363,1,2,0:0:0:0:
163,87,124431,1,0,0:0:0:0:
163,87,124499,1,0,0:0:0:0:
163,87,124568,1,2,0:0:0:0:
161,102,124636,1,0,0:0:0:0:
161,102,124704,1,2,0:0:0:0:
177,105,124772,1,0,0:0:0:0:
177,134,124840,1,2,0:0:0:0:
151,148,124908,1,2,0:0:0:0:
151,148,124977,1,0,0:0:0:0:
146,120,125045,1,2,0:0:0:0:
128,102,125113,1,2,0:0:0:0:
146,120,125181,1,0,0:0:0:0:
158,123,125249,1,2,0:0:0:0:
161,87,125318,1,2,0:0:0:0:
146,120,125386,1,0,0:0:0:0:
146,120,125454,1,2,0:0:0:0:
146,120,125522,1,0,0:0:0:0:
182,71,125590,1,0,0:0:0:0:
166,31,125658,1,2,0:0:0:0:
166,37,125704,1,0,0:0:0:0:
166,37,125749,1,0,0:0:0:0:
161,87,125795,1,2,0:0:0:0:
161,87,125863,1,0,0:0:0:0:
161,87,125931,1,2,0:0:0:0:
161,87,125999,1,2,0:0:0:0:
161,87,126068,1,0,0:0:0:0:
161,87,126136,1,0,0:0:0:0:
161,87,126204,1,2,0:0:0:0:
161,87,126272,1,0,0:0:0:0:
161,87,126340,1,2,0:0:0:0:
161,96,126408,1,2,0:0:0:0:
161,96,126477,1,0,0:0:0:0:
161,87,126613,1,2,0:0:0:0:
252,74,126681,1,2,0:0:0:0:
252,74,126749,1,0,0:0:0:0:
252,74,126818,1,2,0:0:0:0:
252,74,126886,1,2,0:0:0:0:
252,74,126954,1,0,0:0:0:0:
252,74,127022,1,2,0:0:0:0:
252,74,127090,1,2,0:0:0:0:
252,74,127158,1,0,0:0:0:0:
252,74,127227,1,2,0:0:0:0:
252,74,127295,1,2,0:0:0:0:
252,74,127363,1,0,0:0:0:0:
252,74,127431,1,2,0:0:0:0:
252,74,127499,1,2,0:0:0:0:
252,74,127568,1,0,0:0:0:0:
252,74,127636,1,0,0:0:0:0:
246,77,127704,1,2,0:0:0:0:
246,77,127772,1,2,0:0:0:0:
246,77,127840,1,0,0:0:0:0:
246,77,127908,1,0,0:0:0:0:
246,77,127977,1,2,0:0:0:0:
246,77,128045,1,0,0:0:0:0:
246,77,128113,1,2,0:0:0:0:
246,77,128181,1,2,0:0:0:0:
246,77,128249,1,0,0:0:0:0:
246,77,128318,1,2,0:0:0:0:
246,77,128386,1,0,0:0:0:0:
246,77,128454,1,0,0:0:0:0:
246,77,128522,1,2,0:0:0:0:
246,77,128590,1,2,0:0:0:0:
246,77,128658,1,2,0:0:0:0:
246,77,128727,1,0,0:0:0:0:
246,77,128795,1,2,0:0:0:0:
246,77,128863,1,2,0:0:0:0:
246,77,128931,1,0,0:0:0:0:
246,77,128999,1,0,0:0:0:0:
246,77,129068,1,2,0:0:0:0:
246,77,129136,1,0,0:0:0:0:
246,77,129204,1,2,0:0:0:0:
246,77,129272,1,2,0:0:0:0:
246,77,129340,1,0,0:0:0:0:
246,77,129408,1,2,0:0:0:0:
158,79,129477,1,2,0:0:0:0:
246,77,129545,1,0,0:0:0:0:
246,77,129613,1,2,0:0:0:0:
246,77,129681,1,2,0:0:0:0:
124,90,129749,1,0,0:0:0:0:
246,77,129818,1,0,0:0:0:0:
246,77,129886,1,2,0:0:0:0:
246,77,129954,1,2,0:0:0:0:
246,77,130022,1,0,0:0:0:0:
246,77,130090,1,0,0:0:0:0:
246,77,130158,1,2,0:0:0:0:
246,77,130227,1,0,0:0:0:0:
246,77,130295,1,2,0:0:0:0:
162,110,130363,1,2,0:0:0:0:
246,77,130431,1,0,0:0:0:0:
246,77,130499,1,2,0:0:0:0:
246,77,130568,1,0,0:0:0:0:
246,77,130636,1,0,0:0:0:0:
246,77,130704,1,2,0:0:0:0:
246,77,130772,1,2,0:0:0:0:
246,77,130840,1,0,0:0:0:0:
246,77,130908,1,0,0:0:0:0:
246,77,130977,1,2,0:0:0:0:
246,77,131045,1,2,0:0:0:0:
246,77,131113,1,2,0:0:0:0:
246,77,131181,1,0,0:0:0:0:
246,77,131249,1,2,0:0:0:0:
246,77,131318,1,2,0:0:0:0:
246,77,131386,1,0,0:0:0:0:
246,77,131454,1,0,0:0:0:0:
246,77,131522,1,2,0:0:0:0:
246,77,131590,1,2,0:0:0:0:
258,143,131658,1,0,0:0:0:0:
246,77,131727,1,0,0:0:0:0:
246,77,131795,1,2,0:0:0:0:
258,143,131863,1,2,0:0:0:0:
246,77,131931,1,0,0:0:0:0:
166,116,131999,1,0,0:0:0:0:
166,116,132068,1,2,0:0:0:0:
177,134,132136,1,0,0:0:0:0:
166,116,132204,1,0,0:0:0:0:
139,63,132272,1,2,0:0:0:0:
140,71,132340,1,0,0:0:0:0:
141,78,132408,1,0,0:0:0:0:
141,79,132477,1,2,0:0:0:0:
146,120,132545,1,2,0:0:0:0:
146,120,132613,1,0,0:0:0:0:
182,71,132681,1,2,0:0:0:0:
182,71,132749,1,0,0:0:0:0:
177,134,132818,1,0,0:0:0:0:
158,123,132886,1,2,0:0:0:0:
146,120,132954,1,2,0:0:0:0:
146,120,133022,1,0,0:0:0:0:
163,87,133090,1,2,0:0:0:0:
163,87,133158,1,0,0:0:0:0:
163,87,133227,1,0,0:0:0:0:
163,87,133295,1,2,0:0:0:0:
161,102,133363,1,0,0:0:0:0:
161,102,133431,1,2,0:0:0:0:
177,105,133499,1,0,0:0:0:0:
177,134,133568,1,2,0:0:0:0:
151,148,133636,1,2,0:0:0:0:
151,148,133704,1,0,0:0:0:0:
146,120,133772,1,0,0:0:0:0:
128,102,133840,1,2,0:0:0:0:
146,120,133908,1,0,0:0:0:0:
158,123,133977,1,2,0:0:0:0:
161,87,134045,1,2,0:0:0:0:
146,120,134113,1,0,0:0:0:0:
146,120,134181,1,2,0:0:0:0:
146,120,134249,1,0,0:0:0:0:
182,71,134318,1,0,0:0:0:0:
166,31,134386,1,2,0:0:0:0:
166,37,134431,1,0,0:0:0:0:
166,37,134477,1,0,0:0:0:0:
161,87,134522,1,2,0:0:0:0:
161,87,134590,1,0,0:0:0:0:
161,87,134658,1,2,0:0:0:0:
161,87,134727,1,2,0:0:0:0:
161,87,134795,1,0,0:0:0:0:
225,64,134840,1,2,0:0:0:0:
225,64,134886,1,2,0:0:0:0:
161,87,134931,1,0,0:0:0:0:
161,87,134999,1,0,0:0:0:0:
161,87,135068,1,2,0:0:0:0:
161,96,135136,1,2,0:0:0:0:
161,96,135204,1,0,0:0:0:0:
161,87,135340,1,2,0:0:0:0:
252,74,135408,1,2,0:0:0:0:
252,74,135477,1,0,0:0:0:0:
252,74,135545,1,2,0:0:0:0:
143,67,135613,1,0,0:0:0:0:
252,74,135681,1,0,0:0:0:0:
252,74,135749,1,2,0:0:0:0:
252,74,135818,1,2,0:0:0:0:
252,74,135886,1,0,0:0:0:0:
252,74,135954,1,2,0:0:0:0:
252,74,136022,1,2,0:0:0:0:
252,74,136090,1,0,0:0:0:0:
252,74,136158,1,2,0:0:0:0:
252,74,136227,1,2,0:0:0:0:
252,74,136295,1,0,0:0:0:0:
130,77,136363,1,0,0:0:0:0:
139,93,136431,1,2,0:0:0:0:
