osu file format v14

[General]
AudioFilename: audio.mp3
AudioLeadIn: 0
PreviewTime: 101522
Countdown: 0
SampleSet: Soft
StackLeniency: 0.7
Mode: 1
LetterboxInBreaks: 0
WidescreenStoryboard: 0

[Editor]
DistanceSpacing: 0.8
BeatDivisor: 4
GridSize: 32
TimelineZoom: 2.4

[Metadata]
Title:?_?
TitleUnicode:?_?
Artist:7_7
ArtistUnicode:7_7
Creator:7_7
Version:?_?
Source:
Tags:ktyn kitajimayn waribashi featured artist fa electronic instrumental
BeatmapID:2428157
BeatmapSetID:1163967

[Difficulty]
HPDrainRate:5.5
CircleSize:5
OverallDifficulty:6.6
ApproachRate:5
SliderMultiplier:1.4
SliderTickRate:1

[Events]
//Background and Video events
0,0,"huh.jpg",0,0
//Break Periods
2,73358,78504
//Storyboard Layer 0 (Background)
//Storyboard Layer 1 (Fail)
//Storyboard Layer 2 (Pass)
//Storyboard Layer 3 (Foreground)
//Storyboard Layer 4 (Overlay)
//Storyboard Sound Samples

[TimingPoints]
68,272.727272727273,4,2,0,100,1,0
2215,-133.333333333333,4,2,0,70,0,0
8795,-133.333333333333,4,2,0,70,0,0
9068,-120.33129612449,4,2,0,70,0,0
9204,-114.737057086275,4,2,0,70,0,0
9340,-109.639745723502,4,2,0,70,0,0
9477,-104.976186152171,4,2,0,70,0,0
9613,-100.693070403588,4,2,0,70,0,0
9681,-98.6799581991697,4,2,0,70,0,0
9749,-96.7458563749715,4,2,0,70,0,0
9818,-94.8860229092814,4,2,0,70,0,0
9886,-93.0963472717184,4,2,0,70,0,0
10022,-89.7122479646534,4,2,0,70,0,0
10090,-88.1107728636442,4,2,0,70,0,0
10158,-86.5654716303308,4,2,0,70,0,0
10227,-85.0734396467751,4,2,0,70,0,0
10295,-83.6320390996509,4,2,0,70,0,0
10363,-82.2386004963922,4,2,0,70,0,0
10431,-80.8908345830967,4,2,0,70,0,0
10568,-78.3236851607163,4,2,0,70,0,0
10670,-78.3236851607163,4,2,0,100,0,0
10704,-75.914408023242,4,2,0,100,0,0
10749,-75.1439570356911,4,2,0,100,0,0
10795,-74.3889321171239,4,2,0,100,0,0
10840,-73.648983054842,4,2,0,100,0,0
10886,-72.9235564235079,4,2,0,100,0,0
10931,-72.2123331443777,4,2,0,100,0,0
10954,-72.2123331443777,4,2,0,70,0,0
10977,-71.5147978419695,4,2,0,70,0,0
11249,-133.333333333333,4,2,0,70,0,0
19261,-100,4,2,0,100,0,0
32795,-100,4,2,0,100,0,0
32931,-98.6859959637428,4,2,0,100,0,0
33068,-97.4060761910328,4,2,0,100,0,0
33204,-96.1589314819534,4,2,0,100,0,0
33340,-94.9434089810768,4,2,0,100,0,0
33477,-93.7581452388676,4,2,0,100,0,0
33613,-92.6021100316792,4,2,0,100,0,0
33749,-91.4742353668666,4,2,0,100,0,0
33886,-90.3735046573986,4,2,0,100,0,0
34022,-89.298949665754,4,2,0,100,0,0
34158,-88.2497255433536,4,2,0,100,0,0
34295,-87.2247948690887,4,2,0,100,0,0
34431,-86.2233979261548,4,2,0,100,0,0
34568,-85.2447333672607,4,2,0,100,0,0
34704,-84.2880358190437,4,2,0,100,0,0
34840,-83.3525738858053,4,2,0,100,0,0
34977,-82.4377162444344,4,2,0,100,0,0
35045,-81.9877100422647,4,2,0,100,0,0
35113,-81.5426565945177,4,2,0,100,0,0
35181,-81.1023430466906,4,2,0,100,0,0
35249,-80.6668242358633,4,2,0,100,0,0
35318,-80.2358935269693,4,2,0,100,0,0
35386,-79.8096062034411,4,2,0,100,0,0
35454,-79.3878246068913,4,2,0,100,0,0
35522,-78.9704153133112,4,2,0,100,0,0
35590,-78.5574341256636,4,2,0,100,0,0
35658,-78.148688821299,4,2,0,100,0,0
35727,-77.7442354593013,4,2,0,100,0,0
35795,-77.343946985365,4,2,0,100,0,0
35863,-76.9477001871368,4,2,0,100,0,0
35931,-76.5555513875311,4,2,0,100,0,0
35999,-76.1673213247934,4,2,0,100,0,0
36068,-75.7830664253734,4,2,0,100,0,0
36113,-75.5290431829752,4,2,0,100,0,0
36158,-75.2766605466742,4,2,0,100,0,0
36204,-75.0260152707952,4,2,0,100,0,0
36272,-74.6531614120795,4,2,0,100,0,0
36340,-74.2839399607484,4,2,0,100,0,0
36386,-74.039851209515,4,2,0,100,0,0
36431,-73.7973613015493,4,2,0,100,0,0
36477,-73.556400473409,4,2,0,100,0,0
36545,-73.1979756367858,4,2,0,100,0,0
36613,-72.8429738581135,4,2,0,100,0,0
36886,-71.4568989849547,4,2,0,100,0,0
37158,-50,4,2,0,5,0,1
38215,-50,4,2,0,100,0,1
38249,-90.9090909090909,4,2,0,100,0,1
55670,-90.9090909090909,4,2,0,60,0,1
55704,-90.9090909090909,4,2,0,60,0,0
55977,-125,4,2,0,60,0,0
56045,-123.348061091828,4,2,0,60,0,0
56113,-121.739066918748,4,2,0,60,0,0
56249,-118.644087905778,4,2,0,60,0,0
56386,-115.702441090102,4,2,0,60,0,0
56454,-114.285714285714,4,2,0,60,0,0
56590,-111.553731528096,4,2,0,60,0,0
56727,-108.949433299523,4,2,0,60,0,0
56795,-107.692357396473,4,2,0,60,0,0
56931,-105.263157894737,4,2,0,60,0,0
56999,-104.089250286766,4,2,0,60,0,0
57272,-99.6441706665498,4,2,0,60,0,0
57340,-98.5915215235151,4,2,0,60,0,0
57477,-96.5517507728968,4,2,0,60,0,0
57545,-95.5631007932693,4,2,0,60,0,0
57613,-94.594581811543,4,2,0,60,0,0
57681,-93.6454974776585,4,2,0,60,0,0
57749,-92.7152686285836,4,2,0,60,0,0
57852,-92.7152686285836,4,2,0,100,0,0
57886,-90.9090909090909,4,2,0,100,0,1
73158,-90.9090909090909,4,2,0,100,0,0
73227,-90.9090909090909,4,2,0,60,0,0
74249,-133.333333333333,4,2,0,60,0,0
79704,-133.333333333333,4,2,0,60,0,0
79977,-120.33129612449,4,2,0,60,0,0
80113,-114.737057086275,4,2,0,60,0,0
80249,-109.639745723502,4,2,0,60,0,0
80386,-104.976186152171,4,2,0,60,0,0
80522,-100.693070403588,4,2,0,60,0,0
80590,-98.6799581991697,4,2,0,60,0,0
80658,-96.7458563749715,4,2,0,60,0,0
80727,-94.8860229092814,4,2,0,60,0,0
80795,-93.0963472717184,4,2,0,60,0,0
80931,-89.7122479646534,4,2,0,60,0,0
80999,-88.1107728636442,4,2,0,60,0,0
81068,-86.5654716303308,4,2,0,60,0,0
81136,-85.0734396467751,4,2,0,60,0,0
81204,-83.6320390996509,4,2,0,60,0,0
81272,-82.2386004963922,4,2,0,60,0,0
81340,-80.8908345830967,4,2,0,60,0,0
81477,-78.3236851607163,4,2,0,60,0,0
81579,-78.3236851607163,4,2,0,100,0,0
81613,-75.914408023242,4,2,0,100,0,0
81658,-75.1439570356911,4,2,0,100,0,0
81704,-74.3889321171239,4,2,0,100,0,0
81749,-73.648983054842,4,2,0,100,0,0
81795,-72.9235564235079,4,2,0,100,0,0
81840,-72.2123331443777,4,2,0,100,0,0
81886,-71.5147978419695,4,2,0,100,0,0
81920,-71.5147978419695,4,2,0,60,0,0
82977,-200,4,2,0,60,0,0
100397,-133.333333333333,4,2,0,20,0,0
100465,-130.626064602427,4,2,0,25,0,0
100534,-128.026547584907,4,2,0,31,0,0
100602,-125.528474879242,4,2,0,36,0,0
100670,-123.126021945982,4,2,0,41,0,0
100738,-120.813801768714,4,2,0,47,0,0
100806,-118.586824529447,4,2,0,52,0,0
100874,-116.440461663142,4,2,0,57,0,0
100943,-114.370413746409,4,2,0,63,0,0
101011,-112.372681751575,4,2,0,68,0,0
101079,-110.443541261707,4,2,0,73,0,0
101147,-108.579519296752,4,2,0,79,0,0
101215,-106.777373447457,4,2,0,84,0,0
101284,-105.033962731849,4,2,0,89,0,0
101352,-103.346675389126,4,2,0,95,0,0
101488,-100.129667919956,4,2,0,100,0,0
118977,-90.9090909090909,4,2,0,100,0,1
136431,-90.9090909090909,4,2,0,100,0,0

[HitObjects]
192,92,68,5,0,0:0:0:0:
188,188,204,1,0,0:0:0:0:
188,188,340,1,2,0:0:0:0:
188,188,477,1,0,0:0:0:0:
188,188,545,1,0,0:0:0:0:
188,188,613,1,0,0:0:0:0:
237,175,749,1,2,0:0:0:0:
237,175,818,1,2,0:0:0:0:
237,175,886,1,0,0:0:0:0:
237,175,954,1,2,0:0:0:0:
237,175,1022,1,0,0:0:0:0:
237,175,1090,1,2,0:0:0:0:
237,175,1158,1,0,0:0:0:0:
237,175,1295,1,0,0:0:0:0:
237,175,1363,1,0,0:0:0:0:
237,175,1431,1,2,0:0:0:0:
237,175,1568,1,0,0:0:0:0:
323,163,1704,1,0,0:0:0:0:
323,163,1749,1,0,0:0:0:0:
323,163,1795,1,0,0:0:0:0:
323,163,1840,1,0,0:0:0:0:
210,103,1977,1,2,0:0:0:0:
210,103,2022,1,2,0:0:0:0:
210,103,2068,1,2,0:0:0:0:
210,103,2113,1,0,0:0:0:0:
326,148,2249,1,4,0:0:0:0:
271,182,2522,1,0,0:0:0:0:
271,182,2795,1,2,0:0:0:0:
271,182,3068,1,0,0:0:0:0:
271,182,3204,1,2,0:0:0:0:
271,182,3340,1,0,0:0:0:0:
271,182,3477,1,0,0:0:0:0:
271,182,3613,1,2,0:0:0:0:
271,182,3886,1,0,0:0:0:0:
271,182,4022,1,2,0:0:0:0:
271,182,4158,1,2,0:0:0:0:
271,182,4431,1,0,0:0:0:0:
271,182,4704,1,0,0:0:0:0:
271,182,4977,1,2,0:0:0:0:
271,182,5249,1,0,0:0:0:0:
271,182,5386,1,2,0:0:0:0:
271,182,5522,1,0,0:0:0:0:
271,182,5658,1,0,0:0:0:0:
271,182,5795,1,2,0:0:0:0:
166,209,6068,1,0,0:0:0:0:
166,209,6136,1,0,0:0:0:0:
166,209,6204,1,2,0:0:0:0:
166,209,6340,1,0,0:0:0:0:
166,209,6477,1,2,0:0:0:0:
326,148,6613,1,0,0:0:0:0:
271,182,6886,1,0,0:0:0:0:
271,182,7158,1,2,0:0:0:0:
271,182,7431,1,0,0:0:0:0:
271,182,7568,1,2,0:0:0:0:
271,182,7704,1,0,0:0:0:0:
271,182,7840,1,0,0:0:0:0:
271,182,7977,1,2,0:0:0:0:
271,182,8249,1,0,0:0:0:0:
271,182,8386,1,2,0:0:0:0:
271,182,8522,1,2,0:0:0:0:
271,182,8795,1,0,0:0:0:0:
271,182,9068,1,0,0:0:0:0:
303,135,9204,1,0,0:0:0:0:
271,182,9340,1,2,0:0:0:0:
219,133,9477,1,0,0:0:0:0:
271,182,9613,1,0,0:0:0:0:
219,133,9681,1,0,0:0:0:0:
271,182,9749,1,2,0:0:0:0:
219,133,9818,1,2,0:0:0:0:
271,182,9886,1,0,0:0:0:0:
271,182,10022,1,0,0:0:0:0:
178,106,10090,1,0,0:0:0:0:
271,182,10158,1,2,0:0:0:0:
203,144,10227,1,0,0:0:0:0:
203,144,10295,1,2,0:0:0:0:
203,144,10363,1,2,0:0:0:0:
166,209,10431,1,0,0:0:0:0:
166,209,10568,1,2,0:0:0:0:
205,114,10704,1,2,0:0:0:0:
205,114,10749,1,2,0:0:0:0:
205,114,10795,1,2,0:0:0:0:
166,209,10840,1,2,0:0:0:0:
205,114,10886,1,2,0:0:0:0:
205,114,10931,1,2,0:0:0:0:
326,148,10977,1,0,0:0:0:0:
271,182,11249,1,0,0:0:0:0:
271,182,11522,1,2,0:0:0:0:
271,182,11795,1,0,0:0:0:0:
271,182,11931,1,2,0:0:0:0:
271,182,12068,1,0,0:0:0:0:
271,182,12204,1,0,0:0:0:0:
271,182,12340,1,2,0:0:0:0:
271,182,12613,1,0,0:0:0:0:
271,182,12749,1,2,0:0:0:0:
271,182,12886,1,2,0:0:0:0:
271,182,13158,1,0,0:0:0:0:
271,182,13431,1,0,0:0:0:0:
271,182,13704,1,2,0:0:0:0:
271,182,13977,1,0,0:0:0:0:
271,182,14113,1,2,0:0:0:0:
271,182,14249,1,0,0:0:0:0:
271,182,14386,1,0,0:0:0:0:
271,182,14522,1,2,0:0:0:0:
166,209,14795,1,0,0:0:0:0:
166,209,14863,1,0,0:0:0:0:
166,209,14931,1,2,0:0:0:0:
166,209,15068,1,0,0:0:0:0:
166,209,15204,1,2,0:0:0:0:
326,148,15340,1,0,0:0:0:0:
271,182,15613,1,0,0:0:0:0:
271,182,15886,1,2,0:0:0:0:
271,182,16158,1,0,0:0:0:0:
271,182,16295,1,2,0:0:0:0:
271,182,16431,1,0,0:0:0:0:
271,182,16568,1,0,0:0:0:0:
271,182,16704,1,2,0:0:0:0:
271,182,16977,1,0,0:0:0:0:
271,182,17113,1,2,0:0:0:0:
271,182,17249,1,2,0:0:0:0:
256,192,17522,12,0,19022,0:0:0:0:
199,173,19295,5,0,0:0:0:0:
199,173,19431,1,0,0:0:0:0:
199,173,19499,1,0,0:0:0:0:
199,173,19568,1,0,0:0:0:0:
199,173,19636,1,0,0:0:0:0:
199,173,19704,1,0,0:0:0:0:
199,173,19908,1,2,0:0:0:0:
199,173,19977,1,0,0:0:0:0:
199,173,20113,1,2,0:0:0:0:
199,173,20181,1,2,0:0:0:0:
199,173,20249,1,0,0:0:0:0:
199,173,20386,1,2,0:0:0:0:
199,173,20454,1,2,0:0:0:0:
199,173,20522,1,0,0:0:0:0:
199,173,20590,1,2,0:0:0:0:
199,173,20658,1,2,0:0:0:0:
199,173,20795,1,0,0:0:0:0:
199,173,20863,1,2,0:0:0:0:
199,173,20999,1,2,0:0:0:0:
199,173,21068,1,0,0:0:0:0:
199,173,21136,1,2,0:0:0:0:
199,173,21204,1,2,0:0:0:0:
199,173,21272,1,2,0:0:0:0:
199,173,21340,1,0,0:0:0:0:
199,173,21477,1,0,0:0:0:0:
199,173,21545,1,2,0:0:0:0:
199,173,21613,1,0,0:0:0:0:
199,173,21681,1,0,0:0:0:0:
199,173,21749,1,2,0:0:0:0:
199,173,21886,1,0,0:0:0:0:
199,173,22090,1,2,0:0:0:0:
199,173,22158,1,0,0:0:0:0:
199,173,22295,1,2,0:0:0:0:
199,173,22363,1,2,0:0:0:0:
199,173,22431,1,0,0:0:0:0:
199,173,22568,1,2,0:0:0:0:
199,173,22704,1,0,0:0:0:0:
199,173,22772,1,0,0:0:0:0:
199,173,22840,1,2,0:0:0:0:
199,173,22908,1,2,0:0:0:0:
199,173,22977,1,0,0:0:0:0:
199,173,23045,1,0,0:0:0:0:
199,173,23181,1,2,0:0:0:0:
172,117,23249,1,0,0:0:0:0:
172,117,23318,1,0,0:0:0:0:
199,173,23386,1,2,0:0:0:0:
199,173,23522,1,0,0:0:0:0:
199,173,23590,1,0,0:0:0:0:
199,173,23658,1,2,0:0:0:0:
199,173,23727,1,2,0:0:0:0:
199,173,23795,1,0,0:0:0:0:
199,173,23863,1,2,0:0:0:0:
199,173,23931,1,2,0:0:0:0:
199,173,24068,1,0,0:0:0:0:
199,173,24272,1,2,0:0:0:0:
199,173,24340,1,0,0:0:0:0:
199,173,24477,1,2,0:0:0:0:
199,173,24545,1,2,0:0:0:0:
199,173,24613,1,0,0:0:0:0:
199,173,24749,1,2,0:0:0:0:
199,173,24818,1,2,0:0:0:0:
199,173,24886,1,0,0:0:0:0:
199,173,24954,1,2,0:0:0:0:
199,173,25022,1,2,0:0:0:0:
199,173,25158,1,0,0:0:0:0:
199,173,25227,1,2,0:0:0:0:
199,173,25363,1,2,0:0:0:0:
199,173,25431,1,0,0:0:0:0:
199,173,25499,1,0,0:0:0:0:
199,173,25568,1,2,0:0:0:0:
199,173,25636,1,2,0:0:0:0:
199,173,25704,1,0,0:0:0:0:
199,173,25840,1,0,0:0:0:0:
199,173,25908,1,2,0:0:0:0:
199,173,25977,1,0,0:0:0:0:
199,173,26045,1,2,0:0:0:0:
199,173,26113,1,2,0:0:0:0:
199,173,26249,1,0,0:0:0:0:
199,173,26454,1,2,0:0:0:0:
199,173,26522,1,0,0:0:0:0:
199,173,26658,1,2,0:0:0:0:
199,173,26727,1,2,0:0:0:0:
199,173,26795,1,0,0:0:0:0:
227,143,26863,1,2,0:0:0:0:
199,173,26931,1,2,0:0:0:0:
227,143,26999,1,2,0:0:0:0:
199,173,27068,1,0,0:0:0:0:
199,173,27136,1,0,0:0:0:0:
199,173,27204,1,2,0:0:0:0:
199,173,27340,1,0,0:0:0:0:
200,58,27408,1,0,0:0:0:0:
199,173,27545,1,0,0:0:0:0:
199,173,27613,1,2,0:0:0:0:
199,173,27749,1,0,0:0:0:0:
193,97,27818,1,2,0:0:0:0:
199,173,27886,1,0,0:0:0:0:
199,173,27954,1,0,0:0:0:0:
199,173,28022,1,0,0:0:0:0:
199,173,28090,1,0,0:0:0:0:
199,173,28158,1,2,0:0:0:0:
235,117,28295,1,2,0:0:0:0:
235,117,28340,1,2,0:0:0:0:
235,117,28386,1,2,0:0:0:0:
235,117,28431,1,0,0:0:0:0:
156,128,28568,1,0,0:0:0:0:
156,128,28636,1,0,0:0:0:0:
156,128,28704,1,2,0:0:0:0:
156,128,28772,1,0,0:0:0:0:
156,128,28840,1,0,0:0:0:0:
156,128,28908,1,2,0:0:0:0:
215,139,29045,1,0,0:0:0:0:
215,139,29113,1,2,0:0:0:0:
215,139,29181,1,2,0:0:0:0:
215,139,29249,1,0,0:0:0:0:
215,139,29386,1,2,0:0:0:0:
215,139,29522,1,0,0:0:0:0:
215,139,29658,1,0,0:0:0:0:
215,139,29727,1,0,0:0:0:0:
215,139,29795,1,2,0:0:0:0:
215,139,29863,1,0,0:0:0:0:
215,139,29931,1,0,0:0:0:0:
215,139,29999,1,2,0:0:0:0:
215,139,30136,1,0,0:0:0:0:
215,139,30204,1,2,0:0:0:0:
215,139,30340,1,0,0:0:0:0:
215,139,30408,1,0,0:0:0:0:
215,139,30477,1,2,0:0:0:0:
235,117,30613,1,0,0:0:0:0:
156,128,30749,1,0,0:0:0:0:
156,128,30818,1,0,0:0:0:0:
156,128,30886,1,2,0:0:0:0:
156,128,30954,1,0,0:0:0:0:
156,128,31022,1,0,0:0:0:0:
156,128,31090,1,2,0:0:0:0:
215,139,31227,1,0,0:0:0:0:
215,139,31295,1,2,0:0:0:0:
215,139,31363,1,2,0:0:0:0:
215,139,31431,1,0,0:0:0:0:
215,139,31568,1,2,0:0:0:0:
215,139,31704,1,0,0:0:0:0:
215,139,31840,1,0,0:0:0:0:
215,139,31908,1,0,0:0:0:0:
215,139,31977,1,2,0:0:0:0:
215,139,32045,1,0,0:0:0:0:
215,139,32113,1,0,0:0:0:0:
215,139,32181,1,2,0:0:0:0:
215,139,32318,1,0,0:0:0:0:
215,139,32386,1,2,0:0:0:0:
215,139,32522,1,0,0:0:0:0:
215,139,32590,1,0,0:0:0:0:
215,139,32658,1,2,0:0:0:0:
156,110,32727,1,2,0:0:0:0:
156,110,32795,1,0,0:0:0:0:
156,110,32931,1,0,0:0:0:0:
156,110,33068,1,2,0:0:0:0:
156,110,33204,1,2,0:0:0:0:
156,110,33340,1,0,0:0:0:0:
156,110,33477,1,0,0:0:0:0:
156,110,33613,1,2,0:0:0:0:
156,110,33749,1,2,0:0:0:0:
176,110,33886,1,0,0:0:0:0:
176,110,34022,1,2,0:0:0:0:
176,110,34158,1,0,0:0:0:0:
176,110,34295,1,2,0:0:0:0:
176,110,34431,1,0,0:0:0:0:
176,110,34568,1,2,0:0:0:0:
176,110,34704,1,0,0:0:0:0:
176,110,34840,1,2,0:0:0:0:
280,141,34977,1,0,0:0:0:0:
280,141,35045,1,0,0:0:0:0:
280,141,35113,1,2,0:0:0:0:
280,141,35181,1,2,0:0:0:0:
280,141,35249,1,0,0:0:0:0:
280,141,35318,1,0,0:0:0:0:
280,141,35386,1,2,0:0:0:0:
280,141,35454,1,2,0:0:0:0:
280,141,35522,1,0,0:0:0:0:
280,141,35590,1,2,0:0:0:0:
275,141,35658,1,2,0:0:0:0:
273,141,35727,1,2,0:0:0:0:
273,141,35795,1,0,0:0:0:0:
273,141,35863,1,0,0:0:0:0:
273,140,35931,1,0,0:0:0:0:
273,140,35999,1,0,0:0:0:0:
227,130,36068,1,2,0:0:0:0:
227,130,36113,1,2,0:0:0:0:
227,130,36158,1,2,0:0:0:0:
332,131,36204,1,0,0:0:0:0:
332,131,36272,1,0,0:0:0:0:
227,130,36340,1,2,0:0:0:0:
227,130,36386,1,2,0:0:0:0:
227,130,36431,1,2,0:0:0:0:
332,131,36477,1,0,0:0:0:0:
332,131,36545,1,0,0:0:0:0:
332,131,36613,1,0,0:0:0:0:
303,112,36886,1,6,0:0:0:0:
231,126,38249,1,4,0:0:0:0:
239,206,38386,1,0,0:0:0:0:
239,206,38454,1,0,0:0:0:0:
239,206,38522,1,2,0:0:0:0:
239,206,38590,1,2,0:0:0:0:
239,206,38658,1,2,0:0:0:0:
239,206,38727,1,2,0:0:0:0:
239,206,38795,1,0,0:0:0:0:
239,206,38931,1,0,0:0:0:0:
239,206,38999,1,0,0:0:0:0:
239,206,39068,1,2,0:0:0:0:
239,206,39136,1,2,0:0:0:0:
239,206,39204,1,0,0:0:0:0:
195,197,39340,1,2,0:0:0:0:
195,197,39408,1,0,0:0:0:0:
195,197,39545,1,0,0:0:0:0:
195,197,39613,1,2,0:0:0:0:
195,197,39749,1,2,0:0:0:0:
195,197,39886,1,0,0:0:0:0:
226,133,39931,1,0,0:0:0:0:
231,125,39977,1,0,0:0:0:0:
195,197,40022,1,2,0:0:0:0:
203,198,40158,1,0,0:0:0:0:
241,187,40431,1,0,0:0:0:0:
241,187,40499,1,0,0:0:0:0:
241,187,40568,1,0,0:0:0:0:
241,187,40704,1,2,0:0:0:0:
241,187,40840,1,0,0:0:0:0:
241,187,40908,1,0,0:0:0:0:
241,187,41045,1,2,0:0:0:0:
241,181,41113,1,0,0:0:0:0:
241,165,41249,1,2,0:0:0:0:
240,167,41386,1,0,0:0:0:0:
240,167,41454,1,2,0:0:0:0:
240,167,41522,1,0,0:0:0:0:
239,167,41590,1,0,0:0:0:0:
239,167,41658,1,0,0:0:0:0:
239,167,41795,1,2,0:0:0:0:
239,167,41931,1,0,0:0:0:0:
239,167,41999,1,2,0:0:0:0:
227,150,42136,1,2,0:0:0:0:
241,165,42204,1,0,0:0:0:0:
221,147,42340,1,2,0:0:0:0:
221,147,42408,1,0,0:0:0:0:
220,146,42477,1,2,0:0:0:0:
231,126,42613,1,4,0:0:0:0:
239,206,42749,1,0,0:0:0:0:
239,206,42818,1,0,0:0:0:0:
239,206,42886,1,2,0:0:0:0:
239,206,42954,1,2,0:0:0:0:
239,206,43022,1,2,0:0:0:0:
239,206,43090,1,2,0:0:0:0:
239,206,43158,1,0,0:0:0:0:
239,206,43295,1,0,0:0:0:0:
239,206,43363,1,0,0:0:0:0:
239,206,43431,1,2,0:0:0:0:
239,206,43499,1,2,0:0:0:0:
239,206,43568,1,0,0:0:0:0:
195,197,43704,1,2,0:0:0:0:
195,197,43772,1,0,0:0:0:0:
195,197,43908,1,0,0:0:0:0:
195,197,43977,1,2,0:0:0:0:
195,197,44113,1,2,0:0:0:0:
195,197,44249,1,0,0:0:0:0:
226,133,44295,1,0,0:0:0:0:
231,125,44340,1,0,0:0:0:0:
195,197,44386,1,2,0:0:0:0:
203,198,44522,1,0,0:0:0:0:
241,187,44795,1,0,0:0:0:0:
241,187,44863,1,0,0:0:0:0:
241,187,44931,1,0,0:0:0:0:
241,187,45068,1,2,0:0:0:0:
241,187,45204,1,0,0:0:0:0:
241,187,45272,1,0,0:0:0:0:
241,187,45408,1,2,0:0:0:0:
241,181,45477,1,0,0:0:0:0:
241,165,45613,1,2,0:0:0:0:
240,167,45681,1,0,0:0:0:0:
240,167,45749,1,2,0:0:0:0:
240,167,45886,1,0,0:0:0:0:
264,154,45954,1,0,0:0:0:0:
239,167,46022,1,2,0:0:0:0:
239,167,46090,1,0,0:0:0:0:
262,154,46158,1,0,0:0:0:0:
239,167,46227,1,2,0:0:0:0:
211,138,46295,1,0,0:0:0:0:
261,154,46363,1,0,0:0:0:0:
231,115,46431,1,2,0:0:0:0:
231,115,46499,1,2,0:0:0:0:
239,112,46568,1,0,0:0:0:0:
257,112,46704,1,2,0:0:0:0:
229,123,46772,1,0,0:0:0:0:
256,113,46840,1,0,0:0:0:0:
226,113,46977,1,4,0:0:0:0:
271,106,47113,1,2,0:0:0:0:
211,84,47249,1,0,0:0:0:0:
189,105,47318,1,0,0:0:0:0:
189,105,47386,1,2,0:0:0:0:
189,105,47454,1,2,0:0:0:0:
386,161,47522,1,0,0:0:0:0:
386,161,47590,1,2,0:0:0:0:
189,105,47658,1,0,0:0:0:0:
307,122,47727,1,0,0:0:0:0:
189,105,47795,1,2,0:0:0:0:
189,105,47863,1,2,0:0:0:0:
189,105,47931,1,0,0:0:0:0:
247,148,48068,1,2,0:0:0:0:
247,148,48136,1,0,0:0:0:0:
247,148,48272,1,0,0:0:0:0:
247,148,48340,1,2,0:0:0:0:
247,148,48477,1,2,0:0:0:0:
410,100,48613,1,0,0:0:0:0:
410,100,48658,1,0,0:0:0:0:
410,100,48704,1,0,0:0:0:0:
410,100,48749,1,2,0:0:0:0:
413,96,48886,1,0,0:0:0:0:
241,187,49158,1,0,0:0:0:0:
241,187,49227,1,0,0:0:0:0:
241,187,49295,1,0,0:0:0:0:
241,187,49431,1,2,0:0:0:0:
241,187,49568,1,0,0:0:0:0:
241,187,49636,1,0,0:0:0:0:
241,187,49772,1,2,0:0:0:0:
241,181,49840,1,0,0:0:0:0:
241,165,49977,1,2,0:0:0:0:
240,167,50113,1,0,0:0:0:0:
240,167,50181,1,2,0:0:0:0:
240,167,50249,1,0,0:0:0:0:
239,167,50318,1,0,0:0:0:0:
239,167,50386,1,0,0:0:0:0:
239,167,50522,1,2,0:0:0:0:
239,167,50658,1,0,0:0:0:0:
239,167,50727,1,2,0:0:0:0:
227,150,50863,1,2,0:0:0:0:
241,165,50931,1,0,0:0:0:0:
221,147,51068,1,2,0:0:0:0:
221,147,51136,1,0,0:0:0:0:
220,146,51204,1,2,0:0:0:0:
231,126,51340,1,4,0:0:0:0:
239,206,51477,1,0,0:0:0:0:
239,206,51545,1,0,0:0:0:0:
239,206,51613,1,2,0:0:0:0:
239,206,51681,1,2,0:0:0:0:
239,206,51749,1,2,0:0:0:0:
239,206,51818,1,2,0:0:0:0:
239,206,51886,1,0,0:0:0:0:
239,206,52022,1,0,0:0:0:0:
239,206,52090,1,0,0:0:0:0:
239,206,52158,1,2,0:0:0:0:
239,206,52227,1,2,0:0:0:0:
239,206,52295,1,0,0:0:0:0:
195,197,52431,1,2,0:0:0:0:
195,197,52499,1,0,0:0:0:0:
195,197,52636,1,0,0:0:0:0:
195,197,52704,1,2,0:0:0:0:
195,197,52840,1,2,0:0:0:0:
195,197,52977,1,0,0:0:0:0:
226,133,53022,1,0,0:0:0:0:
231,125,53068,1,0,0:0:0:0:
195,197,53113,1,2,0:0:0:0:
203,198,53249,1,0,0:0:0:0:
241,187,53522,1,0,0:0:0:0:
241,187,53590,1,0,0:0:0:0:
241,187,53658,1,0,0:0:0:0:
241,187,53795,1,2,0:0:0:0:
241,187,53931,1,0,0:0:0:0:
241,187,53999,1,0,0:0:0:0:
241,187,54136,1,2,0:0:0:0:
241,181,54204,1,0,0:0:0:0:
241,165,54340,1,2,0:0:0:0:
240,167,54408,1,0,0:0:0:0:
240,167,54477,1,2,0:0:0:0:
240,167,54613,1,0,0:0:0:0:
264,154,54681,1,0,0:0:0:0:
239,167,54749,1,2,0:0:0:0:
239,167,54818,1,0,0:0:0:0:
262,154,54886,1,0,0:0:0:0:
239,167,54954,1,2,0:0:0:0:
211,138,55022,1,0,0:0:0:0:
261,154,55090,1,0,0:0:0:0:
231,115,55158,1,2,0:0:0:0:
231,115,55227,1,2,0:0:0:0:
239,112,55295,1,0,0:0:0:0:
257,112,55431,1,2,0:0:0:0:
229,123,55499,1,2,0:0:0:0:
256,113,55568,1,0,0:0:0:0:
231,213,55704,1,4,0:0:0:0:
214,198,55977,1,0,0:0:0:0:
214,198,56045,1,0,0:0:0:0:
214,198,56113,1,2,0:0:0:0:
176,140,56249,5,0,0:0:0:0:
176,140,56386,1,0,0:0:0:0:
176,140,56454,1,2,0:0:0:0:
185,143,56590,1,0,0:0:0:0:
173,173,56727,1,2,0:0:0:0:
173,173,56795,1,0,0:0:0:0:
192,163,56931,1,2,0:0:0:0:
192,163,56999,1,2,0:0:0:0:
190,158,57272,1,2,0:0:0:0:
176,140,57340,1,0,0:0:0:0:
176,140,57477,1,2,0:0:0:0:
176,136,57545,1,2,0:0:0:0:
176,136,57613,1,0,0:0:0:0:
176,140,57681,1,2,0:0:0:0:
176,140,57749,1,2,0:0:0:0:
178,113,57886,1,4,0:0:0:0:
126,166,58022,1,0,0:0:0:0:
126,166,58090,1,0,0:0:0:0:
126,166,58158,1,2,0:0:0:0:
126,166,58295,1,0,0:0:0:0:
126,166,58363,1,0,0:0:0:0:
126,166,58431,1,0,0:0:0:0:
126,166,58499,1,2,0:0:0:0:
126,166,58568,1,0,0:0:0:0:
126,166,58704,1,2,0:0:0:0:
126,166,58840,1,0,0:0:0:0:
126,166,58908,1,2,0:0:0:0:
126,166,58977,1,0,0:0:0:0:
126,166,59045,1,0,0:0:0:0:
126,166,59181,1,0,0:0:0:0:
126,166,59249,1,2,0:0:0:0:
126,166,59386,1,0,0:0:0:0:
126,166,59454,1,0,0:0:0:0:
126,166,59522,1,2,0:0:0:0:
126,166,59590,1,2,0:0:0:0:
126,166,59658,1,0,0:0:0:0:
126,166,59795,1,2,0:0:0:0:
126,166,59863,1,0,0:0:0:0:
126,166,59931,1,2,0:0:0:0:
239,122,60068,1,0,0:0:0:0:
239,122,60136,1,2,0:0:0:0:
239,122,60204,1,0,0:0:0:0:
239,122,60272,1,0,0:0:0:0:
239,122,60340,1,2,0:0:0:0:
239,122,60408,1,2,0:0:0:0:
239,122,60477,1,2,0:0:0:0:
239,122,60545,1,0,0:0:0:0:
239,122,60613,1,2,0:0:0:0:
178,120,60749,1,0,0:0:0:0:
178,120,60818,1,0,0:0:0:0:
178,120,60886,1,2,0:0:0:0:
178,120,61022,1,0,0:0:0:0:
178,120,61090,1,2,0:0:0:0:
178,120,61158,1,0,0:0:0:0:
185,121,61227,1,0,0:0:0:0:
185,121,61363,1,0,0:0:0:0:
185,121,61431,1,2,0:0:0:0:
185,121,61499,1,2,0:0:0:0:
185,121,61568,1,0,0:0:0:0:
185,121,61704,1,2,0:0:0:0:
185,121,61840,1,0,0:0:0:0:
185,121,61908,1,0,0:0:0:0:
185,121,61977,1,2,0:0:0:0:
185,121,62045,1,0,0:0:0:0:
185,121,62113,1,2,0:0:0:0:
208,126,62181,1,2,0:0:0:0:
208,126,62249,1,0,0:0:0:0:
199,107,62386,1,0,0:0:0:0:
199,107,62454,1,0,0:0:0:0:
199,107,62522,1,2,0:0:0:0:
387,128,62568,1,2,0:0:0:0:
387,128,62613,1,2,0:0:0:0:
387,128,62658,1,0,0:0:0:0:
216,127,62795,1,2,0:0:0:0:
216,127,62863,1,2,0:0:0:0:
216,127,62931,1,0,0:0:0:0:
216,127,62999,1,0,0:0:0:0:
216,127,63068,1,2,0:0:0:0:
216,127,63136,1,0,0:0:0:0:
216,127,63204,1,2,0:0:0:0:
196,133,63340,1,0,0:0:0:0:
196,133,63408,1,0,0:0:0:0:
196,133,63477,1,2,0:0:0:0:
196,133,63545,1,0,0:0:0:0:
196,133,63613,1,0,0:0:0:0:
196,133,63681,1,2,0:0:0:0:
196,133,63749,1,0,0:0:0:0:
196,133,63818,1,0,0:0:0:0:
196,133,63886,1,2,0:0:0:0:
196,133,63954,1,2,0:0:0:0:
196,133,64022,1,0,0:0:0:0:
196,133,64090,1,0,0:0:0:0:
196,133,64158,1,2,0:0:0:0:
196,133,64227,1,0,0:0:0:0:
196,133,64295,1,0,0:0:0:0:
361,153,64431,1,4,0:0:0:0:
245,154,64568,1,0,0:0:0:0:
245,154,64636,1,0,0:0:0:0:
245,154,64704,1,2,0:0:0:0:
245,154,64772,1,2,0:0:0:0:
245,154,64840,1,2,0:0:0:0:
245,154,64908,1,2,0:0:0:0:
245,154,64977,1,0,0:0:0:0:
245,154,65113,1,0,0:0:0:0:
245,154,65181,1,0,0:0:0:0:
245,154,65249,1,2,0:0:0:0:
245,154,65318,1,0,0:0:0:0:
245,154,65386,1,0,0:0:0:0:
245,154,65522,1,2,0:0:0:0:
245,154,65590,1,0,0:0:0:0:
245,154,65727,1,0,0:0:0:0:
245,154,65795,1,2,0:0:0:0:
245,154,65931,1,2,0:0:0:0:
416,112,66068,1,0,0:0:0:0:
416,112,66113,1,0,0:0:0:0:
416,112,66158,1,0,0:0:0:0:
416,112,66204,1,2,0:0:0:0:
416,112,66340,1,0,0:0:0:0:
215,148,66613,1,0,0:0:0:0:
215,148,66681,1,2,0:0:0:0:
215,148,66749,1,0,0:0:0:0:
215,148,66818,1,0,0:0:0:0:
215,148,66886,1,2,0:0:0:0:
215,148,66954,1,2,0:0:0:0:
215,148,67022,1,0,0:0:0:0:
215,148,67090,1,2,0:0:0:0:
215,148,67158,1,2,0:0:0:0:
219,151,67295,1,0,0:0:0:0:
219,151,67363,1,0,0:0:0:0:
219,151,67431,1,2,0:0:0:0:
219,151,67499,1,0,0:0:0:0:
219,151,67568,1,2,0:0:0:0:
222,133,67704,1,0,0:0:0:0:
222,133,67840,1,2,0:0:0:0:
222,133,67908,1,0,0:0:0:0:
222,133,67977,1,2,0:0:0:0:
222,133,68113,1,0,0:0:0:0:
222,133,68249,1,2,0:0:0:0:
222,133,68318,1,2,0:0:0:0:
222,133,68386,1,0,0:0:0:0:
222,133,68454,1,0,0:0:0:0:
222,133,68522,1,2,0:0:0:0:
222,133,68590,1,0,0:0:0:0:
222,133,68658,1,0,0:0:0:0:
239,133,68795,1,4,0:0:0:0:
294,145,68931,1,0,0:0:0:0:
294,145,68999,1,0,0:0:0:0:
294,145,69068,1,2,0:0:0:0:
274,147,69136,1,2,0:0:0:0:
265,148,69204,1,2,0:0:0:0:
265,148,69272,1,2,0:0:0:0:
265,148,69340,1,0,0:0:0:0:
265,148,69477,1,0,0:0:0:0:
265,148,69545,1,0,0:0:0:0:
265,148,69613,1,2,0:0:0:0:
265,148,69681,1,2,0:0:0:0:
265,148,69749,1,0,0:0:0:0:
241,158,69886,1,2,0:0:0:0:
241,158,69954,1,0,0:0:0:0:
241,158,70090,1,0,0:0:0:0:
241,158,70158,1,2,0:0:0:0:
241,158,70295,1,2,0:0:0:0:
348,137,70431,1,0,0:0:0:0:
348,137,70477,1,0,0:0:0:0:
348,137,70522,1,0,0:0:0:0:
348,137,70568,1,2,0:0:0:0:
348,137,70704,1,0,0:0:0:0:
307,159,70977,1,0,0:0:0:0:
307,159,71113,1,0,0:0:0:0:
307,159,71181,1,0,0:0:0:0:
307,159,71249,1,2,0:0:0:0:
307,159,71318,1,0,0:0:0:0:
308,150,71386,1,2,0:0:0:0:
308,150,71454,1,2,0:0:0:0:
308,150,71522,1,0,0:0:0:0:
308,150,71658,1,0,0:0:0:0:
308,150,71727,1,0,0:0:0:0:
308,150,71795,1,2,0:0:0:0:
308,150,71931,1,0,0:0:0:0:
266,169,72068,1,0,0:0:0:0:
266,169,72204,1,2,0:0:0:0:
266,169,72272,1,2,0:0:0:0:
266,169,72340,1,0,0:0:0:0:
389,140,72386,1,2,0:0:0:0:
389,140,72431,1,2,0:0:0:0:
389,140,72477,1,0,0:0:0:0:
267,130,72613,1,2,0:0:0:0:
267,130,72681,1,0,0:0:0:0:
267,130,72818,1,2,0:0:0:0:
336,166,72886,1,0,0:0:0:0:
336,166,72931,1,0,0:0:0:0:
336,166,72977,1,0,0:0:0:0:
331,166,73022,1,0,0:0:0:0:
176,119,73068,1,0,0:0:0:0:
176,119,73113,1,0,0:0:0:0:
313,155,73158,1,0,0:0:0:0:
271,182,79704,5,0,0:0:0:0:
271,182,79977,1,0,0:0:0:0:
303,135,80113,1,0,0:0:0:0:
271,182,80249,1,2,0:0:0:0:
219,133,80386,1,0,0:0:0:0:
271,182,80522,1,0,0:0:0:0:
219,133,80590,1,0,0:0:0:0:
271,182,80658,1,2,0:0:0:0:
219,133,80727,1,2,0:0:0:0:
271,182,80795,1,0,0:0:0:0:
271,182,80931,1,0,0:0:0:0:
178,106,80999,1,0,0:0:0:0:
271,182,81068,1,2,0:0:0:0:
203,144,81136,1,0,0:0:0:0:
203,144,81204,1,2,0:0:0:0:
203,144,81272,1,2,0:0:0:0:
166,209,81340,1,0,0:0:0:0:
166,209,81477,1,2,0:0:0:0:
205,114,81613,1,2,0:0:0:0:
205,114,81658,1,2,0:0:0:0:
205,114,81704,1,2,0:0:0:0:
166,209,81749,1,2,0:0:0:0:
205,114,81795,1,2,0:0:0:0:
205,114,81840,1,2,0:0:0:0:
326,148,81886,1,0,0:0:0:0:
169,158,82977,1,2,0:0:0:0:
169,158,84068,1,0,0:0:0:0:
169,158,85158,1,2,0:0:0:0:
169,158,86249,1,0,0:0:0:0:
169,158,87340,1,2,0:0:0:0:
200,141,88431,1,0,0:0:0:0:
200,141,89522,1,0,0:0:0:0:
200,141,90068,1,2,0:0:0:0:
200,141,90613,1,0,0:0:0:0:
200,141,91704,1,2,0:0:0:0:
200,141,92795,1,0,0:0:0:0:
200,141,93886,1,2,0:0:0:0:
200,141,94977,1,0,0:0:0:0:
200,141,96068,1,2,0:0:0:0:
200,141,97158,1,0,0:0:0:0:
231,194,100431,1,0,0:0:0:0:
231,194,100499,1,0,0:0:0:0:
231,194,100568,1,0,0:0:0:0:
231,194,100636,1,0,0:0:0:0:
231,194,100704,1,0,0:0:0:0:
211,191,100772,1,0,0:0:0:0:
211,191,100840,1,0,0:0:0:0:
203,190,100908,1,0,0:0:0:0:
198,189,100977,1,0,0:0:0:0:
198,189,101045,1,0,0:0:0:0:
198,189,101113,1,0,0:0:0:0:
196,188,101181,1,0,0:0:0:0:
196,188,101249,1,0,0:0:0:0:
196,188,101318,1,0,0:0:0:0:
196,188,101386,1,0,0:0:0:0:
251,196,101522,1,4,0:0:0:0:
251,196,101795,1,2,0:0:0:0:
207,112,101931,1,0,0:0:0:0:
261,162,101999,1,0,0:0:0:0:
207,112,102068,1,0,0:0:0:0:
207,112,102136,1,2,0:0:0:0:
207,112,102204,1,0,0:0:0:0:
195,102,102340,1,2,0:0:0:0:
195,102,102477,1,0,0:0:0:0:
202,132,102613,1,0,0:0:0:0:
202,132,102681,1,0,0:0:0:0:
202,132,102749,1,0,0:0:0:0:
202,132,102886,1,2,0:0:0:0:
202,132,103022,1,0,0:0:0:0:
202,132,103090,1,2,0:0:0:0:
202,132,103158,1,0,0:0:0:0:
202,132,103227,1,2,0:0:0:0:
202,132,103295,1,0,0:0:0:0:
202,132,103363,1,0,0:0:0:0:
202,132,103431,1,2,0:0:0:0:
233,157,103704,1,0,0:0:0:0:
233,157,103908,1,0,0:0:0:0:
233,157,103977,1,2,0:0:0:0:
233,157,104113,1,0,0:0:0:0:
233,157,104249,1,2,0:0:0:0:
233,157,104318,1,0,0:0:0:0:
233,157,104386,1,0,0:0:0:0:
233,157,104522,1,2,0:0:0:0:
233,157,104658,1,0,0:0:0:0:
161,138,104795,1,0,0:0:0:0:
161,138,104863,1,0,0:0:0:0:
161,138,104931,1,2,0:0:0:0:
161,138,104999,1,2,0:0:0:0:
161,138,105068,1,0,0:0:0:0:
161,138,105136,1,2,0:0:0:0:
161,138,105204,1,2,0:0:0:0:
161,138,105340,1,2,0:0:0:0:
161,138,105408,1,2,0:0:0:0:
161,138,105477,1,0,0:0:0:0:
161,138,105545,1,0,0:0:0:0:
161,138,105613,1,2,0:0:0:0:
154,158,105749,1,2,0:0:0:0:
154,158,105818,1,2,0:0:0:0:
177,168,105886,1,0,0:0:0:0:
177,168,106022,1,2,0:0:0:0:
177,168,106090,1,2,0:0:0:0:
177,168,106158,1,0,0:0:0:0:
177,168,106227,1,2,0:0:0:0:
177,168,106295,1,0,0:0:0:0:
177,168,106363,1,0,0:0:0:0:
177,168,106431,1,2,0:0:0:0:
177,168,106499,1,0,0:0:0:0:
177,168,106568,1,0,0:0:0:0:
177,168,106636,1,2,0:0:0:0:
171,161,106704,1,0,0:0:0:0:
171,161,106772,1,0,0:0:0:0:
171,161,106840,1,2,0:0:0:0:
184,161,106908,1,2,0:0:0:0:
184,161,106977,1,0,0:0:0:0:
184,161,107113,1,2,0:0:0:0:
188,161,107181,1,0,0:0:0:0:
188,161,107249,1,2,0:0:0:0:
188,161,107318,1,2,0:0:0:0:
188,161,107386,1,0,0:0:0:0:
188,161,107454,1,2,0:0:0:0:
188,161,107522,1,0,0:0:0:0:
188,161,107658,1,2,0:0:0:0:
188,161,107727,1,2,0:0:0:0:
188,161,107795,1,0,0:0:0:0:
188,161,107863,1,2,0:0:0:0:
184,161,107931,1,2,0:0:0:0:
299,166,108068,1,0,0:0:0:0:
261,173,108204,1,0,0:0:0:0:
261,173,108272,1,2,0:0:0:0:
440,203,108340,1,0,0:0:0:0:
440,203,108386,1,0,0:0:0:0:
440,203,108431,1,0,0:0:0:0:
440,203,108477,1,2,0:0:0:0:
261,173,108545,1,2,0:0:0:0:
261,173,108613,1,0,0:0:0:0:
261,173,108749,1,0,0:0:0:0:
261,173,108818,1,2,0:0:0:0:
261,173,108886,1,0,0:0:0:0:
261,173,108954,1,0,0:0:0:0:
261,173,109022,1,2,0:0:0:0:
261,173,109158,1,2,0:0:0:0:
261,173,109227,1,2,0:0:0:0:
261,173,109295,1,0,0:0:0:0:
261,173,109363,1,2,0:0:0:0:
261,173,109431,1,2,0:0:0:0:
150,138,109499,1,0,0:0:0:0:
150,138,109568,1,2,0:0:0:0:
261,173,109636,1,2,0:0:0:0:
261,173,109704,1,0,0:0:0:0:
261,173,109772,1,2,0:0:0:0:
261,173,109840,1,2,0:0:0:0:
261,173,109908,1,0,0:0:0:0:
261,173,109977,1,2,0:0:0:0:
261,173,110045,1,0,0:0:0:0:
261,173,110113,1,0,0:0:0:0:
261,173,110181,1,0,0:0:0:0:
261,173,110249,1,0,0:0:0:0:
251,196,110522,1,2,0:0:0:0:
207,112,110658,1,0,0:0:0:0:
207,112,110727,1,0,0:0:0:0:
207,112,110795,1,0,0:0:0:0:
207,112,110863,1,2,0:0:0:0:
207,112,110931,1,0,0:0:0:0:
195,102,111068,1,2,0:0:0:0:
195,102,111204,1,0,0:0:0:0:
202,132,111340,1,0,0:0:0:0:
202,132,111408,1,0,0:0:0:0:
202,132,111477,1,0,0:0:0:0:
202,132,111613,1,2,0:0:0:0:
202,132,111749,1,0,0:0:0:0:
202,132,111818,1,2,0:0:0:0:
202,132,111886,1,0,0:0:0:0:
202,132,111954,1,2,0:0:0:0:
202,132,112022,1,0,0:0:0:0:
202,132,112090,1,0,0:0:0:0:
202,132,112158,1,2,0:0:0:0:
233,157,112431,1,0,0:0:0:0:
233,157,112636,1,0,0:0:0:0:
233,157,112704,1,2,0:0:0:0:
233,157,112840,1,0,0:0:0:0:
233,157,112977,1,2,0:0:0:0:
233,157,113045,1,0,0:0:0:0:
233,157,113113,1,0,0:0:0:0:
233,157,113249,1,2,0:0:0:0:
233,157,113386,1,0,0:0:0:0:
161,138,113522,1,0,0:0:0:0:
161,138,113590,1,0,0:0:0:0:
161,138,113658,1,2,0:0:0:0:
161,138,113727,1,2,0:0:0:0:
161,138,113795,1,0,0:0:0:0:
161,138,113863,1,2,0:0:0:0:
161,138,113931,1,2,0:0:0:0:
161,138,114068,1,2,0:0:0:0:
161,138,114136,1,2,0:0:0:0:
161,138,114204,1,0,0:0:0:0:
161,138,114272,1,0,0:0:0:0:
161,138,114340,1,2,0:0:0:0:
154,158,114477,1,2,0:0:0:0:
154,158,114545,1,2,0:0:0:0:
177,168,114613,1,0,0:0:0:0:
177,168,114749,1,2,0:0:0:0:
177,168,114818,1,2,0:0:0:0:
177,168,114886,1,0,0:0:0:0:
177,168,114954,1,2,0:0:0:0:
177,168,115022,1,0,0:0:0:0:
177,168,115090,1,0,0:0:0:0:
177,168,115158,1,2,0:0:0:0:
177,168,115227,1,0,0:0:0:0:
177,168,115295,1,0,0:0:0:0:
177,168,115363,1,2,0:0:0:0:
171,161,115431,1,0,0:0:0:0:
171,161,115499,1,0,0:0:0:0:
171,161,115568,1,2,0:0:0:0:
184,161,115636,1,2,0:0:0:0:
184,161,115704,1,0,0:0:0:0:
184,161,115840,1,2,0:0:0:0:
188,161,115908,1,0,0:0:0:0:
188,161,115977,1,2,0:0:0:0:
188,161,116045,1,2,0:0:0:0:
188,161,116113,1,0,0:0:0:0:
188,161,116181,1,2,0:0:0:0:
188,161,116249,1,0,0:0:0:0:
188,161,116386,1,2,0:0:0:0:
188,161,116454,1,2,0:0:0:0:
188,161,116522,1,0,0:0:0:0:
188,161,116590,1,2,0:0:0:0:
184,161,116658,1,2,0:0:0:0:
299,166,116795,1,0,0:0:0:0:
261,173,116931,1,0,0:0:0:0:
261,173,116999,1,2,0:0:0:0:
440,203,117068,1,0,0:0:0:0:
440,203,117113,1,0,0:0:0:0:
440,203,117158,1,0,0:0:0:0:
440,203,117204,1,2,0:0:0:0:
261,173,117272,1,2,0:0:0:0:
261,173,117340,1,0,0:0:0:0:
261,173,117477,1,0,0:0:0:0:
261,173,117545,1,2,0:0:0:0:
261,173,117613,1,0,0:0:0:0:
261,173,117681,1,0,0:0:0:0:
261,173,117749,1,2,0:0:0:0:
261,173,117886,1,2,0:0:0:0:
261,173,117954,1,2,0:0:0:0:
261,173,118022,1,0,0:0:0:0:
261,173,118090,1,2,0:0:0:0:
261,173,118158,1,0,0:0:0:0:
150,138,118227,1,0,0:0:0:0:
150,138,118295,1,2,0:0:0:0:
261,173,118363,1,0,0:0:0:0:
261,173,118431,1,0,0:0:0:0:
261,173,118499,1,2,0:0:0:0:
261,173,118568,1,2,0:0:0:0:
261,173,118636,1,0,0:0:0:0:
261,173,118704,1,2,0:0:0:0:
261,173,118772,1,0,0:0:0:0:
261,173,118840,1,0,0:0:0:0:
191,129,118977,1,4,0:0:0:0:
218,184,119249,1,2,0:0:0:0:
218,184,119386,1,0,0:0:0:0:
218,184,119454,1,0,0:0:0:0:
136,167,119522,1,0,0:0:0:0:
218,184,119590,1,2,0:0:0:0:
218,184,119658,1,0,0:0:0:0:
218,184,119727,1,0,0:0:0:0:
218,184,119795,1,2,0:0:0:0:
218,184,119931,1,0,0:0:0:0:
218,184,119999,1,2,0:0:0:0:
218,184,120068,1,0,0:0:0:0:
218,184,120204,1,0,0:0:0:0:
218,184,120272,1,0,0:0:0:0:
218,184,120340,1,2,0:0:0:0:
218,184,120477,1,0,0:0:0:0:
218,184,120545,1,0,0:0:0:0:
218,184,120613,1,0,0:0:0:0:
218,184,120749,1,0,0:0:0:0:
218,184,120886,1,2,0:0:0:0:
236,100,121022,1,2,0:0:0:0:
236,100,121090,1,2,0:0:0:0:
206,169,121158,1,0,0:0:0:0:
206,169,121227,1,0,0:0:0:0:
206,169,121295,1,0,0:0:0:0:
206,169,121431,1,2,0:0:0:0:
206,169,121568,1,0,0:0:0:0:
206,169,121636,1,2,0:0:0:0:
206,169,121704,1,0,0:0:0:0:
206,169,121772,1,2,0:0:0:0:
206,169,121840,1,0,0:0:0:0:
206,169,121908,1,0,0:0:0:0:
206,169,121977,1,2,0:0:0:0:
206,169,122113,1,0,0:0:0:0:
206,169,122181,1,2,0:0:0:0:
206,169,122249,1,0,0:0:0:0:
206,169,122318,1,0,0:0:0:0:
206,169,122454,1,0,0:0:0:0:
206,169,122522,1,2,0:0:0:0:
236,103,122658,1,0,0:0:0:0:
238,117,122795,1,2,0:0:0:0:
238,117,122863,1,0,0:0:0:0:
238,117,122931,1,0,0:0:0:0:
176,158,122999,1,0,0:0:0:0:
238,117,123068,1,2,0:0:0:0:
191,129,123340,1,0,0:0:0:0:
290,193,123477,1,0,0:0:0:0:
290,193,123545,1,0,0:0:0:0:
218,184,123613,1,2,0:0:0:0:
342,189,123681,1,0,0:0:0:0:
218,184,123749,1,2,0:0:0:0:
218,184,123818,1,2,0:0:0:0:
326,164,123886,1,0,0:0:0:0:
218,184,123954,1,2,0:0:0:0:
218,184,124022,1,0,0:0:0:0:
218,184,124090,1,0,0:0:0:0:
218,184,124158,1,2,0:0:0:0:
218,184,124295,1,0,0:0:0:0:
218,184,124363,1,2,0:0:0:0:
218,184,124431,1,0,0:0:0:0:
218,184,124568,1,0,0:0:0:0:
218,184,124636,1,0,0:0:0:0:
218,184,124704,1,2,0:0:0:0:
218,184,124840,1,0,0:0:0:0:
335,164,124908,1,2,0:0:0:0:
335,164,124977,1,0,0:0:0:0:
218,184,125045,1,2,0:0:0:0:
218,184,125113,1,0,0:0:0:0:
341,163,125181,1,0,0:0:0:0:
341,163,125249,1,2,0:0:0:0:
341,163,125318,1,2,0:0:0:0:
341,163,125386,1,2,0:0:0:0:
206,169,125522,1,0,0:0:0:0:
206,169,125658,1,0,0:0:0:0:
206,169,125727,1,0,0:0:0:0:
314,177,125795,1,2,0:0:0:0:
187,22,125863,1,0,0:0:0:0:
206,169,125931,1,2,0:0:0:0:
206,169,125999,1,2,0:0:0:0:
206,169,126068,1,0,0:0:0:0:
206,169,126204,1,0,0:0:0:0:
259,154,126249,1,0,0:0:0:0:
259,154,126295,1,0,0:0:0:0:
206,169,126340,1,2,0:0:0:0:
356,186,126408,1,2,0:0:0:0:
206,169,126477,1,0,0:0:0:0:
240,175,126613,1,2,0:0:0:0:
240,175,126681,1,2,0:0:0:0:
240,175,126749,1,0,0:0:0:0:
240,175,126818,1,2,0:0:0:0:
240,175,126886,1,2,0:0:0:0:
240,175,126954,1,0,0:0:0:0:
240,175,127022,1,2,0:0:0:0:
240,175,127090,1,2,0:0:0:0:
240,175,127158,1,0,0:0:0:0:
240,175,127227,1,2,0:0:0:0:
240,175,127295,1,2,0:0:0:0:
240,175,127363,1,0,0:0:0:0:
240,175,127431,1,2,0:0:0:0:
240,175,127499,1,0,0:0:0:0:
240,175,127568,1,0,0:0:0:0:
191,129,127704,1,4,0:0:0:0:
218,184,127977,1,2,0:0:0:0:
218,184,128113,1,0,0:0:0:0:
218,184,128181,1,0,0:0:0:0:
233,141,128249,1,0,0:0:0:0:
218,184,128318,1,2,0:0:0:0:
218,184,128386,1,0,0:0:0:0:
218,184,128454,1,0,0:0:0:0:
218,184,128522,1,2,0:0:0:0:
218,184,128658,1,0,0:0:0:0:
218,184,128727,1,2,0:0:0:0:
218,184,128795,1,0,0:0:0:0:
218,184,128931,1,0,0:0:0:0:
218,184,128999,1,0,0:0:0:0:
218,184,129068,1,2,0:0:0:0:
218,184,129204,1,0,0:0:0:0:
218,184,129272,1,0,0:0:0:0:
218,184,129408,1,2,0:0:0:0:
218,184,129477,1,0,0:0:0:0:
218,184,129613,1,2,0:0:0:0:
233,135,129749,1,2,0:0:0:0:
233,135,129818,1,2,0:0:0:0:
206,169,129886,1,0,0:0:0:0:
206,169,129954,1,0,0:0:0:0:
206,169,130022,1,0,0:0:0:0:
206,169,130158,1,2,0:0:0:0:
206,169,130295,1,0,0:0:0:0:
206,169,130363,1,2,0:0:0:0:
206,169,130431,1,0,0:0:0:0:
206,169,130499,1,2,0:0:0:0:
206,169,130568,1,0,0:0:0:0:
206,169,130636,1,0,0:0:0:0:
206,169,130704,1,2,0:0:0:0:
206,169,130840,1,0,0:0:0:0:
206,169,130908,1,2,0:0:0:0:
206,169,130977,1,0,0:0:0:0:
206,169,131045,1,0,0:0:0:0:
341,163,131113,1,2,0:0:0:0:
206,169,131181,1,0,0:0:0:0:
206,169,131249,1,2,0:0:0:0:
236,103,131386,1,0,0:0:0:0:
238,117,131522,1,2,0:0:0:0:
238,117,131590,1,0,0:0:0:0:
238,117,131658,1,0,0:0:0:0:
176,158,131727,1,0,0:0:0:0:
238,117,131795,1,2,0:0:0:0:
191,129,132068,1,0,0:0:0:0:
273,163,132136,5,0,0:0:0:0:
273,163,132204,1,2,0:0:0:0:
273,163,132272,1,2,0:0:0:0:
218,184,132340,1,0,0:0:0:0:
261,153,132408,1,2,0:0:0:0:
218,184,132477,1,2,0:0:0:0:
218,184,132545,1,2,0:0:0:0:
281,138,132613,1,0,0:0:0:0:
218,184,132681,1,2,0:0:0:0:
218,184,132749,1,0,0:0:0:0:
218,184,132818,1,0,0:0:0:0:
218,184,132886,1,2,0:0:0:0:
218,184,133022,1,0,0:0:0:0:
218,184,133090,1,2,0:0:0:0:
218,184,133158,1,0,0:0:0:0:
279,138,133227,1,2,0:0:0:0:
218,184,133295,1,0,0:0:0:0:
218,184,133363,1,0,0:0:0:0:
218,184,133431,1,2,0:0:0:0:
281,138,133499,1,2,0:0:0:0:
218,184,133568,1,0,0:0:0:0:
218,184,133636,1,2,0:0:0:0:
297,138,133704,1,2,0:0:0:0:
218,184,133772,1,2,0:0:0:0:
218,184,133840,1,0,0:0:0:0:
244,107,133908,1,0,0:0:0:0:
218,184,133977,1,2,0:0:0:0:
244,107,134045,1,2,0:0:0:0:
244,107,134113,1,2,0:0:0:0:
206,169,134249,1,0,0:0:0:0:
206,169,134318,1,0,0:0:0:0:
206,169,134386,1,2,0:0:0:0:
206,169,134454,1,2,0:0:0:0:
314,177,134522,1,0,0:0:0:0:
187,22,134590,1,2,0:0:0:0:
206,169,134658,1,0,0:0:0:0:
206,169,134795,1,2,0:0:0:0:
206,169,134863,1,2,0:0:0:0:
206,169,134931,1,0,0:0:0:0:
259,154,134977,1,0,0:0:0:0:
259,154,135022,1,0,0:0:0:0:
206,169,135068,1,2,0:0:0:0:
356,186,135136,1,2,0:0:0:0:
206,169,135204,1,0,0:0:0:0:
240,175,135340,1,2,0:0:0:0:
240,175,135408,1,2,0:0:0:0:
240,175,135477,1,0,0:0:0:0:
240,175,135545,1,2,0:0:0:0:
240,175,135613,1,0,0:0:0:0:
240,175,135681,1,0,0:0:0:0:
240,175,135749,1,2,0:0:0:0:
240,175,135818,1,0,0:0:0:0:
240,175,135886,1,0,0:0:0:0:
240,175,135954,1,2,0:0:0:0:
240,175,136022,1,2,0:0:0:0:
240,175,136090,1,0,0:0:0:0:
240,175,136158,1,2,0:0:0:0:
240,175,136227,1,0,0:0:0:0:
240,175,136295,1,0,0:0:0:0:
233,89,136431,1,4,0:0:0:0:
