osu file format v14

[General]
AudioFilename: audio.mp3
AudioLeadIn: 0
PreviewTime: 24198
Countdown: 0
SampleSet: Normal
StackLeniency: 0.7
Mode: 1
LetterboxInBreaks: 0
WidescreenStoryboard: 1

[Editor]
Bookmarks: 1122,3891,7583,11275,18660,42429
DistanceSpacing: 0.7
BeatDivisor: 4
GridSize: 32
TimelineZoom: 1.8

[Metadata]
Title:More One Kusa
TitleUnicode:More One 草
Artist:7_7
ArtistUnicode:7_7
Creator:-Kazuha
Version:Kantan
Source:少女終末旅行
Tags:anime japanese electronic breakcore jcore j-core hardcore remix shoujo shuumatsu ryokou girls' last tour ed ending night 挿入歌 insert song Inori Minase 水瀬いのり Kubo Yurika 久保ユリカ
BeatmapID:4400303
BeatmapSetID:2090964

[Difficulty]
HPDrainRate:9
CircleSize:5
OverallDifficulty:3
ApproachRate:5
SliderMultiplier:1.4
SliderTickRate:1

[Events]
//Background and Video events
0,0,"shoujo_shuumatsu_ryoko.jpg",0,30
//Break Periods
//Storyboard Layer 0 (Background)
//Storyboard Layer 1 (Fail)
//Storyboard Layer 2 (Pass)
//Storyboard Layer 3 (Foreground)
//Storyboard Layer 4 (Overlay)
//Storyboard Sound Samples

[TimingPoints]
198,230.769230769231,4,1,0,95,1,0
198,-117.647058823529,4,1,0,95,0,0
3654,-117.647058823529,4,1,0,95,0,0
3886,-117.647058823529,4,1,0,90,0,0
7582,-117.647058823529,4,1,0,90,0,0
11044,-117.647058823529,4,1,0,90,0,0
11270,-117.647058823529,4,1,0,90,0,0
18428,-117.647058823529,4,1,0,90,0,0
18655,-117.647058823529,4,1,0,95,0,0
25810,-117.647058823529,4,1,0,95,0,0
26044,-117.647058823529,4,1,0,100,0,1
34117,-117.647058823529,4,1,0,100,0,1
34351,-117.647058823529,4,1,0,95,0,0
42425,-117.647058823529,4,1,0,95,0,0

[HitObjects]
133,94,1121,6,4,L|266:95,8,119.000002269745
234,85,3890,1,0,0:0:0:0:
163,54,4698,1,8,0:0:0:0:
234,85,5736,1,0,0:0:0:0:
163,54,6544,1,8,0:0:0:0:
277,186,7582,1,0,0:0:0:0:
277,186,8044,1,8,0:0:0:0:
165,74,8505,5,0,0:0:0:0:
240,129,9428,1,0,0:0:0:0:
240,129,9890,1,0,0:0:0:0:
357,189,10351,1,8,0:0:0:0:
189,72,11274,1,0,0:0:0:0:
208,80,12198,1,8,0:0:0:0:
208,80,12659,1,8,0:0:0:0:
160,39,13121,1,0,0:0:0:0:
280,172,14044,1,0,0:0:0:0:
152,40,14505,1,8,0:0:0:0:
206,146,14967,1,0,0:0:0:0:
216,157,15890,1,8,0:0:0:0:
216,157,16351,1,8,0:0:0:0:
226,160,16813,1,0,0:0:0:0:
240,163,17274,1,8,0:0:0:0:
240,163,17736,1,0,0:0:0:0:
330,231,18659,1,0,0:0:0:0:
330,231,19121,1,8,0:0:0:0:
200,247,20044,1,8,0:0:0:0:
330,231,20505,1,0,0:0:0:0:
330,231,20967,1,8,0:0:0:0:
330,231,22351,1,0,0:0:0:0:
330,231,22813,1,8,0:0:0:0:
166,73,23736,1,8,0:0:0:0:
166,73,24198,1,0,0:0:0:0:
275,76,24659,1,0,0:0:0:0:
166,73,25121,1,0,0:0:0:0:
242,148,26044,1,0,0:0:0:0:
277,86,26967,1,8,0:0:0:0:
277,86,27428,1,8,0:0:0:0:
167,69,27890,1,0,0:0:0:0:
167,69,28813,1,0,0:0:0:0:
186,83,29274,1,8,0:0:0:0:
255,191,29736,1,8,0:0:0:0:
235,211,30659,1,8,0:0:0:0:
235,211,31121,1,8,0:0:0:0:
305,235,31582,1,0,0:0:0:0:
221,184,32044,1,8,0:0:0:0:
243,214,32505,1,0,0:0:0:0:
272,174,34351,1,0,0:0:0:0:
272,174,34813,1,0,0:0:0:0:
272,174,35274,1,8,0:0:0:0:
122,47,36198,1,0,0:0:0:0:
122,47,36659,1,8,0:0:0:0:
222,114,37121,1,0,0:0:0:0:
272,174,38044,1,0,0:0:0:0:
272,174,38505,1,0,0:0:0:0:
272,174,38967,1,8,0:0:0:0:
122,47,39891,1,0,0:0:0:0:
122,47,40352,1,0,0:0:0:0:
222,114,40814,1,8,0:0:0:0:
222,114,41275,1,8,0:0:0:0:
231,110,41736,1,0,0:0:0:0:
240,114,42428,1,12,0:0:0:0:
