osu file format v14

[General]
AudioFilename: audio.mp3
AudioLeadIn: 0
PreviewTime: 24198
Countdown: 0
SampleSet: Normal
StackLeniency: 0.7
Mode: 1
LetterboxInBreaks: 0
WidescreenStoryboard: 1

[Editor]
Bookmarks: 1122,3891,7583,11275,18660,42429
DistanceSpacing: 0.7
BeatDivisor: 4
GridSize: 32
TimelineZoom: 2.799999

[Metadata]
Title:More One Kusa
TitleUnicode:More One 草
Artist:7_7
ArtistUnicode:7_7
Creator:-Kazuha
Version:Inner Oni
Source:少女終末旅行
Tags:anime japanese electronic breakcore jcore j-core hardcore remix shoujo shuumatsu ryokou girls' last tour ed ending night 挿入歌 insert song Inori Minase 水瀬いのり Kubo Yurika 久保ユリカ
BeatmapID:4382587
BeatmapSetID:2090964

[Difficulty]
HPDrainRate:5
CircleSize:5
OverallDifficulty:6
ApproachRate:5
SliderMultiplier:1.4
SliderTickRate:1

[Events]
//Background and Video events
0,0,"shoujo_shuumatsu_ryoko.jpg",0,30
//Break Periods
//Storyboard Layer 0 (Background)
//Storyboard Layer 1 (Fail)
//Storyboard Layer 2 (Pass)
//Storyboard Layer 3 (Foreground)
//Storyboard Layer 4 (Overlay)
//Storyboard Sound Samples

[TimingPoints]
198,230.769230769231,4,1,0,95,1,0
1117,-100,4,1,0,95,0,0
1175,-98.4310487200661,4,1,0,95,0,0
1233,-96.8843131942563,4,1,0,95,0,0
1291,-95.3854361162977,4,1,0,95,0,0
1348,-93.9569101418812,4,1,0,95,0,0
1406,-85.3089329451453,4,1,0,95,0,0
1463,-82.9066738525106,4,1,0,95,0,0
1464,-91.1779704232535,4,1,0,95,0,0
1521,-80.5972755850506,4,1,0,95,0,0
1579,-88.5806291800842,4,1,0,95,0,0
1636,-76.378832388597,4,1,0,95,0,0
1637,-87.3260073260073,4,1,0,95,0,0
1694,-74.414479783932,4,1,0,95,0,0
1695,-86.1064290874067,4,1,0,95,0,0
1752,-72.5486343092946,4,1,0,95,0,0
1809,-70.8039275851488,4,1,0,95,0,0
1810,-83.7863167760075,4,1,0,95,0,0
1867,-69.112691875702,4,1,0,95,0,0
1924,-67.527526795186,4,1,0,95,0,0
1983,-65.9615522046738,4,1,0,95,0,0
2040,-64.5161290322581,4,1,0,95,0,0
2041,-79.484329851078,4,1,0,95,0,0
2098,-78.4899034240562,4,1,0,95,0,0
2156,-77.5032509752926,4,1,0,95,0,0
2213,-60.4928562065802,4,1,0,95,0,0
2214,-76.541095890411,4,1,0,95,0,0
2271,-75.6185240008458,4,1,0,95,0,0
2328,-58.0850193511847,4,1,0,95,0,0
2386,-56.9419167771986,4,1,0,95,0,0
2387,-73.8080495356037,4,1,0,95,0,0
2444,-55.8429379556524,4,1,0,95,0,0
2501,-54.803467521672,4,1,0,95,0,0
2502,-72.0967741935484,4,1,0,95,0,0
2560,-71.2634515743324,4,1,0,95,0,0
2617,-52.8032036613272,4,1,0,95,0,0
2618,-70.4491725768321,4,1,0,95,0,0
2675,-69.666861484512,4,1,0,95,0,0
2733,-68.8884607975342,4,1,0,95,0,0
2790,-50.077313295174,4,1,0,95,0,0
2791,-68.127262335683,4,1,0,95,0,0
2848,-67.3954014323407,4,1,0,95,0,0
2905,-48.4158623583718,4,1,0,95,0,0
2906,-66.6666666666667,4,1,0,95,0,0
2963,-47.6190476190476,4,1,0,95,0,0
3654,-80,4,1,0,95,0,0
3886,-111.111111111111,4,1,0,90,0,0
7582,-100,4,1,0,90,0,0
9425,-99.009900990099,4,1,0,90,0,0
9483,-98.345890285909,4,1,0,90,0,0
9541,-97.6907266352315,4,1,0,90,0,0
9598,-94.1214842771691,4,1,0,90,0,0
9656,-96.4171713254378,4,1,0,90,0,0
9771,-95.1763943695153,4,1,0,90,0,0
9887,-93.9567659336954,4,1,0,90,0,0
9944,-85.6626397451325,4,1,0,90,0,0
9945,-93.358598696677,4,1,0,90,0,0
10060,-92.1948186055534,4,1,0,90,0,0
10118,-91.618806801109,4,1,0,90,0,0
10233,-90.4977375565611,4,1,0,90,0,0
10291,-78.5801118405057,4,1,0,90,0,0
10348,-89.4037719982518,4,1,0,90,0,0
10406,-88.8620054438976,4,1,0,90,0,0
10464,-88.326765305509,4,1,0,90,0,0
10521,-87.8069984785916,4,1,0,90,0,0
10579,-87.2843547115187,4,1,0,90,0,0
10694,-71.69571910895,4,1,0,90,0,0
10695,-86.2575128372103,4,1,0,90,0,0
10752,-70.8029740754209,4,1,0,90,0,0
10810,-85.2630968021062,4,1,0,90,0,0
10925,-84.2913476183521,4,1,0,90,0,0
11041,-83.3333333333333,4,1,0,90,0,0
11270,-111.111111111111,4,1,0,90,0,0
17733,-111.111111111111,4,1,0,90,0,0
17762,-107.465097137888,4,1,0,90,0,0
17848,-107.153917621555,4,1,0,90,0,0
17964,-103.437967115097,4,1,0,90,0,0
17993,-91.3989856297549,4,1,0,90,0,0
18079,-100,4,1,0,90,0,0
18194,-80.8779701032012,4,1,0,90,0,0
18195,-96.7561521252796,4,1,0,90,0,0
18252,-95.2380952380952,4,1,0,90,0,0
18310,-93.741533459767,4,1,0,90,0,0
18368,-73.5489493766408,4,1,0,90,0,0
18425,-90.9090909090909,4,1,0,90,0,0
18428,-86.9565217391304,4,1,0,90,0,0
18655,-100,4,1,0,95,0,0
24195,-99.009900990099,4,1,0,95,0,0
24252,-101.568088033012,4,1,0,95,0,0
24656,-92.7207068590358,4,1,0,95,0,0
24714,-116.356760163883,4,1,0,95,0,0
25118,-87.1714876367621,4,1,0,95,0,0
25348,-84.6493733849791,4,1,0,95,0,0
25579,-82.2590421278351,4,1,0,95,0,0
25637,-81.6799259570207,4,1,0,95,0,0
25694,-66.692367000771,4,1,0,95,0,0
25695,-81.1089069130904,4,1,0,95,0,0
25810,-76.9230769230769,4,1,0,95,0,0
26044,-95.2380952380952,4,1,0,100,0,1
33194,-94.3396226415094,4,1,0,100,0,1
33195,-99.009900990099,4,1,0,100,0,1
33252,-92.7468733061651,4,1,0,100,0,1
33310,-96.7424115378165,4,1,0,100,0,1
33348,-90.2255639097744,4,1,0,100,0,1
33368,-95.6377577453114,4,1,0,100,0,1
33387,-89.2400112032914,4,1,0,100,0,1
33425,-94.5764552785548,4,1,0,100,0,1
33541,-92.4877501327695,4,1,0,100,0,1
33579,-84.6859562455893,4,1,0,100,0,1
33598,-91.4948453608248,4,1,0,100,0,1
33618,-83.8171262699564,4,1,0,100,0,1
33656,-90.506167755094,4,1,0,100,0,1
33771,-88.6077164553073,4,1,0,100,0,1
33829,-87.6801337525767,4,1,0,100,0,1
33887,-86.7717705013585,4,1,0,100,0,1
33944,-77.1968519725299,4,1,0,100,0,1
34002,-85.0252404289031,4,1,0,100,0,1
34041,-75.4242614707731,4,1,0,100,0,1
34079,-74.7518384583647,4,1,0,100,0,1
34121,-80,4,1,0,100,0,1
34351,-100,4,1,0,95,0,0
41964,-105.271164524226,4,1,0,95,0,0
42194,-111.102191538894,4,1,0,95,0,0
42252,-112.676056338028,4,1,0,95,0,0
42310,-114.295152366009,4,1,0,95,0,0
42368,-115.961457896942,4,1,0,95,0,0
42425,-80,4,1,0,95,0,0

[HitObjects]
224,175,1121,5,0,0:0:0:0:
224,175,1178,1,0,0:0:0:0:
224,175,1236,1,8,0:0:0:0:
224,175,1294,1,8,0:0:0:0:
224,175,1351,1,0,0:0:0:0:
224,175,1467,1,8,0:0:0:0:
224,175,1582,1,0,0:0:0:0:
224,175,1640,1,0,0:0:0:0:
224,175,1698,1,8,0:0:0:0:
174,35,1813,1,0,0:0:0:0:
224,175,2044,1,0,0:0:0:0:
224,175,2101,1,8,0:0:0:0:
224,175,2159,1,8,0:0:0:0:
224,175,2217,1,8,0:0:0:0:
224,175,2274,1,0,0:0:0:0:
224,175,2390,1,8,0:0:0:0:
224,175,2505,1,0,0:0:0:0:
181,36,2563,1,0,0:0:0:0:
224,175,2621,1,8,0:0:0:0:
224,175,2678,1,8,0:0:0:0:
224,175,2736,1,0,0:0:0:0:
224,175,2794,1,0,0:0:0:0:
224,175,2851,1,8,0:0:0:0:
210,62,2909,1,8,0:0:0:0:
205,68,3659,1,12,0:0:0:0:
234,85,3890,1,0,0:0:0:0:
239,88,4005,1,8,0:0:0:0:
239,88,4121,1,0,0:0:0:0:
239,88,4236,1,8,0:0:0:0:
239,88,4351,1,0,0:0:0:0:
239,88,4409,1,8,0:0:0:0:
239,88,4524,1,8,0:0:0:0:
163,54,4698,1,8,0:0:0:0:
234,85,4813,1,0,0:0:0:0:
239,88,4928,1,8,0:0:0:0:
239,88,5044,1,0,0:0:0:0:
239,88,5159,1,8,0:0:0:0:
239,88,5274,1,0,0:0:0:0:
239,88,5332,1,8,0:0:0:0:
239,88,5447,1,8,0:0:0:0:
234,85,5736,1,0,0:0:0:0:
239,88,5851,1,8,0:0:0:0:
239,88,5967,1,0,0:0:0:0:
239,88,6082,1,8,0:0:0:0:
239,88,6197,1,0,0:0:0:0:
239,88,6255,1,8,0:0:0:0:
239,88,6370,1,8,0:0:0:0:
163,54,6544,1,8,0:0:0:0:
234,85,6659,1,0,0:0:0:0:
239,88,6774,1,8,0:0:0:0:
239,88,6890,1,0,0:0:0:0:
239,88,7005,1,8,0:0:0:0:
239,88,7120,1,0,0:0:0:0:
239,88,7178,1,8,0:0:0:0:
239,88,7294,1,8,0:0:0:0:
163,54,7351,1,0,0:0:0:0:
277,186,7582,1,8,0:0:0:0:
277,186,7813,1,8,0:0:0:0:
277,186,7928,1,0,0:0:0:0:
277,186,7986,1,0,0:0:0:0:
277,186,8044,1,8,0:0:0:0:
277,186,8159,1,0,0:0:0:0:
277,186,8274,1,8,0:0:0:0:
283,190,8390,1,0,0:0:0:0:
165,74,8505,5,8,0:0:0:0:
165,74,8563,1,8,0:0:0:0:
165,74,8621,1,0,0:0:0:0:
165,74,8678,1,0,0:0:0:0:
165,74,8736,1,8,0:0:0:0:
150,52,8851,1,0,0:0:0:0:
150,52,8967,1,8,0:0:0:0:
150,52,9082,1,8,0:0:0:0:
150,52,9198,1,0,0:0:0:0:
240,129,9428,1,0,0:0:0:0:
144,42,9486,1,0,0:0:0:0:
240,129,9544,1,0,0:0:0:0:
240,129,9659,1,8,0:0:0:0:
240,129,9774,1,0,0:0:0:0:
240,129,9890,1,8,0:0:0:0:
208,68,9948,1,0,0:0:0:0:
208,68,10063,1,0,0:0:0:0:
208,68,10121,1,8,0:0:0:0:
193,55,10236,1,0,0:0:0:0:
357,189,10351,1,8,0:0:0:0:
357,189,10409,1,8,0:0:0:0:
357,189,10467,1,0,0:0:0:0:
357,189,10524,1,0,0:0:0:0:
357,189,10582,1,8,0:0:0:0:
357,189,10698,1,0,0:0:0:0:
357,189,10813,1,8,0:0:0:0:
357,189,10928,1,0,0:0:0:0:
357,189,11044,1,12,0:0:0:0:
189,72,11274,1,0,0:0:0:0:
208,80,11505,1,8,0:0:0:0:
208,80,11736,1,0,0:0:0:0:
208,80,11851,1,0,0:0:0:0:
208,80,11909,1,0,0:0:0:0:
208,80,11967,1,8,0:0:0:0:
208,80,12082,1,8,0:0:0:0:
148,40,12140,1,8,0:0:0:0:
208,80,12198,1,0,0:0:0:0:
208,80,12313,1,0,0:0:0:0:
208,80,12428,1,8,0:0:0:0:
208,80,12544,1,8,0:0:0:0:
208,80,12659,1,0,0:0:0:0:
160,39,12890,1,0,0:0:0:0:
160,39,13005,1,8,0:0:0:0:
160,39,13121,1,0,0:0:0:0:
186,102,13294,1,0,0:0:0:0:
186,102,13351,1,8,0:0:0:0:
198,77,13467,1,0,0:0:0:0:
198,77,13582,1,8,0:0:0:0:
198,77,13640,1,8,0:0:0:0:
198,77,13698,1,0,0:0:0:0:
198,77,13813,1,8,0:0:0:0:
152,40,13928,1,8,0:0:0:0:
280,172,14044,1,0,0:0:0:0:
280,172,14159,1,0,0:0:0:0:
272,141,14274,1,8,0:0:0:0:
152,40,14390,1,0,0:0:0:0:
152,40,14448,1,0,0:0:0:0:
152,40,14505,1,8,0:0:0:0:
183,57,14621,1,0,0:0:0:0:
183,58,14736,1,8,0:0:0:0:
184,59,14851,1,8,0:0:0:0:
206,146,14967,1,0,0:0:0:0:
152,263,15198,1,8,0:0:0:0:
152,263,15313,1,0,0:0:0:0:
152,263,15428,1,0,0:0:0:0:
253,94,15544,1,8,0:0:0:0:
216,157,15601,1,8,0:0:0:0:
152,54,15659,1,8,0:0:0:0:
238,75,15774,1,0,0:0:0:0:
224,63,15832,1,0,0:0:0:0:
216,157,15890,1,8,0:0:0:0:
216,157,16005,1,8,0:0:0:0:
216,157,16121,1,0,0:0:0:0:
216,157,16236,1,8,0:0:0:0:
216,157,16351,1,0,0:0:0:0:
224,160,16582,1,0,0:0:0:0:
225,160,16698,1,8,0:0:0:0:
226,160,16813,1,0,0:0:0:0:
291,184,16986,1,0,0:0:0:0:
291,184,17044,1,8,0:0:0:0:
252,230,17159,1,0,0:0:0:0:
240,163,17274,1,8,0:0:0:0:
240,163,17390,1,0,0:0:0:0:
240,163,17505,1,8,0:0:0:0:
240,163,17736,1,0,0:0:0:0:
81,77,17851,1,8,0:0:0:0:
81,77,17967,1,0,0:0:0:0:
81,77,18082,1,8,0:0:0:0:
81,77,18198,1,0,0:0:0:0:
81,77,18255,1,0,0:0:0:0:
81,77,18313,1,0,0:0:0:0:
64,62,18428,1,12,0:0:0:0:
330,231,18659,1,0,0:0:0:0:
330,231,18717,1,0,0:0:0:0:
330,231,18774,1,8,0:0:0:0:
330,231,18890,1,0,0:0:0:0:
330,231,19005,1,8,0:0:0:0:
330,231,19063,1,8,0:0:0:0:
330,231,19121,1,0,0:0:0:0:
330,231,19236,1,8,0:0:0:0:
223,119,19351,1,0,0:0:0:0:
195,46,19582,1,0,0:0:0:0:
218,114,19698,1,8,0:0:0:0:
195,46,19755,1,8,0:0:0:0:
199,49,19813,1,0,0:0:0:0:
197,80,19928,1,8,0:0:0:0:
343,189,19986,1,8,0:0:0:0:
343,189,20044,1,8,0:0:0:0:
202,92,20159,1,0,0:0:0:0:
202,92,20274,1,8,0:0:0:0:
202,92,20390,1,8,0:0:0:0:
330,231,20505,1,0,0:0:0:0:
330,231,20563,1,0,0:0:0:0:
330,231,20620,1,8,0:0:0:0:
330,231,20736,1,0,0:0:0:0:
330,231,20851,1,8,0:0:0:0:
330,231,20909,1,8,0:0:0:0:
330,231,20966,1,0,0:0:0:0:
330,231,21082,1,0,0:0:0:0:
223,119,21198,1,8,0:0:0:0:
162,82,21428,1,0,0:0:0:0:
162,82,21544,1,8,0:0:0:0:
162,82,21601,1,8,0:0:0:0:
162,82,21659,1,0,0:0:0:0:
162,82,21774,1,8,0:0:0:0:
162,82,21890,1,0,0:0:0:0:
162,82,22005,1,0,0:0:0:0:
162,82,22121,1,8,0:0:0:0:
330,231,22351,1,0,0:0:0:0:
330,231,22409,1,0,0:0:0:0:
330,231,22466,1,8,0:0:0:0:
330,231,22582,1,0,0:0:0:0:
330,231,22697,1,8,0:0:0:0:
330,231,22755,1,8,0:0:0:0:
330,231,22813,1,0,0:0:0:0:
330,231,22928,1,8,0:0:0:0:
223,119,23043,1,0,0:0:0:0:
195,46,23274,1,0,0:0:0:0:
218,114,23390,1,8,0:0:0:0:
195,46,23447,1,8,0:0:0:0:
199,49,23505,1,0,0:0:0:0:
197,80,23620,1,8,0:0:0:0:
343,189,23678,1,8,0:0:0:0:
343,189,23736,1,8,0:0:0:0:
202,92,23851,1,0,0:0:0:0:
202,92,23966,1,8,0:0:0:0:
202,92,24082,1,8,0:0:0:0:
166,73,24198,1,0,0:0:0:0:
166,73,24659,1,0,0:0:0:0:
166,73,25121,1,0,0:0:0:0:
161,59,25351,1,0,0:0:0:0:
162,61,25582,1,0,0:0:0:0:
162,60,25640,1,0,0:0:0:0:
161,60,25698,1,0,0:0:0:0:
161,59,25813,1,12,0:0:0:0:
242,148,26044,1,0,0:0:0:0:
222,141,26274,1,8,0:0:0:0:
222,141,26390,1,0,0:0:0:0:
222,141,26505,1,8,0:0:0:0:
262,81,26563,1,8,0:0:0:0:
222,141,26621,1,0,0:0:0:0:
222,141,26736,1,8,0:0:0:0:
222,141,26851,1,8,0:0:0:0:
277,86,26967,1,0,0:0:0:0:
277,86,27024,1,0,0:0:0:0:
277,86,27082,1,8,0:0:0:0:
277,86,27198,1,0,0:0:0:0:
277,86,27313,1,8,0:0:0:0:
277,86,27371,1,8,0:0:0:0:
277,86,27428,1,0,0:0:0:0:
277,86,27544,1,8,0:0:0:0:
277,86,27659,1,0,0:0:0:0:
167,69,27890,1,8,0:0:0:0:
167,69,28121,1,0,0:0:0:0:
167,69,28236,1,8,0:0:0:0:
167,69,28351,1,0,0:0:0:0:
167,69,28409,1,0,0:0:0:0:
167,69,28467,1,8,0:0:0:0:
167,69,28582,1,0,0:0:0:0:
167,69,28698,1,8,0:0:0:0:
167,69,28813,1,8,0:0:0:0:
151,123,28871,1,0,0:0:0:0:
167,69,28928,1,8,0:0:0:0:
167,69,29044,1,0,0:0:0:0:
167,69,29159,1,8,0:0:0:0:
167,69,29274,1,0,0:0:0:0:
183,49,29332,1,0,0:0:0:0:
186,83,29390,1,0,0:0:0:0:
186,83,29448,1,0,0:0:0:0:
186,83,29505,1,8,0:0:0:0:
186,83,29621,1,8,0:0:0:0:
255,191,29736,1,0,0:0:0:0:
255,191,29967,1,8,0:0:0:0:
255,191,30198,1,0,0:0:0:0:
255,191,30255,1,0,0:0:0:0:
255,191,30313,1,0,0:0:0:0:
255,191,30428,1,8,0:0:0:0:
255,191,30544,1,8,0:0:0:0:
235,211,30659,1,0,0:0:0:0:
235,211,30717,1,0,0:0:0:0:
235,211,30774,1,8,0:0:0:0:
243,113,30832,1,8,0:0:0:0:
235,211,30890,1,0,0:0:0:0:
235,211,31005,1,8,0:0:0:0:
235,211,31121,1,0,0:0:0:0:
305,235,31351,1,8,0:0:0:0:
164,56,31467,1,8,0:0:0:0:
305,235,31582,1,0,0:0:0:0:
165,42,31698,1,0,0:0:0:0:
305,235,31813,1,8,0:0:0:0:
305,235,31928,1,0,0:0:0:0:
305,235,32044,1,8,0:0:0:0:
305,235,32101,1,0,0:0:0:0:
305,235,32159,1,0,0:0:0:0:
182,37,32217,1,0,0:0:0:0:
305,235,32274,1,8,0:0:0:0:
305,235,32390,1,0,0:0:0:0:
243,214,32505,1,8,0:0:0:0:
243,214,32563,1,8,0:0:0:0:
243,214,32621,1,0,0:0:0:0:
240,206,32678,1,0,0:0:0:0:
243,214,32736,1,8,0:0:0:0:
170,52,32794,1,8,0:0:0:0:
240,206,32851,1,0,0:0:0:0:
240,206,32967,1,8,0:0:0:0:
194,101,33198,1,0,0:0:0:0:
406,253,33313,1,8,0:0:0:0:
194,101,33371,1,8,0:0:0:0:
194,101,33428,1,0,0:0:0:0:
406,253,33544,1,8,0:0:0:0:
406,253,33601,1,8,0:0:0:0:
406,253,33659,1,8,0:0:0:0:
406,253,33774,1,0,0:0:0:0:
406,253,33832,1,0,0:0:0:0:
406,253,33890,1,8,0:0:0:0:
406,253,34005,1,0,0:0:0:0:
406,253,34121,1,12,0:0:0:0:
272,174,34351,1,0,0:0:0:0:
272,174,34467,1,8,0:0:0:0:
272,174,34524,1,8,0:0:0:0:
272,174,34582,1,0,0:0:0:0:
272,174,34698,1,8,0:0:0:0:
272,174,34813,1,0,0:0:0:0:
272,174,34871,1,0,0:0:0:0:
272,174,34928,1,8,0:0:0:0:
272,174,35044,1,0,0:0:0:0:
272,174,35159,1,8,0:0:0:0:
272,174,35274,1,0,0:0:0:0:
272,174,35390,1,8,0:0:0:0:
275,178,35448,1,8,0:0:0:0:
272,174,35505,1,0,0:0:0:0:
275,178,35621,1,8,0:0:0:0:
275,178,35678,1,8,0:0:0:0:
275,178,35736,1,8,0:0:0:0:
205,108,35851,1,0,0:0:0:0:
275,178,35967,1,8,0:0:0:0:
122,47,36198,1,0,0:0:0:0:
122,47,36255,1,0,0:0:0:0:
122,47,36313,1,8,0:0:0:0:
122,47,36428,1,0,0:0:0:0:
122,47,36544,1,8,0:0:0:0:
122,47,36601,1,8,0:0:0:0:
122,47,36659,1,0,0:0:0:0:
122,47,36774,1,8,0:0:0:0:
163,47,36890,1,0,0:0:0:0:
163,47,37005,1,8,0:0:0:0:
222,114,37121,1,0,0:0:0:0:
222,114,37236,1,8,0:0:0:0:
222,114,37294,1,0,0:0:0:0:
222,114,37351,1,0,0:0:0:0:
222,114,37467,1,8,0:0:0:0:
222,114,37582,1,0,0:0:0:0:
222,114,37698,1,0,0:0:0:0:
222,114,37755,1,0,0:0:0:0:
222,114,37813,1,8,0:0:0:0:
272,174,38044,1,0,0:0:0:0:
272,174,38160,1,8,0:0:0:0:
272,174,38217,1,8,0:0:0:0:
272,174,38275,1,0,0:0:0:0:
272,174,38391,1,8,0:0:0:0:
272,174,38506,1,0,0:0:0:0:
272,174,38564,1,0,0:0:0:0:
272,174,38621,1,8,0:0:0:0:
272,174,38737,1,0,0:0:0:0:
272,174,38852,1,8,0:0:0:0:
272,174,38967,1,0,0:0:0:0:
272,174,39083,1,8,0:0:0:0:
275,178,39141,1,8,0:0:0:0:
272,174,39198,1,0,0:0:0:0:
275,178,39314,1,8,0:0:0:0:
275,178,39371,1,8,0:0:0:0:
275,178,39429,1,8,0:0:0:0:
205,108,39544,1,0,0:0:0:0:
275,178,39660,1,8,0:0:0:0:
122,47,39891,1,0,0:0:0:0:
122,47,39948,1,0,0:0:0:0:
122,47,40006,1,8,0:0:0:0:
122,47,40121,1,0,0:0:0:0:
122,47,40237,1,8,0:0:0:0:
122,47,40294,1,8,0:0:0:0:
122,47,40352,1,0,0:0:0:0:
122,47,40467,1,8,0:0:0:0:
163,47,40583,1,0,0:0:0:0:
163,47,40698,1,8,0:0:0:0:
222,114,40814,1,0,0:0:0:0:
222,114,40929,1,8,0:0:0:0:
222,114,40987,1,0,0:0:0:0:
222,114,41044,1,0,0:0:0:0:
222,114,41160,1,8,0:0:0:0:
222,114,41275,1,0,0:0:0:0:
222,114,41332,1,8,0:0:0:0:
222,114,41448,1,8,0:0:0:0:
222,114,41505,1,0,0:0:0:0:
231,110,41621,1,8,0:0:0:0:
231,110,41736,1,0,0:0:0:0:
231,110,41967,1,0,0:0:0:0:
231,110,42198,1,0,0:0:0:0:
240,114,42255,1,0,0:0:0:0:
240,114,42313,1,0,0:0:0:0:
240,114,42428,1,12,0:0:0:0:
