osu file format v14

[General]
AudioFilename: audio.mp3
AudioLeadIn: 0
PreviewTime: 24198
Countdown: 0
SampleSet: Normal
StackLeniency: 0.7
Mode: 1
LetterboxInBreaks: 0
WidescreenStoryboard: 0

[Editor]
Bookmarks: 1122,3891,7583,11275,18660,42429
DistanceSpacing: 0.7
BeatDivisor: 6
GridSize: 32
TimelineZoom: 2.2

[Metadata]
Title:More One Kusa
TitleUnicode:More One 草
Artist:7_7
ArtistUnicode:7_7
Creator:-Kazuha
Version:Adventure
Source:少女終末旅行
Tags:anime japanese electronic breakcore jcore j-core hardcore remix shoujo shuumatsu ryokou girls' last tour ed ending night 挿入歌 insert song Inori Minase 水瀬いのり Kubo Yurika 久保ユリカ
BeatmapID:4382583
BeatmapSetID:2090964

[Difficulty]
HPDrainRate:5.5
CircleSize:5
OverallDifficulty:7
ApproachRate:5
SliderMultiplier:1.4
SliderTickRate:1

[Events]
//Background and Video events
0,0,"shoujo_shuumatsu_ryoko.jpg",0,30
//Break Periods
//Storyboard Layer 0 (Background)
//Storyboard Layer 1 (Fail)
//Storyboard Layer 2 (Pass)
//Storyboard Layer 3 (Foreground)
//Storyboard Layer 4 (Overlay)
//Storyboard Sound Samples

[TimingPoints]
198,230.769230769231,4,1,0,95,1,0
1117,-100,4,1,0,95,0,0
1175,-96.6593360561315,4,1,0,95,0,0
1233,-93.5346574787191,4,1,0,95,0,0
1291,-90.6056738981054,4,1,0,95,0,0
1348,-87.9005761630399,4,1,0,95,0,0
1406,-85.3089329451453,4,1,0,95,0,0
1463,-82.9066738525106,4,1,0,95,0,0
1521,-80.5972755850506,4,1,0,95,0,0
1579,-78.413049018775,4,1,0,95,0,0
1636,-76.378832388597,4,1,0,95,0,0
1694,-74.414479783932,4,1,0,95,0,0
1752,-72.5486343092946,4,1,0,95,0,0
1809,-70.8039275851488,4,1,0,95,0,0
1867,-69.112691875702,4,1,0,95,0,0
1924,-67.527526795186,4,1,0,95,0,0
1983,-65.9615522046738,4,1,0,95,0,0
2040,-64.5161290322581,4,1,0,95,0,0
2098,-63.1089535400499,4,1,0,95,0,0
2156,-61.7618521864231,4,1,0,95,0,0
2213,-60.4928562065802,4,1,0,95,0,0
2271,-59.2540283751685,4,1,0,95,0,0
2328,-58.0850193511847,4,1,0,95,0,0
2386,-56.9419167771986,4,1,0,95,0,0
2444,-55.8429379556524,4,1,0,95,0,0
2501,-54.803467521672,4,1,0,95,0,0
2560,-53.7675123059447,4,1,0,95,0,0
2617,-52.8032036613272,4,1,0,95,0,0
2675,-51.8568458902186,4,1,0,95,0,0
2733,-50.9438127828679,4,1,0,95,0,0
2790,-50.077313295174,4,1,0,95,0,0
2848,-49.2253539905603,4,1,0,95,0,0
2905,-48.4158623583718,4,1,0,95,0,0
2963,-47.6190476190476,4,1,0,95,0,0
3654,-44.4444444444445,4,1,0,95,0,0
3886,-111.111111111111,4,1,0,90,0,0
7582,-100,4,1,0,90,0,0
9425,-99.009900990099,4,1,0,90,0,0
9483,-97.3153958255549,4,1,0,90,0,0
9541,-95.6779159265838,4,1,0,90,0,0
9598,-94.1214842771691,4,1,0,90,0,0
9656,-92.5888790213997,4,1,0,90,0,0
9771,-89.6930676583227,4,1,0,90,0,0
9887,-86.949971482992,4,1,0,90,0,0
9944,-85.6626397451325,4,1,0,90,0,0
10060,-83.1570876494229,4,1,0,90,0,0
10118,-81.958483159459,4,1,0,90,0,0
10233,-79.6812749003984,4,1,0,90,0,0
10291,-78.5801118405057,4,1,0,90,0,0
10348,-77.5271896873486,4,1,0,90,0,0
10406,-76.4843694535817,4,1,0,90,0,0
10464,-75.4692308770029,4,1,0,90,0,0
10521,-74.4975106029873,4,1,0,90,0,0
10579,-73.5340959765565,4,1,0,90,0,0
10694,-71.69571910895,4,1,0,90,0,0
10752,-70.8029740754209,4,1,0,90,0,0
10810,-69.9321882803,4,1,0,90,0,0
10925,-68.2674597407864,4,1,0,90,0,0
11041,-66.6666666666667,4,1,0,90,0,0
11044,-50,4,1,0,90,0,0
11270,-111.111111111111,4,1,0,90,0,0
17733,-109.89010989011,4,1,0,90,0,0
17762,-107.465097137888,4,1,0,90,0,0
17848,-100.864343288586,4,1,0,90,0,0
17964,-93.1472183710005,4,1,0,90,0,0
17993,-91.3989856297549,4,1,0,90,0,0
18079,-86.5800865800866,4,1,0,90,0,0
18194,-80.8779701032012,4,1,0,90,0,0
18252,-78.2778864970646,4,1,0,90,0,0
18310,-75.8397720423037,4,1,0,90,0,0
18368,-73.5489493766408,4,1,0,90,0,0
18425,-71.4285714285714,4,1,0,90,0,0
18428,-50,4,1,0,90,0,0
18655,-100,4,1,0,95,0,0
24252,-101.568088033012,4,1,0,95,0,0
24656,-114.268028474157,4,1,0,95,0,0
24714,-116.356760163883,4,1,0,95,0,0
25118,-100,4,1,0,95,0,0
25348,-83.3734939759036,4,1,0,95,0,0
25579,-71.4433202560396,4,1,0,95,0,0
25637,-68.9655172413793,4,1,0,95,0,0
25694,-66.692367000771,4,1,0,95,0,0
25752,-64.5281611339053,4,1,0,95,0,0
25810,-50,4,1,0,95,0,0
26044,-95.2380952380952,4,1,0,100,0,1
33194,-94.3396226415094,4,1,0,100,0,1
33252,-92.7468733061651,4,1,0,100,0,1
33310,-91.2070122793856,4,1,0,100,0,1
33348,-90.2255639097744,4,1,0,100,0,1
33387,-89.2400112032914,4,1,0,100,0,1
33425,-88.3002207505519,4,1,0,100,0,1
33541,-85.550010647458,4,1,0,100,0,1
33579,-84.6859562455893,4,1,0,100,0,1
33618,-83.8171262699564,4,1,0,100,0,1
33656,-82.9875518672199,4,1,0,100,0,1
33771,-80.5741343076641,4,1,0,100,0,1
33829,-79.4094139688378,4,1,0,100,0,1
33887,-78.2778864970646,4,1,0,100,0,1
33944,-77.1968519725299,4,1,0,100,0,1
34002,-76.1270761929871,4,1,0,100,0,1
34041,-75.4242614707731,4,1,0,100,0,1
34079,-74.7518384583647,4,1,0,100,0,1
34117,-50,4,1,0,100,0,1
34351,-100,4,1,0,95,0,0
41964,-105.271164524226,4,1,0,95,0,0
42194,-111.102191538894,4,1,0,95,0,0
42252,-112.676056338028,4,1,0,95,0,0
42310,-114.295152366009,4,1,0,95,0,0
42368,-115.961457896942,4,1,0,95,0,0
42425,-55.5555555555556,4,1,0,95,0,0

[HitObjects]
154,158,1120,5,0,0:0:0:0:
154,158,1178,1,0,0:0:0:0:
154,158,1236,1,8,0:0:0:0:
154,158,1294,1,8,0:0:0:0:
154,158,1351,1,0,0:0:0:0:
154,158,1409,1,8,0:0:0:0:
154,158,1466,1,8,0:0:0:0:
154,158,1524,1,8,0:0:0:0:
154,158,1582,1,0,0:0:0:0:
154,158,1639,1,0,0:0:0:0:
154,158,1697,1,8,0:0:0:0:
154,158,1755,1,8,0:0:0:0:
154,158,1812,1,0,0:0:0:0:
154,158,1870,1,8,0:0:0:0:
154,158,1927,1,8,0:0:0:0:
154,158,1986,1,8,0:0:0:0:
154,158,2043,1,0,0:0:0:0:
154,158,2101,1,0,0:0:0:0:
154,158,2159,1,8,0:0:0:0:
154,158,2216,1,8,0:0:0:0:
154,158,2274,1,0,0:0:0:0:
154,158,2331,1,8,0:0:0:0:
154,158,2389,1,8,0:0:0:0:
154,158,2447,1,8,0:0:0:0:
154,158,2504,1,0,0:0:0:0:
154,158,2563,1,0,0:0:0:0:
154,158,2620,1,8,0:0:0:0:
154,158,2678,1,8,0:0:0:0:
154,158,2736,1,0,0:0:0:0:
154,158,2793,1,8,0:0:0:0:
154,158,2851,1,8,0:0:0:0:
154,158,2908,1,8,0:0:0:0:
270,168,3659,1,12,0:0:0:0:
362,205,3890,1,0,0:0:0:0:
362,205,4005,1,8,0:0:0:0:
362,205,4121,1,0,0:0:0:0:
362,205,4236,1,8,0:0:0:0:
362,205,4351,1,0,0:0:0:0:
248,136,4409,1,8,0:0:0:0:
362,205,4524,1,8,0:0:0:0:
254,63,4582,1,0,0:0:0:0:
198,72,4640,1,0,0:0:0:0:
187,43,4697,1,8,0:0:0:0:
362,205,4813,1,0,0:0:0:0:
362,205,4928,1,8,0:0:0:0:
362,205,5044,1,0,0:0:0:0:
362,205,5159,1,8,0:0:0:0:
362,205,5274,1,0,0:0:0:0:
248,136,5332,1,8,0:0:0:0:
362,205,5447,1,8,0:0:0:0:
254,63,5505,1,0,0:0:0:0:
362,205,5736,1,0,0:0:0:0:
362,205,5851,1,8,0:0:0:0:
362,205,5967,1,0,0:0:0:0:
362,205,6082,1,8,0:0:0:0:
362,205,6197,1,0,0:0:0:0:
248,136,6255,1,8,0:0:0:0:
362,205,6370,1,8,0:0:0:0:
254,63,6428,1,0,0:0:0:0:
220,80,6486,1,0,0:0:0:0:
187,43,6543,1,8,0:0:0:0:
362,205,6659,1,0,0:0:0:0:
362,205,6774,1,8,0:0:0:0:
362,205,6890,1,0,0:0:0:0:
362,205,7005,1,8,0:0:0:0:
362,205,7120,1,0,0:0:0:0:
248,136,7178,1,8,0:0:0:0:
362,205,7293,1,8,0:0:0:0:
254,63,7351,1,0,0:0:0:0:
271,180,7582,1,8,0:0:0:0:
284,179,7755,1,0,0:0:0:0:
284,179,7813,1,8,0:0:0:0:
284,179,7928,1,0,0:0:0:0:
284,179,7986,1,0,0:0:0:0:
284,179,8044,1,8,0:0:0:0:
284,179,8101,1,0,0:0:0:0:
284,179,8217,1,0,0:0:0:0:
284,179,8274,1,8,0:0:0:0:
284,179,8390,1,0,0:0:0:0:
302,174,8447,1,0,0:0:0:0:
302,174,8505,1,8,0:0:0:0:
302,174,8563,1,8,0:0:0:0:
302,174,8621,1,0,0:0:0:0:
302,174,8678,1,0,0:0:0:0:
302,174,8736,1,8,0:0:0:0:
302,174,8851,1,0,0:0:0:0:
302,174,8967,1,0,0:0:0:0:
302,174,9024,1,0,0:0:0:0:
302,174,9082,1,8,0:0:0:0:
191,53,9197,1,8,0:0:0:0:
179,12,9313,1,8,0:0:0:0:
262,162,9428,1,0,0:0:0:0:
262,162,9486,1,0,0:0:0:0:
262,162,9544,1,8,0:0:0:0:
262,162,9601,1,0,0:0:0:0:
262,162,9659,1,8,0:0:0:0:
262,162,9774,1,0,0:0:0:0:
237,100,9890,1,8,0:0:0:0:
237,100,9947,1,0,0:0:0:0:
237,100,10063,1,0,0:0:0:0:
237,100,10121,1,8,0:0:0:0:
237,100,10236,1,0,0:0:0:0:
237,100,10294,1,0,0:0:0:0:
237,100,10351,1,8,0:0:0:0:
237,100,10409,1,8,0:0:0:0:
237,100,10467,1,0,0:0:0:0:
237,100,10524,1,0,0:0:0:0:
237,100,10582,1,8,0:0:0:0:
204,61,10697,1,0,0:0:0:0:
204,61,10755,1,8,0:0:0:0:
204,61,10813,1,0,0:0:0:0:
204,61,10928,1,0,0:0:0:0:
204,61,11044,1,12,0:0:0:0:
371,267,11274,1,0,0:0:0:0:
371,267,11505,1,8,0:0:0:0:
371,267,11621,1,0,0:0:0:0:
371,267,11736,1,0,0:0:0:0:
367,263,11851,1,8,0:0:0:0:
367,263,11909,1,8,0:0:0:0:
367,263,11967,1,0,0:0:0:0:
367,263,12082,1,8,0:0:0:0:
367,263,12140,1,0,0:0:0:0:
367,263,12197,1,8,0:0:0:0:
367,263,12313,1,8,0:0:0:0:
367,263,12428,1,0,0:0:0:0:
192,51,12486,1,0,0:0:0:0:
367,263,12544,1,8,0:0:0:0:
367,263,12601,1,8,0:0:0:0:
367,263,12659,1,0,0:0:0:0:
367,263,12774,1,0,0:0:0:0:
367,263,12890,1,8,0:0:0:0:
166,44,12947,1,8,0:0:0:0:
238,94,13005,1,0,0:0:0:0:
367,263,13121,1,8,0:0:0:0:
367,263,13236,1,0,0:0:0:0:
367,263,13294,1,0,0:0:0:0:
367,263,13351,1,8,0:0:0:0:
367,263,13467,1,0,0:0:0:0:
367,263,13582,1,8,0:0:0:0:
367,263,13640,1,8,0:0:0:0:
367,263,13697,1,0,0:0:0:0:
367,263,13755,1,0,0:0:0:0:
367,263,13813,1,8,0:0:0:0:
367,263,13928,1,8,0:0:0:0:
367,263,14044,1,0,0:0:0:0:
367,263,14159,1,8,0:0:0:0:
367,263,14274,1,0,0:0:0:0:
367,263,14390,1,8,0:0:0:0:
367,263,14447,1,8,0:0:0:0:
367,263,14505,1,0,0:0:0:0:
367,263,14621,1,0,0:0:0:0:
367,263,14678,1,0,0:0:0:0:
367,263,14736,1,8,0:0:0:0:
367,263,14851,1,8,0:0:0:0:
406,243,14967,1,0,0:0:0:0:
389,236,15197,1,8,0:0:0:0:
389,236,15313,1,0,0:0:0:0:
367,217,15428,1,0,0:0:0:0:
367,217,15544,1,8,0:0:0:0:
367,217,15601,1,8,0:0:0:0:
367,217,15659,1,0,0:0:0:0:
189,18,15774,1,8,0:0:0:0:
189,18,15832,1,8,0:0:0:0:
189,18,15890,1,0,0:0:0:0:
189,18,15947,1,0,0:0:0:0:
189,18,16005,1,8,0:0:0:0:
189,18,16063,1,0,0:0:0:0:
189,18,16121,1,8,0:0:0:0:
192,22,16236,1,8,0:0:0:0:
264,57,16351,1,0,0:0:0:0:
264,57,16467,1,0,0:0:0:0:
264,57,16524,1,0,0:0:0:0:
264,57,16582,1,8,0:0:0:0:
264,57,16697,1,8,0:0:0:0:
288,89,16813,1,0,0:0:0:0:
211,93,16928,1,0,0:0:0:0:
288,89,16986,1,0,0:0:0:0:
288,89,17044,1,8,0:0:0:0:
288,89,17159,1,0,0:0:0:0:
288,89,17274,1,8,0:0:0:0:
288,89,17332,1,0,0:0:0:0:
288,89,17390,1,8,0:0:0:0:
288,89,17447,1,0,0:0:0:0:
288,89,17505,1,8,0:0:0:0:
288,89,17621,1,8,0:0:0:0:
457,96,17736,1,0,0:0:0:0:
457,96,17765,1,0,0:0:0:0:
208,31,17851,1,8,0:0:0:0:
457,96,17967,1,0,0:0:0:0:
457,96,17996,1,0,0:0:0:0:
208,31,18082,1,8,0:0:0:0:
330,208,18197,1,0,0:0:0:0:
330,208,18255,1,0,0:0:0:0:
330,208,18313,1,0,0:0:0:0:
330,208,18371,1,0,0:0:0:0:
330,208,18428,1,12,0:0:0:0:
294,170,18659,1,0,0:0:0:0:
294,170,18717,1,0,0:0:0:0:
294,170,18774,1,8,0:0:0:0:
294,170,18832,1,8,0:0:0:0:
294,170,18890,1,0,0:0:0:0:
294,170,19005,1,8,0:0:0:0:
294,170,19063,1,8,0:0:0:0:
294,170,19120,1,0,0:0:0:0:
294,170,19178,1,0,0:0:0:0:
294,170,19236,1,8,0:0:0:0:
222,91,19351,1,0,0:0:0:0:
222,91,19409,1,0,0:0:0:0:
222,91,19467,1,8,0:0:0:0:
222,91,19582,1,0,0:0:0:0:
222,91,19697,1,8,0:0:0:0:
222,91,19755,1,8,0:0:0:0:
222,91,19813,1,0,0:0:0:0:
222,91,19928,1,8,0:0:0:0:
222,91,19986,1,8,0:0:0:0:
222,91,20044,1,0,0:0:0:0:
222,91,20101,1,8,0:0:0:0:
222,91,20217,1,8,0:0:0:0:
222,91,20274,1,0,0:0:0:0:
222,91,20390,1,8,0:0:0:0:
294,170,20505,1,0,0:0:0:0:
294,170,20563,1,0,0:0:0:0:
294,170,20620,1,8,0:0:0:0:
294,170,20678,1,0,0:0:0:0:
294,170,20736,1,8,0:0:0:0:
294,170,20851,1,0,0:0:0:0:
294,170,20909,1,0,0:0:0:0:
294,170,20966,1,8,0:0:0:0:
294,170,21024,1,8,0:0:0:0:
294,170,21082,1,0,0:0:0:0:
294,170,21140,1,0,0:0:0:0:
294,170,21197,1,8,0:0:0:0:
294,170,21255,1,0,0:0:0:0:
294,170,21313,1,8,0:0:0:0:
217,66,21428,1,0,0:0:0:0:
217,66,21544,1,8,0:0:0:0:
217,66,21601,1,8,0:0:0:0:
217,66,21659,1,0,0:0:0:0:
217,66,21774,1,8,0:0:0:0:
217,66,21832,1,8,0:0:0:0:
217,66,21890,1,8,0:0:0:0:
184,130,21947,1,0,0:0:0:0:
294,170,22005,1,8,0:0:0:0:
294,170,22063,1,0,0:0:0:0:
294,170,22120,1,8,0:0:0:0:
294,170,22178,1,8,0:0:0:0:
294,170,22236,1,0,0:0:0:0:
294,170,22351,1,8,0:0:0:0:
294,170,22409,1,8,0:0:0:0:
294,170,22466,1,0,0:0:0:0:
294,170,22524,1,0,0:0:0:0:
294,170,22582,1,8,0:0:0:0:
187,75,22697,1,0,0:0:0:0:
187,75,22755,1,0,0:0:0:0:
187,75,22813,1,8,0:0:0:0:
256,187,22871,1,0,0:0:0:0:
187,75,22928,1,0,0:0:0:0:
294,170,23044,1,8,0:0:0:0:
294,170,23100,1,8,0:0:0:0:
294,170,23159,1,0,0:0:0:0:
184,46,23274,1,8,0:0:0:0:
184,46,23390,1,0,0:0:0:0:
184,46,23447,1,0,0:0:0:0:
184,46,23505,1,8,0:0:0:0:
184,46,23621,1,8,0:0:0:0:
184,46,23678,1,8,0:0:0:0:
184,46,23736,1,0,0:0:0:0:
184,46,23794,1,8,0:0:0:0:
184,46,23909,1,0,0:0:0:0:
184,46,23967,1,8,0:0:0:0:
184,46,24082,1,8,0:0:0:0:
184,46,24198,1,0,0:0:0:0:
184,46,24255,1,0,0:0:0:0:
184,46,24659,1,0,0:0:0:0:
184,46,24717,1,0,0:0:0:0:
184,46,25121,1,0,0:0:0:0:
184,46,25351,1,0,0:0:0:0:
184,46,25582,1,0,0:0:0:0:
197,189,25640,1,0,0:0:0:0:
197,189,25697,1,0,0:0:0:0:
197,189,25755,1,0,0:0:0:0:
201,191,25813,1,12,0:0:0:0:
313,230,26044,1,0,0:0:0:0:
313,230,26159,1,0,0:0:0:0:
313,230,26217,1,0,0:0:0:0:
313,230,26274,1,8,0:0:0:0:
176,50,26390,1,0,0:0:0:0:
176,50,26505,1,8,0:0:0:0:
151,23,26563,1,8,0:0:0:0:
179,75,26621,1,0,0:0:0:0:
184,58,26678,1,8,0:0:0:0:
184,58,26736,1,0,0:0:0:0:
346,256,26794,1,0,0:0:0:0:
184,58,26851,1,8,0:0:0:0:
184,58,26967,1,0,0:0:0:0:
184,58,27024,1,0,0:0:0:0:
184,58,27082,1,8,0:0:0:0:
184,58,27140,1,8,0:0:0:0:
184,58,27197,1,0,0:0:0:0:
184,58,27313,1,8,0:0:0:0:
184,58,27428,1,0,0:0:0:0:
184,58,27486,1,0,0:0:0:0:
184,58,27544,1,8,0:0:0:0:
184,58,27601,1,0,0:0:0:0:
184,58,27659,1,8,0:0:0:0:
184,58,27717,1,8,0:0:0:0:
184,58,27774,1,0,0:0:0:0:
184,58,27832,1,0,0:0:0:0:
184,58,27890,1,8,0:0:0:0:
241,85,28005,1,0,0:0:0:0:
241,85,28063,1,0,0:0:0:0:
241,85,28121,1,8,0:0:0:0:
241,85,28236,1,0,0:0:0:0:
241,85,28351,1,8,0:0:0:0:
241,85,28409,1,0,0:0:0:0:
248,112,28467,1,0,0:0:0:0:
241,85,28524,1,8,0:0:0:0:
241,85,28582,1,0,0:0:0:0:
241,85,28697,1,8,0:0:0:0:
223,72,28755,1,8,0:0:0:0:
223,72,28813,1,0,0:0:0:0:
223,72,28928,1,8,0:0:0:0:
223,72,29044,1,0,0:0:0:0:
223,72,29101,1,0,0:0:0:0:
223,72,29159,1,8,0:0:0:0:
223,72,29274,1,0,0:0:0:0:
223,72,29332,1,0,0:0:0:0:
219,72,29390,1,8,0:0:0:0:
220,72,29447,1,8,0:0:0:0:
221,72,29505,1,0,0:0:0:0:
224,74,29621,1,8,0:0:0:0:
224,74,29736,1,0,0:0:0:0:
306,165,29851,1,8,0:0:0:0:
306,165,29909,1,0,0:0:0:0:
306,165,29967,1,8,0:0:0:0:
306,165,30082,1,0,0:0:0:0:
306,165,30140,1,0,0:0:0:0:
306,165,30198,1,8,0:0:0:0:
306,165,30255,1,8,0:0:0:0:
154,47,30313,1,0,0:0:0:0:
306,165,30371,1,8,0:0:0:0:
306,165,30428,1,0,0:0:0:0:
226,124,30486,1,0,0:0:0:0:
306,165,30544,1,8,0:0:0:0:
306,165,30659,1,0,0:0:0:0:
306,165,30717,1,8,0:0:0:0:
306,165,30774,1,8,0:0:0:0:
306,165,30832,1,8,0:0:0:0:
306,165,30890,1,0,0:0:0:0:
306,165,31005,1,8,0:0:0:0:
306,165,31121,1,0,0:0:0:0:
306,165,31236,1,8,0:0:0:0:
306,165,31294,1,0,0:0:0:0:
306,165,31351,1,0,0:0:0:0:
306,165,31467,1,8,0:0:0:0:
306,165,31524,1,0,0:0:0:0:
306,165,31582,1,8,0:0:0:0:
306,165,31697,1,0,0:0:0:0:
183,74,31755,1,0,0:0:0:0:
306,165,31813,1,8,0:0:0:0:
306,165,31871,1,0,0:0:0:0:
306,165,31928,1,8,0:0:0:0:
306,165,31986,1,8,0:0:0:0:
306,165,32044,1,0,0:0:0:0:
306,165,32159,1,8,0:0:0:0:
306,165,32217,1,8,0:0:0:0:
306,165,32274,1,0,0:0:0:0:
306,165,32390,1,8,0:0:0:0:
306,165,32505,1,0,0:0:0:0:
306,165,32563,1,8,0:0:0:0:
306,165,32621,1,0,0:0:0:0:
306,165,32659,1,0,0:0:0:0:
189,48,32698,1,0,0:0:0:0:
306,165,32736,1,8,0:0:0:0:
306,165,32794,1,8,0:0:0:0:
306,165,32851,1,0,0:0:0:0:
306,165,32909,1,0,0:0:0:0:
306,165,32967,1,8,0:0:0:0:
306,165,33082,1,0,0:0:0:0:
306,165,33197,1,8,0:0:0:0:
306,165,33255,1,8,0:0:0:0:
371,100,33313,1,0,0:0:0:0:
371,100,33351,1,0,0:0:0:0:
371,100,33390,1,0,0:0:0:0:
371,100,33428,1,8,0:0:0:0:
371,100,33544,1,0,0:0:0:0:
371,100,33582,1,0,0:0:0:0:
371,100,33621,1,0,0:0:0:0:
371,100,33659,1,8,0:0:0:0:
198,37,33774,1,0,0:0:0:0:
198,37,33832,1,8,0:0:0:0:
198,37,33890,1,0,0:0:0:0:
148,21,33947,1,8,0:0:0:0:
371,100,34005,1,0,0:0:0:0:
371,100,34063,1,0,0:0:0:0:
371,100,34121,1,12,0:0:0:0:
319,210,34351,1,0,0:0:0:0:
319,210,34467,1,8,0:0:0:0:
319,210,34524,1,0,0:0:0:0:
319,210,34582,1,8,0:0:0:0:
319,210,34697,1,8,0:0:0:0:
319,210,34755,1,8,0:0:0:0:
319,210,34813,1,0,0:0:0:0:
319,210,34871,1,0,0:0:0:0:
319,210,34928,1,8,0:0:0:0:
319,210,35044,1,0,0:0:0:0:
319,210,35101,1,0,0:0:0:0:
319,210,35159,1,8,0:0:0:0:
319,210,35274,1,0,0:0:0:0:
319,210,35390,1,8,0:0:0:0:
319,210,35447,1,8,0:0:0:0:
319,210,35505,1,0,0:0:0:0:
319,210,35621,1,8,0:0:0:0:
319,210,35678,1,8,0:0:0:0:
319,210,35736,1,0,0:0:0:0:
319,210,35794,1,0,0:0:0:0:
319,210,35909,1,8,0:0:0:0:
319,210,35967,1,0,0:0:0:0:
319,210,36082,1,8,0:0:0:0:
319,210,36197,1,0,0:0:0:0:
319,210,36255,1,0,0:0:0:0:
319,210,36313,1,8,0:0:0:0:
319,210,36371,1,8,0:0:0:0:
319,210,36428,1,0,0:0:0:0:
319,210,36544,1,8,0:0:0:0:
319,210,36601,1,8,0:0:0:0:
319,210,36659,1,0,0:0:0:0:
319,210,36774,1,8,0:0:0:0:
319,210,36890,1,0,0:0:0:0:
319,210,36947,1,0,0:0:0:0:
319,210,37005,1,8,0:0:0:0:
319,210,37121,1,0,0:0:0:0:
319,210,37236,1,8,0:0:0:0:
319,210,37294,1,8,0:0:0:0:
319,210,37351,1,0,0:0:0:0:
319,210,37467,1,8,0:0:0:0:
319,210,37524,1,0,0:0:0:0:
319,210,37582,1,0,0:0:0:0:
319,210,37697,1,0,0:0:0:0:
319,210,37755,1,8,0:0:0:0:
319,210,37813,1,0,0:0:0:0:
319,210,37928,1,8,0:0:0:0:
319,210,38044,1,8,0:0:0:0:
319,210,38101,1,8,0:0:0:0:
319,210,38159,1,0,0:0:0:0:
319,210,38217,1,0,0:0:0:0:
319,210,38274,1,8,0:0:0:0:
319,210,38390,1,0,0:0:0:0:
319,210,38447,1,8,0:0:0:0:
319,210,38505,1,0,0:0:0:0:
319,210,38621,1,8,0:0:0:0:
319,210,38736,1,0,0:0:0:0:
319,210,38794,1,0,0:0:0:0:
319,210,38851,1,8,0:0:0:0:
319,210,38967,1,0,0:0:0:0:
319,210,39082,1,8,0:0:0:0:
319,210,39140,1,8,0:0:0:0:
319,210,39197,1,0,0:0:0:0:
319,210,39313,1,8,0:0:0:0:
319,210,39371,1,0,0:0:0:0:
319,210,39428,1,8,0:0:0:0:
319,210,39486,1,8,0:0:0:0:
319,210,39601,1,8,0:0:0:0:
319,210,39659,1,0,0:0:0:0:
319,210,39774,1,8,0:0:0:0:
319,210,39890,1,0,0:0:0:0:
319,210,39947,1,0,0:0:0:0:
319,210,40005,1,8,0:0:0:0:
319,210,40063,1,8,0:0:0:0:
319,210,40121,1,0,0:0:0:0:
319,210,40236,1,8,0:0:0:0:
319,210,40294,1,8,0:0:0:0:
319,210,40351,1,0,0:0:0:0:
319,210,40467,1,8,0:0:0:0:
319,210,40582,1,0,0:0:0:0:
319,210,40640,1,0,0:0:0:0:
319,210,40697,1,8,0:0:0:0:
319,210,40813,1,0,0:0:0:0:
319,210,40928,1,8,0:0:0:0:
319,210,40986,1,8,0:0:0:0:
319,210,41044,1,0,0:0:0:0:
319,210,41159,1,8,0:0:0:0:
319,210,41217,1,0,0:0:0:0:
319,210,41274,1,0,0:0:0:0:
319,210,41332,1,8,0:0:0:0:
319,210,41447,1,8,0:0:0:0:
319,210,41505,1,0,0:0:0:0:
319,210,41621,1,8,0:0:0:0:
319,210,41736,1,0,0:0:0:0:
319,210,41967,1,0,0:0:0:0:
319,210,42197,1,0,0:0:0:0:
319,210,42255,1,0,0:0:0:0:
319,210,42313,1,0,0:0:0:0:
319,210,42371,1,0,0:0:0:0:
319,210,42428,1,12,0:0:0:0:
