osu file format v14

[General]
AudioFilename: audio.mp3
AudioLeadIn: 0
PreviewTime: 35550
Countdown: 0
SampleSet: Normal
StackLeniency: 0
Mode: 1
LetterboxInBreaks: 0
WidescreenStoryboard: 0

[Editor]
Bookmarks: 4830,12510,50910,66270,77790
DistanceSpacing: 2
BeatDivisor: 4
GridSize: 32
TimelineZoom: 3.579999

[Metadata]
Title:Katyukusa
TitleUnicode:Катютрава
Artist:7_7
ArtistUnicode:7_7
Creator:Genjuro
Version:Muzukashii
Source:ガールズ&パンツァー
Tags:electronic russian anime カチューシャ Katyusha ノンナ Nonna 金元寿子 Kanemoto Hisako 上坂すみれ Uesaka Sumire Girls und Panzer
BeatmapID:2944444
BeatmapSetID:1430308

[Difficulty]
HPDrainRate:5
CircleSize:2
OverallDifficulty:5
ApproachRate:10
SliderMultiplier:1.4
SliderTickRate:1

[Events]
//Background and Video events
0,0,"bg.jpg",0,55
//Break Periods
//Storyboard Layer 0 (Background)
//Storyboard Layer 1 (Fail)
//Storyboard Layer 2 (Pass)
//Storyboard Layer 3 (Foreground)
//Storyboard Layer 4 (Overlay)
//Storyboard Sound Samples

[TimingPoints]
990,240,4,1,0,100,1,0
16350,-100,4,1,0,100,0,1
20190,-100,4,1,0,100,0,0
27870,-100,4,1,0,100,0,1
35550,-100,4,1,0,100,0,0
39390,-100,4,1,0,100,0,1
47070,-100,4,1,0,100,0,0
66750,-100,4,1,0,100,0,1
77070,-100,4,1,0,100,0,0
81630,-100,4,1,0,100,0,1
85470,-100,4,1,0,100,0,0
93150,-100,4,1,0,100,0,1
100830,-100,4,1,0,100,0,0

[HitObjects]
256,192,990,5,8,0:0:0:0:
256,192,1230,1,0,0:0:0:0:
256,192,1470,1,8,0:0:0:0:
256,192,1710,1,0,0:0:0:0:
256,192,1950,1,8,0:0:0:0:
256,192,2190,1,8,0:0:0:0:
256,192,2310,1,8,0:0:0:0:
256,192,2430,1,0,0:0:0:0:
256,192,2670,1,8,0:0:0:0:
256,192,2910,1,0,0:0:0:0:
256,192,3030,1,8,0:0:0:0:
256,192,3270,1,8,0:0:0:0:
256,192,3390,1,0,0:0:0:0:
256,192,3870,1,8,0:0:0:0:
256,192,3990,1,8,0:0:0:0:
256,192,4110,1,0,0:0:0:0:
256,192,4230,1,0,0:0:0:0:
256,192,4350,1,8,0:0:0:0:
256,192,4830,1,0,0:0:0:0:
256,192,5070,1,8,0:0:0:0:
256,192,5190,1,0,0:0:0:0:
256,192,5310,1,0,0:0:0:0:
256,192,5430,1,8,0:0:0:0:
256,192,5550,1,0,0:0:0:0:
256,192,5790,1,0,0:0:0:0:
256,192,5910,1,0,0:0:0:0:
256,192,6030,1,8,0:0:0:0:
256,192,6270,1,8,0:0:0:0:
256,192,6390,1,8,0:0:0:0:
256,192,6510,1,0,0:0:0:0:
256,192,6750,1,8,0:0:0:0:
256,192,6990,1,8,0:0:0:0:
256,192,7110,1,8,0:0:0:0:
256,192,7230,1,0,0:0:0:0:
256,192,7350,1,8,0:0:0:0:
256,192,7470,1,0,0:0:0:0:
256,192,7710,1,8,0:0:0:0:
256,192,8190,1,0,0:0:0:0:
256,192,8670,1,8,0:0:0:0:
256,192,8790,1,8,0:0:0:0:
256,192,8910,1,0,0:0:0:0:
256,192,9150,1,8,0:0:0:0:
256,192,9270,1,0,0:0:0:0:
256,192,9390,1,8,0:0:0:0:
256,192,9630,1,0,0:0:0:0:
256,192,9870,1,8,0:0:0:0:
256,192,9990,1,0,0:0:0:0:
256,192,10230,1,8,0:0:0:0:
256,192,10350,1,0,0:0:0:0:
256,192,10470,1,8,0:0:0:0:
256,192,10590,1,0,0:0:0:0:
256,192,10830,1,0,0:0:0:0:
256,192,11070,1,8,0:0:0:0:
256,192,11190,1,8,0:0:0:0:
256,192,11310,1,8,0:0:0:0:
256,192,11430,1,8,0:0:0:0:
256,192,11550,1,0,0:0:0:0:
256,192,11790,1,8,0:0:0:0:
256,192,11910,1,8,0:0:0:0:
256,192,12030,1,0,0:0:0:0:
256,192,12090,1,0,0:0:0:0:
256,192,12150,1,0,0:0:0:0:
256,192,12270,1,8,0:0:0:0:
256,192,12510,1,0,0:0:0:0:
256,192,12870,1,8,0:0:0:0:
256,192,12990,1,0,0:0:0:0:
256,192,13350,1,0,0:0:0:0:
256,192,13470,1,8,0:0:0:0:
256,192,13710,1,8,0:0:0:0:
256,192,13830,1,8,0:0:0:0:
256,192,13950,1,0,0:0:0:0:
256,192,14190,1,8,0:0:0:0:
256,192,14430,1,0,0:0:0:0:
256,192,14790,1,8,0:0:0:0:
256,192,14910,1,0,0:0:0:0:
256,192,15270,1,0,0:0:0:0:
256,192,15390,1,8,0:0:0:0:
256,192,15510,1,0,0:0:0:0:
256,192,15630,1,8,0:0:0:0:
256,192,15750,1,8,0:0:0:0:
256,192,15870,1,0,0:0:0:0:
256,192,16350,1,4,0:0:0:0:
256,192,16830,1,8,0:0:0:0:
256,192,17070,1,0,0:0:0:0:
256,192,17310,1,8,0:0:0:0:
256,192,17430,1,0,0:0:0:0:
256,192,17550,1,8,0:0:0:0:
256,192,17670,1,8,0:0:0:0:
256,192,17790,1,0,0:0:0:0:
256,192,18030,1,8,0:0:0:0:
256,192,18270,1,0,0:0:0:0:
256,192,18390,1,8,0:0:0:0:
256,192,18630,1,8,0:0:0:0:
256,192,18750,1,0,0:0:0:0:
256,192,19110,1,0,0:0:0:0:
256,192,19230,1,8,0:0:0:0:
256,192,19350,1,8,0:0:0:0:
256,192,19470,1,0,0:0:0:0:
256,192,19710,1,8,0:0:0:0:
256,192,19830,1,8,0:0:0:0:
256,192,19950,1,8,0:0:0:0:
256,192,20190,1,0,0:0:0:0:
256,192,20430,1,8,0:0:0:0:
256,192,20670,1,0,0:0:0:0:
256,192,20910,1,8,0:0:0:0:
256,192,21030,1,8,0:0:0:0:
256,192,21150,1,0,0:0:0:0:
256,192,21390,1,8,0:0:0:0:
256,192,21510,1,0,0:0:0:0:
256,192,21630,1,8,0:0:0:0:
256,192,21870,1,0,0:0:0:0:
256,192,22230,1,8,0:0:0:0:
256,192,22350,1,0,0:0:0:0:
256,192,22470,1,0,0:0:0:0:
256,192,22590,1,8,0:0:0:0:
256,192,22950,1,8,0:0:0:0:
256,192,23070,1,0,0:0:0:0:
256,192,23310,1,8,0:0:0:0:
256,192,23550,1,0,0:0:0:0:
256,192,23670,1,0,0:0:0:0:
256,192,23790,1,8,0:0:0:0:
256,192,24030,1,0,0:0:0:0:
256,192,24390,1,8,0:0:0:0:
256,192,24510,1,0,0:0:0:0:
256,192,24870,1,0,0:0:0:0:
256,192,24990,1,8,0:0:0:0:
256,192,25230,1,8,0:0:0:0:
256,192,25350,1,8,0:0:0:0:
256,192,25470,1,0,0:0:0:0:
256,192,25710,1,8,0:0:0:0:
256,192,25950,1,0,0:0:0:0:
256,192,26310,1,8,0:0:0:0:
256,192,26430,1,0,0:0:0:0:
256,192,26790,1,0,0:0:0:0:
256,192,26910,1,8,0:0:0:0:
256,192,27030,1,0,0:0:0:0:
256,192,27150,1,8,0:0:0:0:
256,192,27270,1,8,0:0:0:0:
256,192,27390,1,0,0:0:0:0:
256,192,27870,1,4,0:0:0:0:
256,192,28350,1,8,0:0:0:0:
256,192,28590,1,0,0:0:0:0:
256,192,28830,1,8,0:0:0:0:
256,192,28950,1,0,0:0:0:0:
256,192,29070,1,8,0:0:0:0:
256,192,29190,1,8,0:0:0:0:
256,192,29310,1,0,0:0:0:0:
256,192,29550,1,8,0:0:0:0:
256,192,29790,1,0,0:0:0:0:
256,192,29910,1,8,0:0:0:0:
256,192,30150,1,8,0:0:0:0:
256,192,30270,1,0,0:0:0:0:
256,192,30630,1,0,0:0:0:0:
256,192,30750,1,8,0:0:0:0:
256,192,30870,1,8,0:0:0:0:
256,192,30990,1,0,0:0:0:0:
256,192,31230,1,8,0:0:0:0:
256,192,31350,1,8,0:0:0:0:
256,192,31470,1,8,0:0:0:0:
256,192,31710,1,4,0:0:0:0:
256,192,32190,1,12,0:0:0:0:
256,192,32430,1,0,0:0:0:0:
256,192,32670,1,8,0:0:0:0:
256,192,32790,1,8,0:0:0:0:
256,192,32910,1,0,0:0:0:0:
256,192,33030,1,8,0:0:0:0:
256,192,33150,1,0,0:0:0:0:
256,192,33270,1,0,0:0:0:0:
256,192,33390,1,8,0:0:0:0:
256,192,33630,1,8,0:0:0:0:
256,192,33750,1,0,0:0:0:0:
256,192,33990,1,0,0:0:0:0:
256,192,34110,1,8,0:0:0:0:
256,192,34170,1,8,0:0:0:0:
256,192,34230,1,8,0:0:0:0:
256,192,34350,1,0,0:0:0:0:
256,192,34590,1,8,0:0:0:0:
256,192,34830,1,0,0:0:0:0:
256,192,35070,1,8,0:0:0:0:
256,192,35190,1,8,0:0:0:0:
256,192,35310,1,8,0:0:0:0:
256,192,35550,1,0,0:0:0:0:
256,192,35910,1,8,0:0:0:0:
256,192,36030,1,0,0:0:0:0:
256,192,36390,1,0,0:0:0:0:
256,192,36510,1,8,0:0:0:0:
256,192,36750,1,8,0:0:0:0:
256,192,36870,1,8,0:0:0:0:
256,192,36990,1,0,0:0:0:0:
256,192,37230,1,8,0:0:0:0:
256,192,37470,1,0,0:0:0:0:
256,192,37830,1,8,0:0:0:0:
256,192,37950,1,0,0:0:0:0:
256,192,38310,1,0,0:0:0:0:
256,192,38430,1,8,0:0:0:0:
256,192,38550,1,0,0:0:0:0:
256,192,38670,1,8,0:0:0:0:
256,192,38790,1,8,0:0:0:0:
256,192,38910,1,0,0:0:0:0:
256,192,39390,1,4,0:0:0:0:
256,192,39870,1,8,0:0:0:0:
256,192,40110,1,0,0:0:0:0:
256,192,40350,1,8,0:0:0:0:
256,192,40470,1,0,0:0:0:0:
256,192,40590,1,8,0:0:0:0:
256,192,40710,1,8,0:0:0:0:
256,192,40830,1,0,0:0:0:0:
256,192,41070,1,8,0:0:0:0:
256,192,41310,1,0,0:0:0:0:
256,192,41430,1,8,0:0:0:0:
256,192,41670,1,8,0:0:0:0:
256,192,41790,1,0,0:0:0:0:
256,192,42150,1,0,0:0:0:0:
256,192,42270,1,8,0:0:0:0:
256,192,42390,1,8,0:0:0:0:
256,192,42510,1,0,0:0:0:0:
256,192,42750,1,8,0:0:0:0:
256,192,42870,1,8,0:0:0:0:
256,192,42990,1,8,0:0:0:0:
256,192,43230,1,4,0:0:0:0:
256,192,43710,1,12,0:0:0:0:
256,192,43950,1,0,0:0:0:0:
256,192,44190,1,8,0:0:0:0:
256,192,44310,1,8,0:0:0:0:
256,192,44430,1,0,0:0:0:0:
256,192,44550,1,8,0:0:0:0:
256,192,44670,1,0,0:0:0:0:
256,192,44790,1,0,0:0:0:0:
256,192,44910,1,8,0:0:0:0:
256,192,45150,1,8,0:0:0:0:
256,192,45270,1,0,0:0:0:0:
256,192,45510,1,0,0:0:0:0:
256,192,45630,1,8,0:0:0:0:
256,192,45690,1,8,0:0:0:0:
256,192,45750,1,8,0:0:0:0:
256,192,45870,1,0,0:0:0:0:
256,192,46110,1,8,0:0:0:0:
256,192,46350,1,0,0:0:0:0:
256,192,46590,1,8,0:0:0:0:
256,192,46710,1,8,0:0:0:0:
256,192,46830,1,8,0:0:0:0:
256,192,47070,1,8,0:0:0:0:
256,192,47310,1,0,0:0:0:0:
256,192,47550,1,8,0:0:0:0:
256,192,47790,1,0,0:0:0:0:
256,192,48030,1,8,0:0:0:0:
256,192,48270,1,8,0:0:0:0:
256,192,48390,1,8,0:0:0:0:
256,192,48510,1,0,0:0:0:0:
256,192,48750,1,8,0:0:0:0:
256,192,48990,1,0,0:0:0:0:
256,192,49110,1,8,0:0:0:0:
256,192,49350,1,8,0:0:0:0:
256,192,49470,1,0,0:0:0:0:
256,192,49950,1,8,0:0:0:0:
256,192,50070,1,8,0:0:0:0:
256,192,50190,1,0,0:0:0:0:
256,192,50310,1,0,0:0:0:0:
256,192,50430,1,8,0:0:0:0:
256,192,50910,1,0,0:0:0:0:
256,192,51150,1,8,0:0:0:0:
256,192,51270,1,0,0:0:0:0:
256,192,51390,1,0,0:0:0:0:
256,192,51510,1,8,0:0:0:0:
256,192,51630,1,0,0:0:0:0:
256,192,51870,1,0,0:0:0:0:
256,192,51990,1,0,0:0:0:0:
256,192,52110,1,8,0:0:0:0:
256,192,52350,1,8,0:0:0:0:
256,192,52470,1,8,0:0:0:0:
256,192,52590,1,0,0:0:0:0:
256,192,52830,1,8,0:0:0:0:
256,192,53070,1,8,0:0:0:0:
256,192,53190,1,8,0:0:0:0:
256,192,53310,1,0,0:0:0:0:
256,192,53430,1,8,0:0:0:0:
256,192,53550,1,0,0:0:0:0:
256,192,53790,1,8,0:0:0:0:
256,192,54270,1,0,0:0:0:0:
256,192,54750,1,8,0:0:0:0:
256,192,54870,1,8,0:0:0:0:
256,192,54990,1,0,0:0:0:0:
256,192,55230,1,8,0:0:0:0:
256,192,55350,1,0,0:0:0:0:
256,192,55470,1,8,0:0:0:0:
256,192,55710,1,0,0:0:0:0:
256,192,55950,1,8,0:0:0:0:
256,192,56070,1,0,0:0:0:0:
256,192,56310,1,8,0:0:0:0:
256,192,56430,1,0,0:0:0:0:
256,192,56550,1,8,0:0:0:0:
256,192,56670,1,0,0:0:0:0:
256,192,56910,1,0,0:0:0:0:
256,192,57150,1,8,0:0:0:0:
256,192,57270,1,8,0:0:0:0:
256,192,57390,1,8,0:0:0:0:
256,192,57510,1,8,0:0:0:0:
256,192,57630,1,0,0:0:0:0:
256,192,57870,1,8,0:0:0:0:
256,192,57990,1,8,0:0:0:0:
256,192,58110,1,0,0:0:0:0:
256,192,58170,1,0,0:0:0:0:
256,192,58230,1,0,0:0:0:0:
256,192,58350,1,8,0:0:0:0:
256,192,58590,1,0,0:0:0:0:
256,192,58830,1,8,0:0:0:0:
256,192,58950,1,0,0:0:0:0:
256,192,59070,1,0,0:0:0:0:
256,192,59190,1,8,0:0:0:0:
256,192,59310,1,0,0:0:0:0:
256,192,59550,1,0,0:0:0:0:
256,192,59670,1,0,0:0:0:0:
256,192,59790,1,8,0:0:0:0:
256,192,60030,1,8,0:0:0:0:
256,192,60150,1,8,0:0:0:0:
256,192,60270,1,0,0:0:0:0:
256,192,60510,1,8,0:0:0:0:
256,192,60750,1,8,0:0:0:0:
256,192,60870,1,8,0:0:0:0:
256,192,60990,1,0,0:0:0:0:
256,192,61110,1,8,0:0:0:0:
256,192,61230,1,0,0:0:0:0:
256,192,61470,1,8,0:0:0:0:
256,192,61950,1,0,0:0:0:0:
256,192,62430,1,8,0:0:0:0:
256,192,62550,1,0,0:0:0:0:
256,192,62670,1,8,0:0:0:0:
256,192,62790,1,0,0:0:0:0:
256,192,62910,1,8,0:0:0:0:
256,192,63150,1,0,0:0:0:0:
256,192,63390,1,8,0:0:0:0:
256,192,63510,1,0,0:0:0:0:
256,192,63630,1,8,0:0:0:0:
256,192,63750,1,8,0:0:0:0:
256,192,63870,1,0,0:0:0:0:
256,192,64110,1,8,0:0:0:0:
256,192,64350,1,0,0:0:0:0:
256,192,64470,1,0,0:0:0:0:
256,192,64590,1,8,0:0:0:0:
256,192,64710,1,0,0:0:0:0:
256,192,64830,1,8,0:0:0:0:
256,192,64950,1,8,0:0:0:0:
256,192,65070,1,0,0:0:0:0:
256,192,65310,1,8,0:0:0:0:
256,192,65370,1,8,0:0:0:0:
256,192,65430,1,8,0:0:0:0:
256,192,65550,1,0,0:0:0:0:
256,192,65670,1,0,0:0:0:0:
256,192,65790,1,8,0:0:0:0:
256,192,66030,1,0,0:0:0:0:
256,192,66750,12,0,76710,0:0:0:0:
256,192,77070,5,8,0:0:0:0:
256,192,77190,1,8,0:0:0:0:
256,192,77310,1,8,0:0:0:0:
256,192,77370,1,8,0:0:0:0:
256,192,77430,1,8,0:0:0:0:
256,192,77550,1,8,0:0:0:0:
256,192,77790,1,0,0:0:0:0:
256,192,78150,1,8,0:0:0:0:
256,192,78270,1,0,0:0:0:0:
256,192,78630,1,0,0:0:0:0:
256,192,78750,1,8,0:0:0:0:
256,192,78990,1,8,0:0:0:0:
256,192,79110,1,8,0:0:0:0:
256,192,79230,1,0,0:0:0:0:
256,192,79470,1,8,0:0:0:0:
256,192,79710,1,0,0:0:0:0:
256,192,80070,1,8,0:0:0:0:
256,192,80190,1,0,0:0:0:0:
256,192,80550,1,0,0:0:0:0:
256,192,80670,1,8,0:0:0:0:
256,192,80790,1,0,0:0:0:0:
256,192,80910,1,8,0:0:0:0:
256,192,81030,1,8,0:0:0:0:
256,192,81150,1,0,0:0:0:0:
256,192,81630,1,4,0:0:0:0:
256,192,82110,1,8,0:0:0:0:
256,192,82350,1,0,0:0:0:0:
256,192,82590,1,8,0:0:0:0:
256,192,82710,1,0,0:0:0:0:
256,192,82830,1,8,0:0:0:0:
256,192,82950,1,8,0:0:0:0:
256,192,83070,1,0,0:0:0:0:
256,192,83310,1,8,0:0:0:0:
256,192,83550,1,0,0:0:0:0:
256,192,83670,1,8,0:0:0:0:
256,192,83910,1,8,0:0:0:0:
256,192,84030,1,0,0:0:0:0:
256,192,84390,1,0,0:0:0:0:
256,192,84510,1,8,0:0:0:0:
256,192,84630,1,8,0:0:0:0:
256,192,84750,1,0,0:0:0:0:
256,192,84990,1,8,0:0:0:0:
256,192,85110,1,8,0:0:0:0:
256,192,85230,1,8,0:0:0:0:
256,192,85470,1,0,0:0:0:0:
256,192,85710,1,8,0:0:0:0:
256,192,85950,1,0,0:0:0:0:
256,192,86190,1,8,0:0:0:0:
256,192,86310,1,8,0:0:0:0:
256,192,86430,1,0,0:0:0:0:
256,192,86670,1,8,0:0:0:0:
256,192,86790,1,0,0:0:0:0:
256,192,86910,1,8,0:0:0:0:
256,192,87150,1,0,0:0:0:0:
256,192,87510,1,8,0:0:0:0:
256,192,87630,1,0,0:0:0:0:
256,192,87750,1,0,0:0:0:0:
256,192,87870,1,8,0:0:0:0:
256,192,88230,1,8,0:0:0:0:
256,192,88350,1,0,0:0:0:0:
256,192,88590,1,8,0:0:0:0:
256,192,88830,1,0,0:0:0:0:
256,192,88950,1,0,0:0:0:0:
256,192,89070,1,8,0:0:0:0:
256,192,89310,1,0,0:0:0:0:
256,192,89670,1,8,0:0:0:0:
256,192,89790,1,0,0:0:0:0:
256,192,90150,1,0,0:0:0:0:
256,192,90270,1,8,0:0:0:0:
256,192,90510,1,8,0:0:0:0:
256,192,90630,1,8,0:0:0:0:
256,192,90750,1,0,0:0:0:0:
256,192,90990,1,8,0:0:0:0:
256,192,91230,1,0,0:0:0:0:
256,192,91590,1,8,0:0:0:0:
256,192,91710,1,0,0:0:0:0:
256,192,92070,1,0,0:0:0:0:
256,192,92190,1,8,0:0:0:0:
256,192,92310,1,0,0:0:0:0:
256,192,92430,1,8,0:0:0:0:
256,192,92550,1,8,0:0:0:0:
256,192,92670,1,0,0:0:0:0:
256,192,93150,1,4,0:0:0:0:
256,192,93630,1,8,0:0:0:0:
256,192,93870,1,0,0:0:0:0:
256,192,94110,1,8,0:0:0:0:
256,192,94230,1,0,0:0:0:0:
256,192,94350,1,8,0:0:0:0:
256,192,94470,1,8,0:0:0:0:
256,192,94590,1,0,0:0:0:0:
256,192,94830,1,8,0:0:0:0:
256,192,95070,1,0,0:0:0:0:
256,192,95190,1,8,0:0:0:0:
256,192,95430,1,8,0:0:0:0:
256,192,95550,1,0,0:0:0:0:
256,192,95910,1,0,0:0:0:0:
256,192,96030,1,8,0:0:0:0:
256,192,96150,1,8,0:0:0:0:
256,192,96270,1,0,0:0:0:0:
256,192,96510,1,8,0:0:0:0:
256,192,96630,1,8,0:0:0:0:
256,192,96750,1,8,0:0:0:0:
256,192,96990,1,4,0:0:0:0:
256,192,97470,1,12,0:0:0:0:
256,192,97710,1,0,0:0:0:0:
256,192,97950,1,8,0:0:0:0:
256,192,98070,1,8,0:0:0:0:
256,192,98190,1,0,0:0:0:0:
256,192,98310,1,8,0:0:0:0:
256,192,98430,1,0,0:0:0:0:
256,192,98550,1,0,0:0:0:0:
256,192,98670,1,8,0:0:0:0:
256,192,98910,1,8,0:0:0:0:
256,192,99030,1,0,0:0:0:0:
256,192,99270,1,0,0:0:0:0:
256,192,99390,1,8,0:0:0:0:
256,192,99450,1,8,0:0:0:0:
256,192,99510,1,8,0:0:0:0:
256,192,99630,1,0,0:0:0:0:
256,192,99870,1,8,0:0:0:0:
256,192,100110,1,0,0:0:0:0:
256,192,100350,1,8,0:0:0:0:
256,192,100470,1,8,0:0:0:0:
256,192,100590,1,8,0:0:0:0:
256,192,100830,1,0,0:0:0:0:
256,192,101070,1,8,0:0:0:0:
256,192,101310,1,0,0:0:0:0:
256,192,101550,1,8,0:0:0:0:
256,192,101790,1,0,0:0:0:0:
256,192,102030,1,8,0:0:0:0:
256,192,102150,1,8,0:0:0:0:
256,192,102270,1,0,0:0:0:0:
256,192,102510,1,8,0:0:0:0:
256,192,102750,1,0,0:0:0:0:
256,192,102870,1,0,0:0:0:0:
256,192,102990,1,8,0:0:0:0:
256,192,103110,1,0,0:0:0:0:
256,192,103230,1,0,0:0:0:0:
256,192,103470,1,8,0:0:0:0:
256,192,103710,1,0,0:0:0:0:
256,192,103830,1,0,0:0:0:0:
256,192,103950,1,8,0:0:0:0:
256,192,104070,1,8,0:0:0:0:
256,192,104190,1,0,0:0:0:0:
256,192,104250,1,0,0:0:0:0:
256,192,104310,1,0,0:0:0:0:
256,192,104430,1,8,0:0:0:0:
