osu file format v14

[General]
AudioFilename: audio.mp3
AudioLeadIn: 0
PreviewTime: 35550
Countdown: 0
SampleSet: Normal
StackLeniency: 0
Mode: 1
LetterboxInBreaks: 0
WidescreenStoryboard: 1

[Editor]
Bookmarks: 4830,12510,50910,66270,77790
DistanceSpacing: 2
BeatDivisor: 2
GridSize: 32
TimelineZoom: 3.579999

[Metadata]
Title:Katyukusa
TitleUnicode:Катютрава
Artist:7_7
ArtistUnicode:7_7
Creator:Genjuro
Version:Kantan
Source:ガールズ&パンツァー
Tags:electronic russian anime カチューシャ Katyusha ノンナ Nonna 金元寿子 Kanemoto Hisako 上坂すみれ Uesaka Sumire Girls und Panzer
BeatmapID:2944443
BeatmapSetID:1430308

[Difficulty]
HPDrainRate:7
CircleSize:2
OverallDifficulty:3
ApproachRate:10
SliderMultiplier:1.2
SliderTickRate:1

[Events]
//Background and Video events
0,0,"bg.jpg",0,55
//Break Periods
//Storyboard Layer 0 (Background)
//Storyboard Layer 1 (Fail)
//Storyboard Layer 2 (Pass)
//Storyboard Layer 3 (Foreground)
//Storyboard Layer 4 (Overlay)
//Storyboard Sound Samples

[TimingPoints]
990,240,4,1,0,100,1,0
16350,-100,4,1,0,100,0,1
20190,-100,4,1,0,100,0,0
27870,-100,4,1,0,100,0,1
35550,-100,4,1,0,100,0,0
39390,-100,4,1,0,100,0,1
47070,-100,4,1,0,100,0,0
66750,-100,4,1,0,100,0,1
77070,-100,4,1,0,100,0,0
81630,-100,4,1,0,100,0,1
85470,-100,4,1,0,100,0,0
93150,-100,4,1,0,100,0,1
100830,-100,4,1,0,100,0,0

[HitObjects]
256,192,990,5,0,0:0:0:0:
256,192,1950,1,0,0:0:0:0:
256,192,2910,1,8,0:0:0:0:
256,192,3390,1,8,0:0:0:0:
256,192,3870,1,8,0:0:0:0:
256,192,4830,1,0,0:0:0:0:
256,192,5310,1,0,0:0:0:0:
256,192,5790,1,8,0:0:0:0:
256,192,6030,1,8,0:0:0:0:
256,192,6270,1,8,0:0:0:0:
256,192,6750,1,0,0:0:0:0:
256,192,7710,1,8,0:0:0:0:
256,192,8190,1,0,0:0:0:0:
256,192,8670,1,8,0:0:0:0:
256,192,9630,1,0,0:0:0:0:
256,192,10590,1,8,0:0:0:0:
256,192,11070,1,0,0:0:0:0:
256,192,11310,1,0,0:0:0:0:
256,192,11550,1,8,0:0:0:0:
256,192,12510,1,0,0:0:0:0:
256,192,12990,1,0,0:0:0:0:
256,192,13470,1,8,0:0:0:0:
256,192,14430,1,8,0:0:0:0:
256,192,14910,1,8,0:0:0:0:
256,192,15390,1,0,0:0:0:0:
256,192,16350,1,4,0:0:0:0:
256,192,16830,1,8,0:0:0:0:
256,192,17310,1,0,0:0:0:0:
256,192,17550,1,0,0:0:0:0:
256,192,17790,1,8,0:0:0:0:
256,192,18270,1,0,0:0:0:0:
256,192,18750,1,8,0:0:0:0:
256,192,19230,1,0,0:0:0:0:
256,192,20190,1,0,0:0:0:0:
256,192,20670,1,0,0:0:0:0:
256,192,21150,1,8,0:0:0:0:
256,192,21630,1,8,0:0:0:0:
256,192,22110,1,0,0:0:0:0:
256,192,23070,1,8,0:0:0:0:
256,192,24030,1,0,0:0:0:0:
256,192,24510,1,0,0:0:0:0:
256,192,24990,1,8,0:0:0:0:
256,192,25950,1,8,0:0:0:0:
256,192,26430,1,8,0:0:0:0:
256,192,26910,1,0,0:0:0:0:
256,192,27870,1,4,0:0:0:0:
256,192,28350,1,8,0:0:0:0:
256,192,28830,1,0,0:0:0:0:
256,192,29070,1,0,0:0:0:0:
256,192,29310,1,8,0:0:0:0:
256,192,29790,1,0,0:0:0:0:
256,192,30270,1,8,0:0:0:0:
256,192,30750,1,0,0:0:0:0:
256,192,31710,1,4,0:0:0:0:
256,192,32190,1,12,0:0:0:0:
256,192,32670,1,0,0:0:0:0:
256,192,32910,1,8,0:0:0:0:
256,192,33150,1,8,0:0:0:0:
256,192,33630,1,0,0:0:0:0:
256,192,34110,1,8,0:0:0:0:
256,192,34350,1,8,0:0:0:0:
256,192,34590,1,0,0:0:0:0:
256,192,35550,1,0,0:0:0:0:
256,192,36030,1,0,0:0:0:0:
256,192,36510,1,8,0:0:0:0:
256,192,37470,1,8,0:0:0:0:
256,192,37950,1,8,0:0:0:0:
256,192,38430,1,0,0:0:0:0:
256,192,39390,1,4,0:0:0:0:
256,192,39870,1,8,0:0:0:0:
256,192,40350,1,0,0:0:0:0:
256,192,40590,1,0,0:0:0:0:
256,192,40830,1,8,0:0:0:0:
256,192,41310,1,0,0:0:0:0:
256,192,41790,1,8,0:0:0:0:
256,192,42270,1,0,0:0:0:0:
256,192,43230,1,4,0:0:0:0:
256,192,43710,1,12,0:0:0:0:
256,192,44190,1,0,0:0:0:0:
256,192,44430,1,8,0:0:0:0:
256,192,44670,1,8,0:0:0:0:
256,192,45150,1,0,0:0:0:0:
256,192,45630,1,8,0:0:0:0:
256,192,45870,1,8,0:0:0:0:
256,192,46110,1,0,0:0:0:0:
256,192,47070,1,0,0:0:0:0:
256,192,48030,1,0,0:0:0:0:
256,192,48990,1,8,0:0:0:0:
256,192,49470,1,8,0:0:0:0:
256,192,49950,1,8,0:0:0:0:
256,192,50910,1,0,0:0:0:0:
256,192,51390,1,0,0:0:0:0:
256,192,51870,1,8,0:0:0:0:
256,192,52110,1,8,0:0:0:0:
256,192,52350,1,8,0:0:0:0:
256,192,52830,1,0,0:0:0:0:
256,192,53790,1,8,0:0:0:0:
256,192,54270,1,0,0:0:0:0:
256,192,54750,1,8,0:0:0:0:
256,192,55710,1,0,0:0:0:0:
256,192,56670,1,8,0:0:0:0:
256,192,57150,1,0,0:0:0:0:
256,192,57390,1,0,0:0:0:0:
256,192,57630,1,8,0:0:0:0:
256,192,58590,1,0,0:0:0:0:
256,192,59070,1,0,0:0:0:0:
256,192,59550,1,8,0:0:0:0:
256,192,59790,1,8,0:0:0:0:
256,192,60030,1,8,0:0:0:0:
256,192,60510,1,0,0:0:0:0:
256,192,61470,1,8,0:0:0:0:
256,192,61950,1,0,0:0:0:0:
256,192,62430,1,8,0:0:0:0:
256,192,63390,1,0,0:0:0:0:
256,192,64350,1,8,0:0:0:0:
256,192,64830,1,0,0:0:0:0:
256,192,65310,1,8,0:0:0:0:
256,192,65550,1,8,0:0:0:0:
256,192,65790,1,8,0:0:0:0:
256,192,66750,8,0,76710,0:0:0:0:
256,192,77070,5,8,0:0:0:0:
256,192,77310,1,8,0:0:0:0:
256,192,77790,1,0,0:0:0:0:
256,192,78270,1,0,0:0:0:0:
256,192,78750,1,8,0:0:0:0:
256,192,79710,1,8,0:0:0:0:
256,192,80190,1,8,0:0:0:0:
256,192,80670,1,0,0:0:0:0:
256,192,81630,1,4,0:0:0:0:
256,192,82110,1,8,0:0:0:0:
256,192,82590,1,0,0:0:0:0:
256,192,82830,1,0,0:0:0:0:
256,192,83070,1,8,0:0:0:0:
256,192,83550,1,0,0:0:0:0:
256,192,84030,1,8,0:0:0:0:
256,192,84510,1,0,0:0:0:0:
256,192,85470,1,0,0:0:0:0:
256,192,85950,1,0,0:0:0:0:
256,192,86430,1,8,0:0:0:0:
256,192,86910,1,8,0:0:0:0:
256,192,87390,1,0,0:0:0:0:
256,192,88350,1,8,0:0:0:0:
256,192,89310,1,0,0:0:0:0:
256,192,89790,1,0,0:0:0:0:
256,192,90270,1,8,0:0:0:0:
256,192,91230,1,8,0:0:0:0:
256,192,91710,1,8,0:0:0:0:
256,192,92190,1,0,0:0:0:0:
256,192,93150,1,4,0:0:0:0:
256,192,93630,1,8,0:0:0:0:
256,192,94110,1,0,0:0:0:0:
256,192,94350,1,0,0:0:0:0:
256,192,94590,1,8,0:0:0:0:
256,192,95070,1,0,0:0:0:0:
256,192,95550,1,8,0:0:0:0:
256,192,96030,1,0,0:0:0:0:
256,192,96990,1,4,0:0:0:0:
256,192,97470,1,12,0:0:0:0:
256,192,97950,1,0,0:0:0:0:
256,192,98190,1,8,0:0:0:0:
256,192,98430,1,8,0:0:0:0:
256,192,98910,1,0,0:0:0:0:
256,192,99390,1,8,0:0:0:0:
256,192,99630,1,8,0:0:0:0:
256,192,99870,1,0,0:0:0:0:
256,192,100830,1,0,0:0:0:0:
256,192,101310,1,0,0:0:0:0:
256,192,101790,1,8,0:0:0:0:
256,192,102750,1,8,0:0:0:0:
256,192,103230,1,8,0:0:0:0:
256,192,103710,1,0,0:0:0:0:
256,192,104190,1,8,0:0:0:0:
