osu file format v14

[General]
AudioFilename: audio.mp3
AudioLeadIn: 0
PreviewTime: 34647
Countdown: 0
SampleSet: Normal
StackLeniency: 0.7
Mode: 1
LetterboxInBreaks: 0
WidescreenStoryboard: 1

[Editor]
Bookmarks: 255,5397,7326,14183,27897,34754,41611,48468,55325,63040,71397,78468,85325,92183,102468,104183
DistanceSpacing: 0.9
BeatDivisor: 4
GridSize: 4
TimelineZoom: 3.099999

[Metadata]
Title:KUSODEKA HIBANA
TitleUnicode:クソデカヒバナ
Artist:7_7
ArtistUnicode:7_7
Creator:Undead Alice
Version:URA ONI
Source:
Tags:DECO*27 DECO 27 Hatsune Miku electronic japanese remix bootleg hardcore breakcore slim_san slim san vocaloid ヒバナ feat. 初音ミク Slim-san UndeadAlice Undead_Alice
BeatmapID:4224432
BeatmapSetID:2027273

[Difficulty]
HPDrainRate:5
CircleSize:5
OverallDifficulty:7
ApproachRate:5
SliderMultiplier:1.4
SliderTickRate:1

[Events]
//Background and Video events
0,0,"MOSHED-2023-7-15-23-44-30.jpg",0,0
//Break Periods
2,71825,76411
//Storyboard Layer 0 (Background)
//Storyboard Layer 1 (Fail)
//Storyboard Layer 2 (Pass)
//Storyboard Layer 3 (Foreground)
//Storyboard Layer 4 (Overlay)
//Storyboard Sound Samples

[TimingPoints]
255,214.285714285714,4,1,0,80,1,0
255,-142.85715,4,1,0,100,0,0
396,-137.94867,4,1,0,100,0,0
539,-133.33508,4,1,0,100,0,0
682,-129.02011,4,1,0,100,0,0
825,-124.97567,4,1,0,100,0,0
968,-121.177086,4,1,0,100,0,0
1111,-117.60261,4,1,0,100,0,0
1218,-115.06294,4,1,0,100,0,0
1271,-113.84517,4,1,0,100,0,0
1325,-112.630646,4,1,0,100,0,0
1378,-111.463554,4,1,0,100,0,0
1432,-110.29906,4,1,0,100,0,0
1539,-108.062035,4,1,0,100,0,0
1646,-105.91396,4,1,0,100,0,0
1700,-104.862,4,1,0,100,0,0
1753,-103.84963,4,1,0,100,0,0
1807,-102.83807,4,1,0,100,0,0
1861,-101.846016,4,1,0,100,0,0
1914,-101.57131,4,1,0,100,0,0
1968,-99.935776,4,1,0,100,0,0
2076,-80,4,1,0,100,0,0
2826,-95.2380952380952,4,1,0,100,0,0
2933,-66.6666666666667,4,1,0,100,0,0
3682,-90.90909,4,1,0,100,0,0
4003,-96.14694,4,1,0,100,0,0
4325,-102.0447,4,1,0,100,0,0
4539,-106.38157,4,1,0,100,0,0
4861,-113.64923,4,1,0,100,0,0
5182,-121.95492,4,1,0,100,0,0
5289,-125,4,1,0,100,0,0
7112,214.285714285714,4,1,0,80,1,8
7112,-95.2380952380952,4,1,0,100,0,8
7326,214.285714285714,4,1,0,80,1,0
7326,-95.2380952380952,4,1,0,100,0,1
12468,-95.2381,4,1,0,100,0,0
12574,-96.095085,4,1,0,100,0,0
12682,-96.97586,4,1,0,100,0,0
12789,-97.86456,4,1,0,100,0,0
12896,-98.76971,4,1,0,100,0,0
13003,-99.691734,4,1,0,100,0,0
13110,-100.63115,4,1,0,100,0,0
13164,-101.11199,4,1,0,100,0,0
13217,-101.58844,4,1,0,100,0,0
13271,-102.0785,4,1,0,100,0,0
13324,-102.5641,4,1,0,100,0,0
13432,-103.568085,4,1,0,100,0,0
13539,-104.58235,4,1,0,100,0,0
13592,-105.09213,4,1,0,100,0,0
13646,-105.61667,4,1,0,100,0,0
13699,-104.5668,4,1,0,100,0,0
13753,-106.67165,4,1,0,100,0,0
13860,-107.74793,4,1,0,100,0,0
13967,-108.846146,4,1,0,100,0,0
14182,-111.12193,4,1,0,100,0,0
26182,-111.12553,4,1,0,100,0,0
26289,-112.68831,4,1,0,100,0,0
26396,-114.29568,4,1,0,100,0,0
26503,-115.94957,4,1,0,100,0,0
26610,-117.652016,4,1,0,100,0,0
26717,-119.405205,4,1,0,100,0,0
26824,-121.21144,4,1,0,100,0,0
26932,-123.09083,4,1,0,100,0,0
27039,-125.011185,4,1,0,100,0,0
27146,-126.99241,4,1,0,100,0,0
27199,-127.9972,4,1,0,100,0,0
27253,-129.03743,4,1,0,100,0,0
27307,-130.09471,4,1,0,100,0,0
27360,-131.14941,4,1,0,100,0,0
27467,-133.33167,4,1,0,100,0,0
27521,-134.4608,4,1,0,100,0,0
27574,-135.58778,4,1,0,100,0,0
27628,-136.75562,4,1,0,100,0,0
27682,-137.94374,4,1,0,100,0,0
27896,-142.82643,4,1,0,100,0,0
28003,-141.52441,4,1,0,100,0,0
28646,-134.17406,4,1,0,100,0,0
28753,-133.02435,4,1,0,100,0,0
28860,-131.8942,4,1,0,100,0,0
29610,-124.48129,4,1,0,100,0,0
29717,-123.4911,4,1,0,100,0,0
30360,-117.8573,4,1,0,100,0,0
30467,-116.969315,4,1,0,100,0,0
30574,-116.09459,4,1,0,100,0,0
30682,-115.22488,4,1,0,100,0,0
30896,-113.539474,4,1,0,100,0,0
30949,-113.12965,4,1,0,100,0,0
31003,-112.71512,4,1,0,100,0,0
31057,-112.30363,4,1,0,100,0,0
31110,-111.90266,4,1,0,100,0,0
31217,-111.10182,4,1,0,100,0,0
31253,-110.71118,4,1,0,100,0,0
31271,-110.701996,4,1,0,100,0,0
31289,-110.31414,4,1,0,100,0,0
31324,-110.31237,4,1,0,100,0,0
31432,-109.52684,4,1,0,100,0,0
31539,-108.759514,4,1,0,100,0,0
31646,-108.00289,4,1,0,100,0,0
31753,-107.25672,4,1,0,100,0,0
31860,-106.52078,4,1,0,100,0,0
31967,-105.79488,4,1,0,100,0,0
32074,-105.07879,4,1,0,100,0,0
32182,-104.36578,4,1,0,100,0,0
32289,-103.66885,4,1,0,100,0,0
32396,-102.98118,4,1,0,100,0,0
32503,-102.30256,4,1,0,100,0,0
32610,-101.63283,4,1,0,100,0,0
32717,-100.9718,4,1,0,100,0,0
32824,-100.31932,4,1,0,100,0,0
32932,-99.66924,4,1,0,100,0,0
33039,-99.03344,4,1,0,100,0,0
33146,-98.40569,4,1,0,100,0,0
33253,-97.78586,4,1,0,100,0,0
33360,-97.173775,4,1,0,100,0,0
33467,-96.56931,4,1,0,100,0,0
33521,-96.267105,4,1,0,100,0,0
33574,-95.97233,4,1,0,100,0,0
33628,-95.673836,4,1,0,100,0,0
33682,-95.37719,4,1,0,100,0,0
33717,-88.82828,4,1,0,100,0,0
33735,-95.08784,4,1,0,100,0,0
33753,-88.57249,4,1,0,100,0,0
33789,-94.79481,4,1,0,100,0,0
33824,-88.07233,4,1,0,100,0,0
33860,-87.82088,4,1,0,100,0,0
33896,-94.2195,4,1,0,100,0,0
34003,-93.65112,4,1,0,100,0,0
34057,-93.36687,4,1,0,100,0,0
34110,-93.089554,4,1,0,100,0,0
34217,-92.5347,4,1,0,100,0,0
34271,-92.25717,4,1,0,100,0,0
34324,-91.986404,4,1,0,100,0,0
34378,-91.71215,4,1,0,100,0,0
34432,-91.439545,4,1,0,100,0,0
34485,-83.673355,4,1,0,100,0,0
34539,-90.90412,4,1,0,100,0,0
34754,-95.2380952380952,4,1,0,100,0,1
34861,-95.2380952380952,4,1,0,100,0,1
39897,-95.24717,4,1,0,100,0,0
40003,-96.22786,4,1,0,100,0,0
40110,-97.22898,4,1,0,100,0,0
40217,-98.25113,4,1,0,100,0,0
40271,-98.7752,4,1,0,100,0,0
40324,-99.29502,4,1,0,100,0,0
40432,-100.371376,4,1,0,100,0,0
40539,-101.461044,4,1,0,100,0,0
40592,-102.0096,4,1,0,100,0,0
40646,-102.57463,4,1,0,100,0,0
40699,-103.13532,4,1,0,100,0,0
40753,-103.71293,4,1,0,100,0,0
40860,-104.87678,4,1,0,100,0,0
40967,-106.06704,4,1,0,100,0,0
41021,-106.678055,4,1,0,100,0,0
41074,-107.28463,4,1,0,100,0,0
41128,-107.9098,4,1,0,100,0,0
41182,-108.54228,4,1,0,100,0,0
41235,-109.17031,4,1,0,100,0,0
41289,-109.81772,4,1,0,100,0,0
41396,-111.123474,4,1,0,100,0,0
41611,-95.2380952380952,4,1,0,100,0,1
47610,-95.24426,4,1,0,100,0,1
47717,-95.90944,4,1,0,100,0,1
47824,-96.58398,4,1,0,100,0,1
47878,-96.928,4,1,0,100,0,1
47932,-97.274506,4,1,0,100,0,1
47985,-97.617,4,1,0,100,0,1
48039,-97.96844,4,1,0,100,0,1
48092,-98.31585,4,1,0,100,0,1
48146,-98.67235,4,1,0,100,0,1
48199,-99.024765,4,1,0,100,0,1
48253,-99.38644,4,1,0,100,0,1
48289,-92.817184,4,1,0,100,0,1
48307,-99.75077,4,1,0,100,0,1
48324,-93.14076,4,1,0,100,0,1
48360,-100.110954,4,1,0,100,0,1
48396,-93.81355,4,1,0,100,0,1
48414,-100.48062,4,1,0,100,0,1
48432,-94.15362,4,1,0,100,0,1
48468,-100.84611,4,1,0,100,0,0
48682,-102.35641,4,1,0,100,0,0
48896,-103.90528,4,1,0,100,0,0
49110,-105.50176,4,1,0,100,0,0
49324,-107.14807,4,1,0,100,0,0
49539,-108.85462,4,1,0,100,0,0
49753,-110.60809,4,1,0,100,0,0
49967,-112.41898,4,1,0,100,0,0
50182,-114.29904,4,1,0,100,0,0
50396,-116.233864,4,1,0,100,0,0
50610,-118.23532,4,1,0,100,0,0
50824,-120.3069,4,1,0,100,0,0
51039,-122.462585,4,1,0,100,0,0
51253,-124.68635,4,1,0,100,0,0
51467,-126.99235,4,1,0,100,0,0
51682,-129.39667,4,1,0,100,0,0
51896,-131.88193,4,1,0,100,0,0
52110,-134.46454,4,1,0,100,0,0
52324,-137.15031,4,1,0,100,0,0
52539,-139.9589,4,1,0,100,0,0
52753,-142.83331,4,1,0,100,0,0
52860,-140.33076,4,1,0,100,0,0
52967,-137.91437,4,1,0,100,0,0
53074,-135.5798,4,1,0,100,0,0
53182,-133.30222,4,1,0,100,0,0
53289,-131.11995,4,1,0,100,0,0
53396,-129.00798,4,1,0,100,0,0
53503,-126.962975,4,1,0,100,0,0
53610,-124.98177,4,1,0,100,0,0
53664,-124.00521,4,1,0,100,0,0
53717,-123.06147,4,1,0,100,0,0
53771,-122.11456,4,1,0,100,0,0
53824,-121.19927,4,1,0,100,0,0
53878,-125.48503,4,1,0,100,0,0
53932,-119.37597,4,1,0,100,0,0
53985,-122.60372,4,1,0,100,0,0
54039,-117.622856,4,1,0,100,0,0
54092,-116.773415,4,1,0,100,0,0
54146,-115.92047,4,1,0,100,0,0
54199,-115.09537,4,1,0,100,0,0
54253,-114.26668,4,1,0,100,0,0
54307,-113.44984,4,1,0,100,0,0
54360,-112.6594,4,1,0,100,0,0
54414,-111.8653,4,1,0,100,0,0
54467,-111.096725,4,1,0,100,0,0
54896,-90.92312,4,1,0,100,0,0
55003,-92.44884,4,1,0,100,0,0
55110,-94.02665,4,1,0,100,0,0
55217,-95.65923,4,1,0,100,0,0
55253,-96.22135,4,1,0,100,0,0
55289,-96.7901,4,1,0,100,0,0
55324,-97.34953,4,1,0,100,0,0
55539,-100.93315,4,1,0,100,0,0
55753,-104.77207,4,1,0,100,0,0
61110,-104.77207,4,1,0,100,0,0
61324,-107.44899,4,1,0,100,0,0
61539,-110.2798,4,1,0,100,0,0
61646,-111.74494,4,1,0,100,0,0
61753,-113.24955,4,1,0,100,0,0
61860,-114.79523,4,1,0,100,0,0
61967,-116.383675,4,1,0,100,0,0
62074,-118.0167,4,1,0,100,0,0
62503,-125.0517,4,1,0,100,0,0
63039,-142.84746,4,1,0,100,0,0
63146,-141.81868,4,1,0,100,0,0
63789,-135.93549,4,1,0,100,0,0
63896,-135.00352,4,1,0,100,0,0
64003,-134.08426,4,1,0,100,0,0
64753,-127.9762,4,1,0,100,0,0
64860,-127.14984,4,1,0,100,0,0
65503,-122.40038,4,1,0,100,0,0
65610,-121.64426,4,1,0,100,0,0
65717,-120.897415,4,1,0,100,0,0
65824,-120.15969,4,1,0,100,0,0
66039,-118.70423,4,1,0,100,0,0
66092,-118.350845,4,1,0,100,0,0
66146,-117.99295,4,1,0,100,0,0
66199,-117.64379,4,1,0,100,0,0
66253,-117.290146,4,1,0,100,0,0
66360,-116.59566,4,1,0,100,0,0
66396,-115.53436,4,1,0,100,0,0
66414,-116.24828,4,1,0,100,0,0
66432,-115.1555,4,1,0,100,0,0
66467,-115.909355,4,1,0,100,0,0
66574,-115.23107,4,1,0,100,0,0
66682,-114.55446,4,1,0,100,0,0
66789,-113.89191,4,1,0,100,0,0
66896,-113.23696,4,1,0,100,0,0
67003,-112.589516,4,1,0,100,0,0
67110,-111.94942,4,1,0,100,0,0
67217,-111.316574,4,1,0,100,0,0
67324,-110.69084,4,1,0,100,0,0
67432,-110.06635,4,1,0,100,0,0
67539,-109.45455,4,1,0,100,0,0
67646,-108.84951,4,1,0,100,0,0
67753,-108.251144,4,1,0,100,0,0
67860,-107.6593,4,1,0,100,0,0
67967,-107.0739,4,1,0,100,0,0
68074,-106.494835,4,1,0,100,0,0
68182,-105.916664,4,1,0,100,0,0
68289,-105.35001,4,1,0,100,0,0
68396,-104.78938,4,1,0,100,0,0
68503,-104.234695,4,1,0,100,0,0
68610,-103.68585,4,1,0,100,0,0
68664,-103.41106,4,1,0,100,0,0
68717,-103.14275,4,1,0,100,0,0
68771,-102.87082,4,1,0,100,0,0
68824,-102.60532,4,1,0,100,0,0
68860,-94.29966,4,1,0,100,0,0
68878,-102.33621,4,1,0,100,0,0
68896,-94.04712,4,1,0,100,0,0
68932,-102.068504,4,1,0,100,0,0
69039,-101.54218,4,1,0,100,0,0
69146,-101.02125,4,1,0,100,0,0
69199,-100.7652,4,1,0,100,0,0
69253,-100.50564,4,1,0,100,0,0
69360,-99.99527,4,1,0,100,0,0
71397,-83.3333376111115,4,1,0,100,0,0
71611,-100.00000616,4,1,0,100,0,0
71665,-142.857155428572,4,1,0,30,0,0
77610,-111.168686,4,1,0,100,0,0
78039,-125.0658,4,1,0,100,0,0
78146,-129.09079,4,1,0,100,0,0
78199,-131.18196,4,1,0,100,0,0
78253,-133.38347,4,1,0,100,0,0
78307,-135.6601,4,1,0,100,0,0
78360,-137.97144,4,1,0,100,0,0
78414,-140.4088,4,1,0,100,0,0
78467,-142.87398,4,1,0,100,0,0
78574,-141.57033,4,1,0,100,0,0
79324,-133.06026,4,1,0,100,0,0
79432,-131.91837,4,1,0,100,0,0
80182,-124.498726,4,1,0,100,0,0
80289,-123.50769,4,1,0,100,0,0
81039,-116.9806,4,1,0,100,0,0
81146,-116.10521,4,1,0,100,0,0
81467,-113.55594,4,1,0,100,0,0
81574,-112.73087,4,1,0,100,0,0
81682,-111.910164,4,1,0,100,0,0
81789,-111.108765,4,1,0,100,0,0
81896,-110.318756,4,1,0,100,0,0
82003,-109.539894,4,1,0,100,0,0
82110,-108.771965,4,1,0,100,0,0
82217,-108.01473,4,1,0,100,0,0
82324,-107.26795,4,1,0,100,0,0
82432,-106.524605,4,1,0,100,0,0
82539,-105.798225,4,1,0,100,0,0
82646,-105.08168,4,1,0,100,0,0
82753,-104.37478,4,1,0,100,0,0
82860,-103.67734,4,1,0,100,0,0
82967,-102.989136,4,1,0,100,0,0
83074,-102.31002,4,1,0,100,0,0
83182,-101.63358,4,1,0,100,0,0
83289,-100.97217,4,1,0,100,0,0
83396,-100.31932,4,1,0,100,0,0
83503,-99.67484,4,1,0,100,0,0
83610,-99.03859,4,1,0,100,0,0
83717,-98.41042,4,1,0,100,0,0
83824,-97.79017,4,1,0,100,0,0
83932,-97.172,4,1,0,100,0,0
84039,-96.5672,4,1,0,100,0,0
84092,-96.27041,4,1,0,100,0,0
84146,-95.96989,4,1,0,100,0,0
84199,-95.67676,4,1,0,100,0,0
84253,-95.37994,4,1,0,100,0,0
84307,-95.08494,4,1,0,100,0,0
84360,-94.797165,4,1,0,100,0,0
84414,-87.93943,4,1,0,100,0,0
84467,-94.22149,4,1,0,100,0,0
84503,-87.322235,4,1,0,100,0,0
84521,-93.9336,4,1,0,100,0,0
84539,-87.07505,4,1,0,100,0,0
84574,-93.65277,4,1,0,100,0,0
84628,-93.36835,4,1,0,100,0,0
84682,-93.08564,4,1,0,100,0,0
84717,-85.87307,4,1,0,100,0,0
84735,-92.80983,4,1,0,100,0,0
84753,-85.63401,4,1,0,100,0,0
84789,-92.5305,4,1,0,100,0,0
84842,-92.257965,4,1,0,100,0,0
84896,-91.98194,4,1,0,100,0,0
84932,-84.46479,4,1,0,100,0,0
84949,-91.71263,4,1,0,100,0,0
84967,-84.23989,4,1,0,100,0,0
85003,-91.43985,4,1,0,100,0,0
85110,-90.90411,4,1,0,100,0,0
85325,-95.2380952380952,4,1,0,100,0,1
85433,-95.2380952380952,4,1,0,100,0,1
90468,-95.24717,4,1,0,100,0,0
90574,-96.22786,4,1,0,100,0,0
90682,-97.238434,4,1,0,100,0,0
90789,-98.26079,4,1,0,100,0,0
90842,-98.775185,4,1,0,100,0,0
90896,-99.30487,4,1,0,100,0,0
91003,-100.37137,4,1,0,100,0,0
91110,-101.46104,4,1,0,100,0,0
91164,-102.02,4,1,0,100,0,0
91217,-102.574615,4,1,0,100,0,0
91271,-103.14594,4,1,0,100,0,0
91324,-103.71292,4,1,0,100,0,0
91432,-104.88777,4,1,0,100,0,0
91485,-103.70574,4,1,0,100,0,0
91539,-106.07828,4,1,0,100,0,0
91592,-106.67804,4,1,0,100,0,0
91646,-107.29613,4,1,0,100,0,0
91699,-107.90978,4,1,0,100,0,0
91753,-108.542274,4,1,0,100,0,0
91807,-109.18221,4,1,0,100,0,0
91860,-109.817696,4,1,0,100,0,0
91914,-110.245476,4,1,0,100,0,0
91967,-111.12345,4,1,0,100,0,0
92183,-95.2380952380952,4,1,0,100,0,1
102467,-95.23016,4,1,0,100,0,1
102682,-93.55577,4,1,0,100,0,1
102896,-91.94664,4,1,0,100,0,1
103110,-90.39192,4,1,0,100,0,1
103164,-90.00787,4,1,0,100,0,1
103217,-89.6341,4,1,0,100,0,1
103324,-88.8889,4,1,0,100,0,1
103539,-87.42836,4,1,0,100,0,1
103753,-86.02152,4,1,0,100,0,1
103967,-84.65923,4,1,0,100,0,1
104183,-83.33334,4,1,0,100,0,0
104289,-90.92011,4,1,0,100,0,0
104396,-92.11497,4,1,0,100,0,0
104503,-93.341644,4,1,0,100,0,0
104610,-94.601425,4,1,0,100,0,0
104717,-95.89568,4,1,0,100,0,0
104824,-97.22583,4,1,0,100,0,0
104878,-97.91124,4,1,0,100,0,0
104932,-98.606384,4,1,0,100,0,0
105039,-100.01335,4,1,0,100,0,0
105253,-102.951294,4,1,0,100,0,0
105307,-103.720116,4,1,0,100,0,0
105360,-104.48595,4,1,0,100,0,0
105414,-105.277954,4,1,0,100,0,0
105467,-106.067055,4,1,0,100,0,0
105521,-106.8833,4,1,0,100,0,0
105574,-107.69674,4,1,0,100,0,0
105628,-108.53838,4,1,0,100,0,0
105682,-109.39326,4,1,0,100,0,0
105717,-99.04916,4,1,0,100,0,0
105735,-110.24551,4,1,0,100,0,0
105753,-99.52232,4,1,0,100,0,0
105789,-111.12761,4,1,0,100,0,0

[HitObjects]
324,185,255,5,4,0:0:0:0:
324,185,397,1,4,0:0:0:0:
324,185,540,1,4,0:0:0:0:
324,185,683,1,4,0:0:0:0:
324,185,826,1,4,0:0:0:0:
324,185,969,1,4,0:0:0:0:
324,185,1112,1,4,0:0:0:0:
268,239,1219,1,8,0:0:0:0:
268,239,1272,1,8,0:0:0:0:
268,239,1326,1,0,0:0:0:0:
268,239,1379,1,0,0:0:0:0:
268,239,1433,1,0,0:0:0:0:
422,255,1540,1,12,0:0:0:0:
427,278,1647,1,0,0:0:0:0:
427,278,1701,1,0,0:0:0:0:
427,278,1754,1,8,0:0:0:0:
427,278,1808,1,8,0:0:0:0:
427,278,1862,1,8,0:0:0:0:
422,255,1969,1,4,0:0:0:0:
256,192,2076,12,0,2719,0:0:0:0:
248,233,2826,5,4,0:0:0:0:
256,192,2933,12,0,3576,0:0:0:0:
398,241,3683,5,4,0:0:0:0:
335,213,4004,1,4,0:0:0:0:
358,245,4326,1,4,0:0:0:0:
402,260,4540,1,4,0:0:0:0:
327,213,4862,1,4,0:0:0:0:
447,283,5183,1,4,0:0:0:0:
396,212,5290,1,8,0:0:0:0:
285,190,7112,1,12,0:0:0:0:
288,203,7326,1,0,0:0:0:0:
427,287,7433,1,0,0:0:0:0:
427,287,7540,1,8,0:0:0:0:
427,287,7593,1,8,0:0:0:0:
427,287,7647,1,0,0:0:0:0:
424,257,7754,1,0,0:0:0:0:
424,257,7861,1,8,0:0:0:0:
424,257,7915,1,8,0:0:0:0:
424,257,7968,1,0,0:0:0:0:
429,258,8075,1,8,0:0:0:0:
429,258,8183,1,0,0:0:0:0:
429,257,8236,1,0,0:0:0:0:
429,257,8290,1,0,0:0:0:0:
429,257,8343,1,0,0:0:0:0:
429,258,8397,1,8,0:0:0:0:
411,273,8504,1,0,0:0:0:0:
449,316,8558,1,0,0:0:0:0:
448,284,8611,1,8,0:0:0:0:
448,284,8665,1,8,0:0:0:0:
448,284,8718,1,0,0:0:0:0:
425,269,8825,1,8,0:0:0:0:
503,136,8879,1,8,0:0:0:0:
503,136,8933,1,8,0:0:0:0:
503,136,8986,1,8,0:0:0:0:
433,312,9040,1,0,0:0:0:0:
427,282,9147,1,8,0:0:0:0:
427,282,9254,1,8,0:0:0:0:
427,282,9361,1,0,0:0:0:0:
427,282,9468,1,8,0:0:0:0:
199,121,9522,1,0,0:0:0:0:
199,121,9575,1,8,0:0:0:0:
419,248,9683,1,0,0:0:0:0:
450,312,9790,1,8,0:0:0:0:
450,312,9843,1,8,0:0:0:0:
450,312,9897,1,0,0:0:0:0:
459,311,9950,1,8,0:0:0:0:
435,264,10004,1,0,0:0:0:0:
356,227,10058,1,0,0:0:0:0:
435,264,10111,1,8,0:0:0:0:
448,294,10218,1,0,0:0:0:0:
448,294,10272,1,0,0:0:0:0:
454,328,10325,1,0,0:0:0:0:
454,328,10379,1,0,0:0:0:0:
454,328,10433,1,8,0:0:0:0:
427,198,10540,1,0,0:0:0:0:
496,162,10647,1,8,0:0:0:0:
496,162,10700,1,0,0:0:0:0:
437,295,10754,1,8,0:0:0:0:
445,288,10808,1,8,0:0:0:0:
445,288,10861,1,0,0:0:0:0:
445,288,10915,1,0,0:0:0:0:
445,288,10968,1,8,0:0:0:0:
445,288,11075,1,0,0:0:0:0:
446,300,11183,1,0,0:0:0:0:
443,303,11290,1,8,0:0:0:0:
446,300,11343,1,8,0:0:0:0:
446,300,11397,1,0,0:0:0:0:
450,289,11504,1,8,0:0:0:0:
443,303,11611,1,0,0:0:0:0:
450,289,11665,1,8,0:0:0:0:
450,289,11718,1,0,0:0:0:0:
450,289,11772,1,0,0:0:0:0:
450,290,11825,1,8,0:0:0:0:
451,315,11933,1,0,0:0:0:0:
451,315,11986,1,0,0:0:0:0:
451,315,12040,1,8,0:0:0:0:
454,295,12147,1,0,0:0:0:0:
454,295,12254,1,8,0:0:0:0:
480,169,12308,1,8,0:0:0:0:
480,169,12361,1,8,0:0:0:0:
480,169,12415,1,8,0:0:0:0:
432,268,12468,1,0,0:0:0:0:
442,280,12575,1,0,0:0:0:0:
442,280,12683,1,8,0:0:0:0:
440,304,12790,1,8,0:0:0:0:
440,304,12897,1,0,0:0:0:0:
445,290,13004,1,0,0:0:0:0:
417,267,13111,1,8,0:0:0:0:
417,267,13165,1,0,0:0:0:0:
417,267,13218,1,8,0:0:0:0:
417,267,13272,1,8,0:0:0:0:
417,267,13325,1,0,0:0:0:0:
450,295,13433,1,8,0:0:0:0:
450,295,13540,1,0,0:0:0:0:
443,291,13593,1,0,0:0:0:0:
443,291,13647,1,8,0:0:0:0:
450,295,13754,1,0,0:0:0:0:
450,295,13861,1,0,0:0:0:0:
371,260,13968,1,12,0:0:0:0:
262,186,14183,1,0,0:0:0:0:
264,243,14290,1,8,0:0:0:0:
235,218,14397,1,0,0:0:0:0:
264,243,14504,1,8,0:0:0:0:
434,273,14558,1,8,0:0:0:0:
235,218,14611,1,0,0:0:0:0:
421,277,14665,1,0,0:0:0:0:
264,243,14718,1,8,0:0:0:0:
235,218,14825,1,0,0:0:0:0:
264,243,14933,1,8,0:0:0:0:
421,233,14986,1,8,0:0:0:0:
235,218,15040,1,0,0:0:0:0:
357,270,15147,1,8,0:0:0:0:
442,292,15200,1,8,0:0:0:0:
235,218,15254,1,0,0:0:0:0:
357,270,15361,1,8,0:0:0:0:
244,202,15468,1,8,0:0:0:0:
357,270,15575,1,0,0:0:0:0:
235,218,15683,1,8,0:0:0:0:
405,243,15736,1,0,0:0:0:0:
357,270,15790,1,8,0:0:0:0:
405,243,15843,1,8,0:0:0:0:
316,221,15897,1,0,0:0:0:0:
357,270,16004,1,0,0:0:0:0:
316,221,16111,1,8,0:0:0:0:
357,270,16218,1,8,0:0:0:0:
427,293,16325,1,0,0:0:0:0:
427,293,16379,1,0,0:0:0:0:
357,270,16433,1,0,0:0:0:0:
323,273,16540,1,8,0:0:0:0:
421,183,16647,1,0,0:0:0:0:
432,328,16700,1,0,0:0:0:0:
323,273,16754,1,8,0:0:0:0:
357,270,16861,1,0,0:0:0:0:
424,297,16915,1,0,0:0:0:0:
323,273,16968,1,8,0:0:0:0:
357,270,17075,1,0,0:0:0:0:
323,273,17183,1,8,0:0:0:0:
357,270,17290,1,8,0:0:0:0:
323,273,17397,1,0,0:0:0:0:
357,270,17504,1,0,0:0:0:0:
323,273,17611,1,8,0:0:0:0:
323,273,17825,1,0,0:0:0:0:
357,270,17933,1,8,0:0:0:0:
323,273,18040,1,0,0:0:0:0:
451,310,18093,1,0,0:0:0:0:
451,310,18147,1,8,0:0:0:0:
323,273,18254,1,0,0:0:0:0:
451,310,18361,1,8,0:0:0:0:
446,277,18415,1,8,0:0:0:0:
323,273,18468,1,8,0:0:0:0:
449,309,18575,1,0,0:0:0:0:
446,277,18629,1,0,0:0:0:0:
323,273,18683,1,0,0:0:0:0:
445,317,18790,1,8,0:0:0:0:
323,273,18897,1,8,0:0:0:0:
428,263,19004,1,0,0:0:0:0:
428,256,19058,1,0,0:0:0:0:
323,273,19111,1,8,0:0:0:0:
428,256,19165,1,8,0:0:0:0:
428,256,19218,1,0,0:0:0:0:
323,273,19325,1,8,0:0:0:0:
412,287,19433,1,0,0:0:0:0:
323,273,19540,1,8,0:0:0:0:
400,247,19593,1,8,0:0:0:0:
437,288,19647,1,0,0:0:0:0:
323,273,19754,1,8,0:0:0:0:
440,274,19861,1,8,0:0:0:0:
323,273,19968,1,0,0:0:0:0:
323,273,20183,1,8,0:0:0:0:
392,252,20290,1,0,0:0:0:0:
323,273,20397,1,8,0:0:0:0:
454,313,20450,1,8,0:0:0:0:
466,304,20504,1,8,0:0:0:0:
434,296,20611,1,0,0:0:0:0:
434,296,20665,1,0,0:0:0:0:
434,296,20718,1,0,0:0:0:0:
323,273,20825,1,8,0:0:0:0:
455,338,20879,1,8,0:0:0:0:
394,280,20933,1,8,0:0:0:0:
431,145,20986,1,8,0:0:0:0:
323,273,21040,1,0,0:0:0:0:
422,268,21147,1,0,0:0:0:0:
323,273,21254,1,8,0:0:0:0:
200,224,21361,1,0,0:0:0:0:
448,282,21415,1,0,0:0:0:0:
323,273,21468,1,8,0:0:0:0:
206,229,21575,1,0,0:0:0:0:
323,273,21683,1,0,0:0:0:0:
320,226,21790,1,8,0:0:0:0:
312,215,21843,1,8,0:0:0:0:
323,273,21897,1,0,0:0:0:0:
206,229,22004,1,8,0:0:0:0:
419,269,22058,1,8,0:0:0:0:
274,224,22111,1,0,0:0:0:0:
206,229,22218,1,8,0:0:0:0:
274,224,22325,1,8,0:0:0:0:
206,229,22433,1,0,0:0:0:0:
274,224,22540,1,8,0:0:0:0:
433,280,22593,1,8,0:0:0:0:
206,229,22647,1,0,0:0:0:0:
433,280,22700,1,0,0:0:0:0:
274,224,22754,1,8,0:0:0:0:
206,229,22861,1,0,0:0:0:0:
274,224,22968,1,8,0:0:0:0:
424,262,23022,1,8,0:0:0:0:
424,262,23075,1,0,0:0:0:0:
274,224,23183,1,8,0:0:0:0:
206,229,23290,1,0,0:0:0:0:
274,224,23397,1,8,0:0:0:0:
437,312,23504,1,0,0:0:0:0:
442,267,23558,1,0,0:0:0:0:
274,224,23611,1,8,0:0:0:0:
206,229,23718,1,0,0:0:0:0:
413,295,23772,1,0,0:0:0:0:
413,295,23825,1,8,0:0:0:0:
206,229,23933,1,0,0:0:0:0:
274,224,24040,1,8,0:0:0:0:
274,199,24147,1,8,0:0:0:0:
274,224,24254,1,0,0:0:0:0:
274,199,24361,1,8,0:0:0:0:
274,224,24468,1,0,0:0:0:0:
441,301,24522,1,0,0:0:0:0:
406,290,24575,1,0,0:0:0:0:
490,62,24629,1,0,0:0:0:0:
274,224,24683,1,8,0:0:0:0:
274,199,24790,1,0,0:0:0:0:
274,224,24897,1,0,0:0:0:0:
453,245,24950,1,0,0:0:0:0:
274,199,25004,1,8,0:0:0:0:
274,224,25111,1,0,0:0:0:0:
274,199,25218,1,8,0:0:0:0:
441,308,25272,1,8,0:0:0:0:
274,224,25325,1,8,0:0:0:0:
420,284,25433,1,0,0:0:0:0:
334,236,25486,1,0,0:0:0:0:
373,268,25540,1,0,0:0:0:0:
325,218,25647,1,8,0:0:0:0:
373,268,25754,1,8,0:0:0:0:
325,218,25861,1,0,0:0:0:0:
373,268,25968,1,8,0:0:0:0:
308,227,26183,1,0,0:0:0:0:
308,227,26290,1,0,0:0:0:0:
308,227,26397,1,8,0:0:0:0:
308,227,26504,1,8,0:0:0:0:
308,227,26611,1,0,0:0:0:0:
308,227,26718,1,0,0:0:0:0:
308,227,26825,1,8,0:0:0:0:
308,227,26933,1,8,0:0:0:0:
308,227,27040,1,0,0:0:0:0:
461,311,27147,1,8,0:0:0:0:
461,311,27200,1,8,0:0:0:0:
461,311,27254,1,0,0:0:0:0:
424,269,27308,1,0,0:0:0:0:
424,269,27361,1,8,0:0:0:0:
424,269,27468,1,0,0:0:0:0:
444,302,27522,1,0,0:0:0:0:
444,302,27575,1,8,0:0:0:0:
444,302,27629,1,0,0:0:0:0:
444,302,27683,1,8,0:0:0:0:
290,165,27897,1,4,0:0:0:0:
409,283,28004,1,8,0:0:0:0:
444,288,28647,1,4,0:0:0:0:
452,283,28754,1,8,0:0:0:0:
444,288,28861,1,4,0:0:0:0:
431,248,29611,1,4,0:0:0:0:
431,248,29718,1,8,0:0:0:0:
448,274,30361,1,4,0:0:0:0:
448,274,30468,1,8,0:0:0:0:
448,274,30575,1,4,0:0:0:0:
440,306,30683,1,8,0:0:0:0:
423,286,30897,1,0,0:0:0:0:
423,286,30950,1,0,0:0:0:0:
423,286,31004,1,8,0:0:0:0:
423,286,31058,1,8,0:0:0:0:
423,286,31111,1,0,0:0:0:0:
426,256,31218,1,8,0:0:0:0:
469,199,31272,1,8,0:0:0:0:
469,199,31325,1,0,0:0:0:0:
420,176,31433,1,8,0:0:0:0:
406,244,31540,1,0,0:0:0:0:
420,176,31647,1,8,0:0:0:0:
406,244,31754,1,8,0:0:0:0:
420,176,31861,1,0,0:0:0:0:
406,244,31968,1,8,0:0:0:0:
420,176,32075,1,0,0:0:0:0:
389,226,32183,1,8,0:0:0:0:
420,176,32290,1,8,0:0:0:0:
389,226,32397,1,0,0:0:0:0:
420,176,32504,1,0,0:0:0:0:
389,226,32611,1,8,0:0:0:0:
420,176,32718,1,0,0:0:0:0:
389,226,32825,1,0,0:0:0:0:
334,198,32933,1,0,0:0:0:0:
321,253,33040,1,8,0:0:0:0:
321,253,33147,1,8,0:0:0:0:
321,253,33254,1,0,0:0:0:0:
317,246,33361,1,0,0:0:0:0:
404,235,33468,1,8,0:0:0:0:
404,235,33522,1,8,0:0:0:0:
404,235,33575,1,0,0:0:0:0:
404,235,33629,1,0,0:0:0:0:
404,235,33683,1,8,0:0:0:0:
374,221,33736,1,0,0:0:0:0:
374,221,33790,1,8,0:0:0:0:
415,252,33897,1,0,0:0:0:0:
414,266,34004,1,8,0:0:0:0:
414,266,34058,1,0,0:0:0:0:
414,266,34111,1,8,0:0:0:0:
370,222,34218,1,0,0:0:0:0:
370,222,34272,1,0,0:0:0:0:
370,222,34325,1,8,0:0:0:0:
370,222,34379,1,8,0:0:0:0:
370,222,34433,1,0,0:0:0:0:
337,209,34540,1,12,0:0:0:0:
416,257,34754,1,4,0:0:0:0:
448,271,34861,1,8,0:0:0:0:
455,271,34968,1,0,0:0:0:0:
455,271,35022,1,0,0:0:0:0:
455,271,35075,1,8,0:0:0:0:
448,268,35183,1,0,0:0:0:0:
448,268,35290,1,8,0:0:0:0:
449,272,35343,1,8,0:0:0:0:
449,272,35397,1,0,0:0:0:0:
431,249,35504,1,0,0:0:0:0:
443,290,35611,1,8,0:0:0:0:
444,291,35665,1,8,0:0:0:0:
447,306,35718,1,0,0:0:0:0:
447,306,35772,1,0,0:0:0:0:
447,306,35825,1,8,0:0:0:0:
270,236,35879,1,0,0:0:0:0:
457,277,35933,1,0,0:0:0:0:
457,277,35986,1,0,0:0:0:0:
457,277,36040,1,8,0:0:0:0:
450,294,36147,1,0,0:0:0:0:
450,294,36254,1,8,0:0:0:0:
450,294,36361,1,0,0:0:0:0:
451,292,36468,1,8,0:0:0:0:
437,258,36522,1,8,0:0:0:0:
437,258,36575,1,8,0:0:0:0:
437,258,36629,1,8,0:0:0:0:
437,258,36683,1,0,0:0:0:0:
445,296,36790,1,8,0:0:0:0:
445,296,36843,1,8,0:0:0:0:
445,296,36897,1,0,0:0:0:0:
445,296,36950,1,0,0:0:0:0:
445,296,37004,1,8,0:0:0:0:
445,296,37111,1,0,0:0:0:0:
449,303,37218,1,0,0:0:0:0:
448,307,37325,1,8,0:0:0:0:
448,307,37379,1,8,0:0:0:0:
450,310,37433,1,0,0:0:0:0:
450,310,37486,1,0,0:0:0:0:
450,310,37540,1,8,0:0:0:0:
315,260,37593,1,8,0:0:0:0:
453,289,37647,1,0,0:0:0:0:
453,289,37700,1,0,0:0:0:0:
453,289,37754,1,8,0:0:0:0:
453,289,37861,1,0,0:0:0:0:
436,264,37968,1,8,0:0:0:0:
352,217,38022,1,8,0:0:0:0:
436,264,38075,1,0,0:0:0:0:
352,217,38129,1,8,0:0:0:0:
453,289,38183,1,0,0:0:0:0:
443,287,38236,1,0,0:0:0:0:
443,287,38290,1,8,0:0:0:0:
443,287,38397,1,0,0:0:0:0:
448,304,38450,1,0,0:0:0:0:
448,304,38504,1,8,0:0:0:0:
425,268,38611,1,0,0:0:0:0:
425,268,38665,1,0,0:0:0:0:
425,268,38772,1,8,0:0:0:0:
425,268,38825,1,8,0:0:0:0:
475,133,38933,1,0,0:0:0:0:
475,133,38986,1,0,0:0:0:0:
437,300,39040,1,0,0:0:0:0:
437,300,39093,1,0,0:0:0:0:
437,300,39147,1,8,0:0:0:0:
437,300,39254,1,0,0:0:0:0:
442,261,39361,1,8,0:0:0:0:
442,261,39415,1,8,0:0:0:0:
442,261,39468,1,0,0:0:0:0:
442,261,39522,1,8,0:0:0:0:
442,261,39575,1,0,0:0:0:0:
448,298,39629,1,0,0:0:0:0:
362,195,39683,1,8,0:0:0:0:
487,107,39736,1,8,0:0:0:0:
487,107,39790,1,8,0:0:0:0:
487,107,39843,1,8,0:0:0:0:
416,248,39897,1,0,0:0:0:0:
449,275,40004,1,0,0:0:0:0:
449,275,40111,1,8,0:0:0:0:
440,270,40218,1,0,0:0:0:0:
440,270,40272,1,0,0:0:0:0:
440,270,40325,1,0,0:0:0:0:
436,284,40433,1,8,0:0:0:0:
436,284,40540,1,0,0:0:0:0:
409,297,40593,1,0,0:0:0:0:
450,268,40647,1,8,0:0:0:0:
450,268,40700,1,8,0:0:0:0:
450,268,40754,1,0,0:0:0:0:
454,289,40861,1,8,0:0:0:0:
450,268,40968,1,0,0:0:0:0:
454,289,41022,1,0,0:0:0:0:
454,289,41075,1,8,0:0:0:0:
426,262,41129,1,0,0:0:0:0:
426,262,41183,1,8,0:0:0:0:
426,262,41236,1,8,0:0:0:0:
426,262,41290,1,0,0:0:0:0:
426,262,41397,1,12,0:0:0:0:
427,301,41611,1,8,0:0:0:0:
355,176,41665,1,8,0:0:0:0:
354,185,41718,1,0,0:0:0:0:
382,252,41825,1,8,0:0:0:0:
382,252,41879,1,8,0:0:0:0:
382,252,41933,1,0,0:0:0:0:
382,252,42040,1,8,0:0:0:0:
382,252,42093,1,8,0:0:0:0:
382,252,42147,1,0,0:0:0:0:
382,252,42254,1,8,0:0:0:0:
382,252,42308,1,8,0:0:0:0:
382,252,42361,1,0,0:0:0:0:
382,252,42468,1,8,0:0:0:0:
382,252,42522,1,8,0:0:0:0:
382,252,42575,1,0,0:0:0:0:
382,272,42683,1,8,0:0:0:0:
382,272,42736,1,8,0:0:0:0:
389,232,42790,1,0,0:0:0:0:
382,272,42897,1,8,0:0:0:0:
382,272,42950,1,8,0:0:0:0:
382,272,43004,1,0,0:0:0:0:
382,272,43111,1,8,0:0:0:0:
382,272,43165,1,8,0:0:0:0:
389,232,43218,1,0,0:0:0:0:
395,239,43325,1,0,0:0:0:0:
318,254,43379,1,0,0:0:0:0:
395,239,43433,1,8,0:0:0:0:
389,232,43486,1,0,0:0:0:0:
333,221,43540,1,8,0:0:0:0:
333,221,43593,1,8,0:0:0:0:
333,221,43647,1,0,0:0:0:0:
389,232,43700,1,0,0:0:0:0:
333,221,43754,1,8,0:0:0:0:
333,221,43861,1,0,0:0:0:0:
333,221,43968,1,8,0:0:0:0:
333,221,44022,1,0,0:0:0:0:
333,221,44075,1,8,0:0:0:0:
389,232,44129,1,8,0:0:0:0:
343,227,44183,1,0,0:0:0:0:
389,232,44290,1,8,0:0:0:0:
389,232,44397,1,0,0:0:0:0:
343,227,44450,1,0,0:0:0:0:
389,232,44504,1,8,0:0:0:0:
389,232,44558,1,8,0:0:0:0:
343,227,44611,1,0,0:0:0:0:
343,227,44665,1,8,0:0:0:0:
343,227,44718,1,0,0:0:0:0:
280,266,44825,1,8,0:0:0:0:
280,266,44933,1,8,0:0:0:0:
370,234,45040,1,0,0:0:0:0:
370,234,45093,1,0,0:0:0:0:
370,234,45147,1,8,0:0:0:0:
370,234,45254,1,0,0:0:0:0:
370,234,45308,1,0,0:0:0:0:
370,234,45361,1,8,0:0:0:0:
368,245,45468,1,0,0:0:0:0:
368,245,45522,1,0,0:0:0:0:
368,245,45575,1,8,0:0:0:0:
368,245,45683,1,0,0:0:0:0:
455,109,45736,1,0,0:0:0:0:
368,245,45790,1,8,0:0:0:0:
368,245,45897,1,0,0:0:0:0:
368,245,45950,1,0,0:0:0:0:
379,302,46004,1,8,0:0:0:0:
424,277,46111,1,0,0:0:0:0:
424,277,46165,1,0,0:0:0:0:
424,277,46218,1,8,0:0:0:0:
424,277,46325,1,0,0:0:0:0:
424,277,46379,1,0,0:0:0:0:
424,277,46433,1,8,0:0:0:0:
424,277,46540,1,0,0:0:0:0:
424,277,46593,1,0,0:0:0:0:
424,277,46647,1,8,0:0:0:0:
424,277,46754,1,8,0:0:0:0:
409,231,46808,1,8,0:0:0:0:
409,231,46861,1,0,0:0:0:0:
409,231,46915,1,0,0:0:0:0:
409,231,46968,1,8,0:0:0:0:
409,231,47022,1,0,0:0:0:0:
409,231,47075,1,8,0:0:0:0:
409,231,47129,1,8,0:0:0:0:
409,231,47183,1,0,0:0:0:0:
409,231,47290,1,8,0:0:0:0:
409,231,47397,1,0,0:0:0:0:
409,231,47450,1,0,0:0:0:0:
409,231,47504,1,8,0:0:0:0:
409,231,47558,1,8,0:0:0:0:
438,272,47611,1,0,0:0:0:0:
439,285,47718,1,0,0:0:0:0:
439,285,47825,1,8,0:0:0:0:
439,285,47879,1,8,0:0:0:0:
439,285,47933,1,0,0:0:0:0:
439,285,47986,1,0,0:0:0:0:
436,303,48040,1,8,0:0:0:0:
436,303,48093,1,8,0:0:0:0:
436,303,48147,1,0,0:0:0:0:
436,303,48200,1,0,0:0:0:0:
436,303,48254,1,8,0:0:0:0:
468,126,48308,1,8,0:0:0:0:
468,126,48361,1,8,0:0:0:0:
468,126,48415,1,8,0:0:0:0:
468,126,48468,1,0,0:0:0:0:
416,213,48683,1,8,0:0:0:0:
416,213,48897,1,8,0:0:0:0:
416,213,49111,1,8,0:0:0:0:
474,217,49325,1,8,0:0:0:0:
474,217,49540,1,8,0:0:0:0:
361,230,49754,1,8,0:0:0:0:
361,230,49968,1,8,0:0:0:0:
361,230,50183,1,8,0:0:0:0:
361,230,50397,1,8,0:0:0:0:
361,230,50611,1,8,0:0:0:0:
361,230,50825,1,8,0:0:0:0:
361,230,51040,1,8,0:0:0:0:
361,230,51254,1,8,0:0:0:0:
361,230,51468,1,8,0:0:0:0:
361,230,51683,1,8,0:0:0:0:
361,230,51897,1,8,0:0:0:0:
361,230,52111,1,8,0:0:0:0:
379,235,52325,1,8,0:0:0:0:
379,235,52540,1,8,0:0:0:0:
379,235,52754,1,8,0:0:0:0:
336,212,52861,1,0,0:0:0:0:
379,235,52968,1,8,0:0:0:0:
336,212,53075,1,0,0:0:0:0:
379,235,53183,1,8,0:0:0:0:
336,212,53290,1,0,0:0:0:0:
379,235,53397,1,8,0:0:0:0:
336,212,53504,1,0,0:0:0:0:
375,217,53611,1,8,0:0:0:0:
375,217,53665,1,8,0:0:0:0:
375,213,53718,1,8,0:0:0:0:
375,213,53772,1,8,0:0:0:0:
375,213,53825,1,0,0:0:0:0:
375,213,53933,1,0,0:0:0:0:
375,213,54040,1,8,0:0:0:0:
375,213,54093,1,8,0:0:0:0:
375,213,54147,1,0,0:0:0:0:
375,213,54200,1,0,0:0:0:0:
375,213,54254,1,8,0:0:0:0:
375,213,54308,1,8,0:0:0:0:
375,213,54361,1,8,0:0:0:0:
375,213,54415,1,8,0:0:0:0:
375,213,54468,1,0,0:0:0:0:
334,209,54897,1,8,0:0:0:0:
334,209,55004,1,8,0:0:0:0:
334,209,55111,1,8,0:0:0:0:
413,174,55218,1,0,0:0:0:0:
413,174,55272,1,0,0:0:0:0:
334,209,55325,1,8,0:0:0:0:
233,200,55540,1,0,0:0:0:0:
233,200,55754,1,8,0:0:0:0:
421,267,55861,1,0,0:0:0:0:
401,277,55968,1,8,0:0:0:0:
421,267,56075,1,8,0:0:0:0:
401,277,56183,1,0,0:0:0:0:
422,273,56290,1,0,0:0:0:0:
401,277,56397,1,8,0:0:0:0:
401,277,56611,1,8,0:0:0:0:
410,277,56665,1,8,0:0:0:0:
410,277,56718,1,0,0:0:0:0:
410,277,56772,1,0,0:0:0:0:
401,277,56825,1,8,0:0:0:0:
410,277,56933,1,0,0:0:0:0:
401,277,57040,1,0,0:0:0:0:
405,234,57254,1,8,0:0:0:0:
244,272,57468,1,8,0:0:0:0:
244,272,57522,1,8,0:0:0:0:
244,272,57575,1,8,0:0:0:0:
244,272,57629,1,8,0:0:0:0:
405,234,57683,1,0,0:0:0:0:
244,272,57736,1,0,0:0:0:0:
244,272,57790,1,8,0:0:0:0:
405,234,57897,1,0,0:0:0:0:
416,266,58004,1,0,0:0:0:0:
405,234,58111,1,8,0:0:0:0:
436,298,58165,1,8,0:0:0:0:
436,298,58218,1,0,0:0:0:0:
405,234,58325,1,8,0:0:0:0:
436,298,58433,1,8,0:0:0:0:
436,298,58486,1,0,0:0:0:0:
405,234,58540,1,8,0:0:0:0:
436,298,58647,1,0,0:0:0:0:
405,234,58754,1,0,0:0:0:0:
401,242,58968,1,8,0:0:0:0:
414,286,59075,1,0,0:0:0:0:
401,242,59183,1,8,0:0:0:0:
439,286,59236,1,0,0:0:0:0:
454,313,59290,1,8,0:0:0:0:
461,338,59343,1,8,0:0:0:0:
401,242,59397,1,0,0:0:0:0:
437,300,59504,1,8,0:0:0:0:
401,242,59611,1,0,0:0:0:0:
401,242,59825,1,8,0:0:0:0:
401,242,60040,1,0,0:0:0:0:
396,252,60147,1,0,0:0:0:0:
401,242,60254,1,8,0:0:0:0:
396,252,60361,1,8,0:0:0:0:
401,242,60468,1,0,0:0:0:0:
401,242,60683,1,0,0:0:0:0:
414,288,60736,1,8,0:0:0:0:
414,288,60790,1,0,0:0:0:0:
414,288,60843,1,0,0:0:0:0:
401,242,60897,1,8,0:0:0:0:
434,294,61004,1,0,0:0:0:0:
401,242,61111,1,8,0:0:0:0:
401,242,61325,1,0,0:0:0:0:
401,242,61540,1,0,0:0:0:0:
287,195,61647,1,0,0:0:0:0:
401,242,61754,1,8,0:0:0:0:
287,195,61861,1,0,0:0:0:0:
401,242,61968,1,8,0:0:0:0:
248,177,62075,1,0,0:0:0:0:
241,214,62504,2,0,L|276:218,4,27.9884247091169
290,165,63040,1,4,0:0:0:0:
409,283,63147,1,8,0:0:0:0:
444,288,63790,1,4,0:0:0:0:
452,283,63897,1,8,0:0:0:0:
444,288,64004,1,4,0:0:0:0:
431,248,64754,1,4,0:0:0:0:
431,248,64861,1,8,0:0:0:0:
448,274,65504,1,4,0:0:0:0:
448,274,65611,1,8,0:0:0:0:
448,274,65718,1,4,0:0:0:0:
440,306,65825,1,8,0:0:0:0:
423,286,66040,1,0,0:0:0:0:
423,286,66093,1,0,0:0:0:0:
423,286,66147,1,8,0:0:0:0:
423,286,66200,1,8,0:0:0:0:
423,286,66254,1,0,0:0:0:0:
426,256,66361,1,8,0:0:0:0:
469,199,66415,1,8,0:0:0:0:
469,199,66468,1,0,0:0:0:0:
420,176,66575,1,8,0:0:0:0:
406,244,66683,1,0,0:0:0:0:
420,176,66790,1,8,0:0:0:0:
406,244,66897,1,8,0:0:0:0:
420,176,67004,1,0,0:0:0:0:
406,244,67111,1,8,0:0:0:0:
420,176,67218,1,0,0:0:0:0:
389,226,67325,1,8,0:0:0:0:
420,176,67433,1,8,0:0:0:0:
389,226,67540,1,0,0:0:0:0:
420,176,67647,1,0,0:0:0:0:
389,226,67754,1,8,0:0:0:0:
420,176,67861,1,0,0:0:0:0:
389,226,67968,1,0,0:0:0:0:
334,198,68075,1,0,0:0:0:0:
321,253,68183,1,8,0:0:0:0:
321,253,68290,1,8,0:0:0:0:
321,253,68397,1,0,0:0:0:0:
317,246,68504,1,0,0:0:0:0:
404,235,68611,1,8,0:0:0:0:
404,235,68665,1,8,0:0:0:0:
404,235,68718,1,0,0:0:0:0:
404,235,68772,1,0,0:0:0:0:
404,235,68825,1,8,0:0:0:0:
374,221,68879,1,0,0:0:0:0:
374,221,68933,1,8,0:0:0:0:
415,252,69040,1,0,0:0:0:0:
414,266,69147,1,8,0:0:0:0:
414,266,69200,1,8,0:0:0:0:
414,266,69254,1,0,0:0:0:0:
370,222,69361,1,0,0:0:0:0:
370,222,69415,1,0,0:0:0:0:
370,222,69468,1,8,0:0:0:0:
370,222,69522,1,0,0:0:0:0:
370,222,69575,1,8,0:0:0:0:
370,222,69629,1,8,0:0:0:0:
337,209,69683,1,8,0:0:0:0:
303,196,69736,1,8,0:0:0:0:
303,196,69790,1,0,0:0:0:0:
303,196,69897,1,8,0:0:0:0:
303,196,69950,1,8,0:0:0:0:
303,196,70004,1,0,0:0:0:0:
303,196,70058,1,0,0:0:0:0:
303,196,70111,1,8,0:0:0:0:
303,196,70165,1,0,0:0:0:0:
303,196,70218,1,8,0:0:0:0:
303,196,70325,1,0,0:0:0:0:
303,196,70379,1,0,0:0:0:0:
303,196,70433,1,8,0:0:0:0:
303,196,70486,1,0,0:0:0:0:
303,196,70540,1,8,0:0:0:0:
303,196,70593,1,8,0:0:0:0:
303,196,70647,1,0,0:0:0:0:
303,196,70700,1,0,0:0:0:0:
287,187,71397,1,12,0:0:0:0:
327,191,71611,1,4,0:0:0:0:
271,183,77611,6,0,L|203:157,2,62.967371994239
306,268,78040,1,8,0:0:0:0:
306,268,78147,1,0,0:0:0:0:
306,268,78200,1,0,0:0:0:0:
306,268,78254,1,8,0:0:0:0:
306,268,78308,1,0,0:0:0:0:
306,268,78361,1,8,0:0:0:0:
303,265,78468,1,4,0:0:0:0:
356,229,78575,1,8,0:0:0:0:
394,245,79325,1,4,0:0:0:0:
394,245,79433,1,8,0:0:0:0:
407,271,80183,1,4,0:0:0:0:
407,271,80290,1,8,0:0:0:0:
419,258,81040,1,4,0:0:0:0:
419,258,81147,1,8,0:0:0:0:
425,282,81468,1,0,0:0:0:0:
425,282,81575,1,0,0:0:0:0:
406,246,81683,1,0,0:0:0:0:
406,246,81790,1,0,0:0:0:0:
406,246,81897,1,8,0:0:0:0:
370,233,82004,1,0,0:0:0:0:
370,233,82111,1,8,0:0:0:0:
370,233,82218,1,8,0:0:0:0:
370,233,82325,1,0,0:0:0:0:
370,233,82433,1,8,0:0:0:0:
370,233,82540,1,0,0:0:0:0:
370,233,82647,1,0,0:0:0:0:
370,233,82754,1,8,0:0:0:0:
370,233,82861,1,0,0:0:0:0:
370,233,82968,1,8,0:0:0:0:
370,233,83075,1,0,0:0:0:0:
370,233,83183,1,8,0:0:0:0:
370,233,83290,1,8,0:0:0:0:
370,233,83397,1,0,0:0:0:0:
370,233,83504,1,0,0:0:0:0:
276,263,83611,1,8,0:0:0:0:
276,263,83718,1,8,0:0:0:0:
276,263,83825,1,8,0:0:0:0:
276,263,83933,1,8,0:0:0:0:
276,263,84040,1,0,0:0:0:0:
340,212,84093,1,0,0:0:0:0:
340,212,84147,1,8,0:0:0:0:
340,212,84200,1,0,0:0:0:0:
340,212,84254,1,8,0:0:0:0:
340,212,84308,1,8,0:0:0:0:
340,212,84361,1,0,0:0:0:0:
340,212,84468,1,8,0:0:0:0:
474,159,84522,1,8,0:0:0:0:
474,159,84575,1,0,0:0:0:0:
435,169,84629,1,8,0:0:0:0:
435,169,84683,1,0,0:0:0:0:
444,175,84736,1,0,0:0:0:0:
444,175,84790,1,8,0:0:0:0:
467,197,84843,1,8,0:0:0:0:
444,175,84897,1,8,0:0:0:0:
444,175,84950,1,8,0:0:0:0:
444,175,85004,1,0,0:0:0:0:
410,245,85111,1,12,0:0:0:0:
416,257,85325,1,4,0:0:0:0:
448,271,85433,1,8,0:0:0:0:
455,271,85540,1,0,0:0:0:0:
455,271,85593,1,0,0:0:0:0:
455,271,85647,1,8,0:0:0:0:
448,268,85754,1,0,0:0:0:0:
448,268,85861,1,8,0:0:0:0:
449,272,85915,1,8,0:0:0:0:
449,272,85968,1,0,0:0:0:0:
431,249,86075,1,0,0:0:0:0:
443,290,86183,1,8,0:0:0:0:
444,291,86236,1,8,0:0:0:0:
447,306,86290,1,0,0:0:0:0:
447,306,86343,1,0,0:0:0:0:
447,306,86397,1,8,0:0:0:0:
270,236,86450,1,0,0:0:0:0:
457,277,86504,1,0,0:0:0:0:
457,277,86558,1,0,0:0:0:0:
457,277,86611,1,8,0:0:0:0:
450,294,86718,1,0,0:0:0:0:
450,294,86825,1,8,0:0:0:0:
450,294,86933,1,0,0:0:0:0:
451,292,87040,1,8,0:0:0:0:
437,258,87093,1,8,0:0:0:0:
437,258,87147,1,8,0:0:0:0:
437,258,87200,1,8,0:0:0:0:
437,258,87254,1,0,0:0:0:0:
445,296,87361,1,8,0:0:0:0:
445,296,87415,1,8,0:0:0:0:
445,296,87468,1,0,0:0:0:0:
445,296,87522,1,0,0:0:0:0:
445,296,87575,1,8,0:0:0:0:
445,296,87683,1,0,0:0:0:0:
449,303,87790,1,0,0:0:0:0:
448,307,87897,1,8,0:0:0:0:
448,307,87950,1,8,0:0:0:0:
450,310,88004,1,0,0:0:0:0:
450,310,88058,1,0,0:0:0:0:
450,310,88111,1,8,0:0:0:0:
315,260,88165,1,8,0:0:0:0:
453,289,88218,1,0,0:0:0:0:
453,289,88272,1,0,0:0:0:0:
453,289,88325,1,8,0:0:0:0:
453,289,88433,1,0,0:0:0:0:
436,264,88540,1,8,0:0:0:0:
352,217,88593,1,8,0:0:0:0:
436,264,88647,1,0,0:0:0:0:
352,217,88700,1,8,0:0:0:0:
453,289,88754,1,0,0:0:0:0:
443,287,88808,1,0,0:0:0:0:
443,287,88861,1,8,0:0:0:0:
443,287,88968,1,0,0:0:0:0:
448,304,89022,1,0,0:0:0:0:
448,304,89075,1,8,0:0:0:0:
425,268,89183,1,0,0:0:0:0:
425,268,89236,1,0,0:0:0:0:
425,268,89343,1,8,0:0:0:0:
425,268,89397,1,8,0:0:0:0:
475,133,89504,1,0,0:0:0:0:
475,133,89558,1,0,0:0:0:0:
437,300,89611,1,0,0:0:0:0:
437,300,89665,1,0,0:0:0:0:
437,300,89718,1,8,0:0:0:0:
437,300,89825,1,0,0:0:0:0:
442,261,89933,1,8,0:0:0:0:
442,261,89986,1,8,0:0:0:0:
442,261,90040,1,0,0:0:0:0:
442,261,90093,1,8,0:0:0:0:
442,261,90147,1,0,0:0:0:0:
448,298,90200,1,0,0:0:0:0:
362,195,90254,1,8,0:0:0:0:
487,107,90308,1,8,0:0:0:0:
487,107,90361,1,8,0:0:0:0:
487,107,90415,1,8,0:0:0:0:
416,248,90468,1,0,0:0:0:0:
449,275,90575,1,0,0:0:0:0:
449,275,90683,1,8,0:0:0:0:
440,270,90790,1,0,0:0:0:0:
440,270,90843,1,0,0:0:0:0:
440,270,90897,1,0,0:0:0:0:
436,284,91004,1,8,0:0:0:0:
436,284,91111,1,0,0:0:0:0:
409,297,91165,1,0,0:0:0:0:
450,268,91218,1,8,0:0:0:0:
450,268,91272,1,8,0:0:0:0:
450,268,91325,1,0,0:0:0:0:
454,289,91433,1,8,0:0:0:0:
450,268,91540,1,0,0:0:0:0:
454,289,91593,1,0,0:0:0:0:
454,289,91647,1,8,0:0:0:0:
426,262,91700,1,0,0:0:0:0:
426,262,91754,1,8,0:0:0:0:
426,262,91808,1,8,0:0:0:0:
426,262,91861,1,0,0:0:0:0:
426,262,91968,1,12,0:0:0:0:
427,301,92183,1,8,0:0:0:0:
355,176,92236,1,8,0:0:0:0:
354,185,92290,1,0,0:0:0:0:
382,252,92397,1,8,0:0:0:0:
382,252,92450,1,8,0:0:0:0:
382,252,92504,1,0,0:0:0:0:
382,252,92611,1,8,0:0:0:0:
382,252,92665,1,8,0:0:0:0:
382,252,92718,1,0,0:0:0:0:
382,252,92825,1,8,0:0:0:0:
382,252,92879,1,8,0:0:0:0:
382,252,92933,1,0,0:0:0:0:
382,252,93040,1,8,0:0:0:0:
382,252,93093,1,8,0:0:0:0:
382,252,93147,1,0,0:0:0:0:
382,272,93254,1,8,0:0:0:0:
382,272,93308,1,8,0:0:0:0:
389,232,93361,1,0,0:0:0:0:
382,272,93468,1,8,0:0:0:0:
382,272,93522,1,8,0:0:0:0:
382,272,93575,1,0,0:0:0:0:
382,272,93683,1,8,0:0:0:0:
382,272,93736,1,8,0:0:0:0:
389,232,93790,1,0,0:0:0:0:
395,239,93897,1,0,0:0:0:0:
318,254,93950,1,0,0:0:0:0:
395,239,94004,1,8,0:0:0:0:
389,232,94058,1,0,0:0:0:0:
333,221,94111,1,8,0:0:0:0:
333,221,94165,1,8,0:0:0:0:
333,221,94218,1,0,0:0:0:0:
389,232,94272,1,0,0:0:0:0:
333,221,94325,1,8,0:0:0:0:
333,221,94433,1,0,0:0:0:0:
333,221,94540,1,8,0:0:0:0:
333,221,94593,1,0,0:0:0:0:
333,221,94647,1,8,0:0:0:0:
389,232,94700,1,8,0:0:0:0:
343,227,94754,1,0,0:0:0:0:
389,232,94861,1,8,0:0:0:0:
389,232,94968,1,0,0:0:0:0:
343,227,95022,1,0,0:0:0:0:
389,232,95075,1,8,0:0:0:0:
389,232,95129,1,8,0:0:0:0:
343,227,95183,1,0,0:0:0:0:
343,227,95236,1,8,0:0:0:0:
343,227,95290,1,0,0:0:0:0:
280,266,95397,1,8,0:0:0:0:
280,266,95504,1,8,0:0:0:0:
370,234,95611,1,0,0:0:0:0:
370,234,95665,1,0,0:0:0:0:
370,234,95718,1,8,0:0:0:0:
370,234,95825,1,0,0:0:0:0:
370,234,95879,1,0,0:0:0:0:
370,234,95933,1,8,0:0:0:0:
368,245,96040,1,0,0:0:0:0:
368,245,96093,1,0,0:0:0:0:
368,245,96147,1,8,0:0:0:0:
368,245,96254,1,0,0:0:0:0:
455,109,96308,1,0,0:0:0:0:
368,245,96361,1,8,0:0:0:0:
368,245,96468,1,0,0:0:0:0:
368,245,96522,1,0,0:0:0:0:
379,302,96575,1,8,0:0:0:0:
424,277,96683,1,0,0:0:0:0:
424,277,96736,1,0,0:0:0:0:
424,277,96790,1,8,0:0:0:0:
424,277,96897,1,0,0:0:0:0:
424,277,96950,1,0,0:0:0:0:
424,277,97004,1,8,0:0:0:0:
424,277,97111,1,0,0:0:0:0:
424,277,97165,1,0,0:0:0:0:
424,277,97218,1,8,0:0:0:0:
424,277,97325,1,8,0:0:0:0:
409,231,97379,1,8,0:0:0:0:
409,231,97433,1,0,0:0:0:0:
409,231,97486,1,0,0:0:0:0:
409,231,97540,1,8,0:0:0:0:
409,231,97593,1,0,0:0:0:0:
409,231,97647,1,8,0:0:0:0:
409,231,97700,1,8,0:0:0:0:
409,231,97754,1,0,0:0:0:0:
409,231,97861,1,8,0:0:0:0:
409,231,97968,1,0,0:0:0:0:
409,231,98022,1,0,0:0:0:0:
409,231,98075,1,8,0:0:0:0:
409,231,98129,1,8,0:0:0:0:
438,272,98183,1,0,0:0:0:0:
439,285,98290,1,0,0:0:0:0:
439,285,98397,1,8,0:0:0:0:
439,285,98450,1,8,0:0:0:0:
439,285,98504,1,0,0:0:0:0:
439,285,98558,1,0,0:0:0:0:
436,303,98611,1,8,0:0:0:0:
436,303,98718,1,0,0:0:0:0:
436,303,98825,1,8,0:0:0:0:
468,126,98879,1,0,0:0:0:0:
468,126,98933,1,8,0:0:0:0:
468,126,99040,1,0,0:0:0:0:
305,232,99093,1,0,0:0:0:0:
305,232,99147,1,0,0:0:0:0:
289,224,99254,1,8,0:0:0:0:
289,224,99308,1,8,0:0:0:0:
289,224,99361,1,8,0:0:0:0:
289,224,99468,1,0,0:0:0:0:
289,224,99522,1,0,0:0:0:0:
289,224,99575,1,0,0:0:0:0:
289,224,99683,1,8,0:0:0:0:
289,224,99736,1,8,0:0:0:0:
289,224,99790,1,8,0:0:0:0:
289,224,99897,1,0,0:0:0:0:
289,224,99950,1,0,0:0:0:0:
289,224,100004,1,0,0:0:0:0:
289,224,100111,1,8,0:0:0:0:
289,224,100165,1,8,0:0:0:0:
289,224,100218,1,8,0:0:0:0:
289,224,100325,1,0,0:0:0:0:
289,224,100379,1,0,0:0:0:0:
289,224,100433,1,0,0:0:0:0:
289,224,100540,1,8,0:0:0:0:
289,224,100593,1,8,0:0:0:0:
289,224,100647,1,8,0:0:0:0:
272,197,100754,1,0,0:0:0:0:
272,197,100861,1,8,0:0:0:0:
313,256,100915,1,8,0:0:0:0:
404,228,100968,1,0,0:0:0:0:
404,228,101022,1,8,0:0:0:0:
404,228,101075,1,0,0:0:0:0:
404,228,101129,1,0,0:0:0:0:
404,228,101183,1,8,0:0:0:0:
404,228,101290,1,0,0:0:0:0:
404,228,101397,1,8,0:0:0:0:
404,228,101450,1,0,0:0:0:0:
404,228,101504,1,8,0:0:0:0:
404,228,101558,1,8,0:0:0:0:
404,228,101611,1,0,0:0:0:0:
404,228,101718,1,8,0:0:0:0:
404,228,101772,1,0,0:0:0:0:
404,228,101825,1,8,0:0:0:0:
404,228,101879,1,0,0:0:0:0:
404,228,101933,1,8,0:0:0:0:
404,228,102040,1,0,0:0:0:0:
404,228,102093,1,0,0:0:0:0:
404,228,102147,1,0,0:0:0:0:
404,228,102200,1,0,0:0:0:0:
404,228,102254,1,8,0:0:0:0:
404,228,102308,1,8,0:0:0:0:
404,228,102361,1,8,0:0:0:0:
404,228,102415,1,8,0:0:0:0:
410,232,102468,1,4,0:0:0:0:
289,218,102683,1,4,0:0:0:0:
383,241,102897,1,4,0:0:0:0:
408,249,103111,1,8,0:0:0:0:
408,249,103165,1,8,0:0:0:0:
413,258,103218,1,0,0:0:0:0:
391,228,103325,1,4,0:0:0:0:
391,228,103540,1,4,0:0:0:0:
415,251,103754,1,4,0:0:0:0:
415,251,103968,1,4,0:0:0:0:
415,251,104183,1,4,0:0:0:0:
376,252,104290,1,8,0:0:0:0:
463,273,104397,1,8,0:0:0:0:
460,280,104504,1,0,0:0:0:0:
211,239,104611,1,0,0:0:0:0:
426,272,104718,1,8,0:0:0:0:
426,272,104825,1,0,0:0:0:0:
426,272,104879,1,0,0:0:0:0:
443,318,104933,1,0,0:0:0:0:
371,220,105040,1,8,0:0:0:0:
424,258,105254,1,8,0:0:0:0:
424,258,105308,1,8,0:0:0:0:
424,258,105361,1,8,0:0:0:0:
424,258,105415,1,8,0:0:0:0:
424,258,105468,1,0,0:0:0:0:
428,289,105522,1,0,0:0:0:0:
428,289,105575,1,0,0:0:0:0:
428,289,105629,1,0,0:0:0:0:
428,289,105683,1,8,0:0:0:0:
470,142,105736,1,8,0:0:0:0:
470,142,105790,1,0,0:0:0:0:
