osu file format v14

[General]
AudioFilename: audio.mp3
AudioLeadIn: 0
PreviewTime: 34647
Countdown: 0
SampleSet: Normal
StackLeniency: 0.7
Mode: 1
LetterboxInBreaks: 0
WidescreenStoryboard: 1

[Editor]
Bookmarks: 255,5397,7326,14183,27897,34754,41611,48468,55325,63040,71397,78468,85325,92183,102468,104183
DistanceSpacing: 0.9
BeatDivisor: 4
GridSize: 4
TimelineZoom: 3.099999

[Metadata]
Title:KUSODEKA HIBANA
TitleUnicode:クソデカヒバナ
Artist:7_7
ArtistUnicode:7_7
Creator:Undead Alice
Version:FUTSUU
Source:
Tags:DECO*27 DECO 27 Hatsune Miku electronic japanese remix bootleg hardcore breakcore slim_san slim san vocaloid ヒバナ feat. 初音ミク Slim-san UndeadAlice Undead_Alice
BeatmapID:4227713
BeatmapSetID:2027273

[Difficulty]
HPDrainRate:8
CircleSize:5
OverallDifficulty:3
ApproachRate:5
SliderMultiplier:1.4
SliderTickRate:1

[Events]
//Background and Video events
0,0,"MOSHED-2023-7-15-23-44-30.jpg",0,0
//Break Periods
2,71825,76840
//Storyboard Layer 0 (Background)
//Storyboard Layer 1 (Fail)
//Storyboard Layer 2 (Pass)
//Storyboard Layer 3 (Foreground)
//Storyboard Layer 4 (Overlay)
//Storyboard Sound Samples

[TimingPoints]
255,214.285714285714,4,1,0,80,1,0
255,-125,4,1,0,100,0,0
7112,214.285714285714,4,1,0,80,1,8
7112,-125,4,1,0,100,0,8
7326,214.285714285714,4,1,0,80,1,0
7326,-125,4,1,0,100,0,1
12468,-125,4,1,0,100,0,0
34754,-125,4,1,0,100,0,1
39897,-125,4,1,0,100,0,0
41611,-125,4,1,0,100,0,1
48468,-125,4,1,0,100,0,0
71665,-125,4,1,0,30,0,0
78040,-125,4,1,0,100,0,0
85325,-125,4,1,0,100,0,1
90468,-125,4,1,0,100,0,0
92183,-125,4,1,0,100,0,1
104183,-125,4,1,0,100,0,0

[HitObjects]
324,185,255,5,0,0:0:0:0:
324,185,683,1,8,0:0:0:0:
324,185,1112,1,0,0:0:0:0:
422,255,1540,1,8,0:0:0:0:
422,255,1969,1,0,0:0:0:0:
248,233,2826,1,0,0:0:0:0:
398,241,3683,1,8,0:0:0:0:
335,213,4004,1,0,0:0:0:0:
402,260,4540,1,0,0:0:0:0:
327,213,4862,1,0,0:0:0:0:
396,212,5183,1,8,0:0:0:0:
285,190,7112,1,8,0:0:0:0:
427,287,7326,1,0,0:0:0:0:
427,287,7647,1,0,0:0:0:0:
424,257,7968,1,8,0:0:0:0:
429,258,8183,1,0,0:0:0:0:
429,258,8397,1,8,0:0:0:0:
433,312,9040,1,8,0:0:0:0:
427,282,9254,1,8,0:0:0:0:
427,282,9468,1,0,0:0:0:0:
450,312,9897,1,8,0:0:0:0:
448,294,10218,1,8,0:0:0:0:
427,198,10540,1,0,0:0:0:0:
437,295,10754,1,0,0:0:0:0:
445,288,10968,1,8,0:0:0:0:
282,243,11290,1,0,0:0:0:0:
443,303,11611,1,8,0:0:0:0:
450,290,11825,1,8,0:0:0:0:
451,315,12040,1,0,0:0:0:0:
454,295,12254,1,8,0:0:0:0:
432,268,12468,1,0,0:0:0:0:
417,267,13325,1,0,0:0:0:0:
371,260,13968,1,8,0:0:0:0:
262,186,14183,1,0,0:0:0:0:
264,243,14611,1,8,0:0:0:0:
264,243,14933,1,0,0:0:0:0:
357,270,15147,1,8,0:0:0:0:
256,262,15361,1,0,0:0:0:0:
316,221,15897,1,0,0:0:0:0:
294,254,16647,1,0,0:0:0:0:
232,267,16861,1,0,0:0:0:0:
323,273,17075,1,8,0:0:0:0:
323,273,17611,1,8,0:0:0:0:
451,310,18361,1,8,0:0:0:0:
184,231,18575,1,0,0:0:0:0:
295,233,18790,1,8,0:0:0:0:
323,273,19325,1,0,0:0:0:0:
328,261,19754,1,0,0:0:0:0:
323,273,20183,1,8,0:0:0:0:
323,273,20397,1,8,0:0:0:0:
434,296,20611,1,8,0:0:0:0:
323,273,21040,1,0,0:0:0:0:
292,248,21468,1,0,0:0:0:0:
320,226,21790,1,8,0:0:0:0:
206,229,22004,1,0,0:0:0:0:
206,229,22218,1,8,0:0:0:0:
274,224,22754,1,0,0:0:0:0:
437,312,23504,1,0,0:0:0:0:
206,229,23718,1,8,0:0:0:0:
265,240,23933,1,0,0:0:0:0:
274,224,24468,1,8,0:0:0:0:
274,224,25218,1,8,0:0:0:0:
420,284,25433,1,8,0:0:0:0:
285,219,25647,1,0,0:0:0:0:
308,227,26183,1,0,0:0:0:0:
308,227,26611,1,8,0:0:0:0:
308,227,27040,1,0,0:0:0:0:
461,311,27254,1,0,0:0:0:0:
424,269,27468,1,8,0:0:0:0:
290,165,27897,1,0,0:0:0:0:
444,288,28647,1,8,0:0:0:0:
444,288,28861,1,0,0:0:0:0:
431,248,29611,1,0,0:0:0:0:
448,274,30361,1,8,0:0:0:0:
448,274,30575,1,0,0:0:0:0:
424,214,30897,1,0,0:0:0:0:
423,286,31111,1,8,0:0:0:0:
469,199,31325,1,0,0:0:0:0:
406,244,31754,1,0,0:0:0:0:
389,226,32183,1,8,0:0:0:0:
389,226,32611,1,8,0:0:0:0:
321,253,33040,1,0,0:0:0:0:
321,253,33254,1,0,0:0:0:0:
404,235,33468,1,8,0:0:0:0:
404,235,33683,1,8,0:0:0:0:
415,252,33897,1,0,0:0:0:0:
337,209,34540,1,8,0:0:0:0:
416,257,34754,1,0,0:0:0:0:
455,271,35075,1,0,0:0:0:0:
448,268,35397,1,8,0:0:0:0:
443,290,35611,1,8,0:0:0:0:
447,306,35825,1,0,0:0:0:0:
457,277,36040,1,0,0:0:0:0:
451,292,36468,1,8,0:0:0:0:
445,296,36790,1,8,0:0:0:0:
448,307,37325,1,0,0:0:0:0:
450,310,37540,1,8,0:0:0:0:
453,289,37754,1,0,0:0:0:0:
453,289,38183,1,8,0:0:0:0:
211,251,38397,1,0,0:0:0:0:
437,300,39040,1,8,0:0:0:0:
437,300,39254,1,8,0:0:0:0:
442,261,39468,1,0,0:0:0:0:
362,195,39683,1,8,0:0:0:0:
416,248,39897,1,0,0:0:0:0:
321,229,40325,1,0,0:0:0:0:
450,268,40754,1,8,0:0:0:0:
426,262,41397,1,8,0:0:0:0:
427,301,41611,1,0,0:0:0:0:
382,252,41825,1,0,0:0:0:0:
382,252,42040,1,8,0:0:0:0:
382,252,42468,1,8,0:0:0:0:
382,272,42683,1,0,0:0:0:0:
382,272,42897,1,8,0:0:0:0:
382,272,43111,1,0,0:0:0:0:
395,239,43325,1,8,0:0:0:0:
281,193,43754,1,0,0:0:0:0:
407,291,43968,1,0,0:0:0:0:
407,291,44183,1,8,0:0:0:0:
280,266,44825,1,8,0:0:0:0:
370,234,45040,1,8,0:0:0:0:
370,234,45254,1,0,0:0:0:0:
368,245,45468,1,0,0:0:0:0:
368,245,45897,1,8,0:0:0:0:
424,277,46111,1,8,0:0:0:0:
424,277,46325,1,0,0:0:0:0:
424,277,46540,1,0,0:0:0:0:
424,277,46754,1,8,0:0:0:0:
286,199,47611,1,0,0:0:0:0:
436,303,48040,1,8,0:0:0:0:
366,232,48254,1,8,0:0:0:0:
468,126,48468,1,0,0:0:0:0:
416,213,49111,1,8,0:0:0:0:
361,230,49968,1,8,0:0:0:0:
361,230,50825,1,8,0:0:0:0:
361,230,51683,1,8,0:0:0:0:
379,235,52540,1,8,0:0:0:0:
379,235,52754,1,0,0:0:0:0:
379,235,53183,1,8,0:0:0:0:
375,217,53611,1,0,0:0:0:0:
375,213,53825,1,0,0:0:0:0:
375,213,54040,1,8,0:0:0:0:
375,213,54254,1,8,0:0:0:0:
375,213,54468,1,0,0:0:0:0:
334,209,55325,1,0,0:0:0:0:
233,200,55754,1,8,0:0:0:0:
401,277,56183,1,0,0:0:0:0:
410,277,56611,1,8,0:0:0:0:
401,277,57040,1,0,0:0:0:0:
244,272,57468,1,8,0:0:0:0:
405,234,57683,1,8,0:0:0:0:
290,210,58325,1,8,0:0:0:0:
405,234,58540,1,0,0:0:0:0:
436,298,58754,1,8,0:0:0:0:
401,242,59611,1,0,0:0:0:0:
401,242,60040,1,8,0:0:0:0:
401,242,60468,1,0,0:0:0:0:
401,242,60897,1,8,0:0:0:0:
401,242,61325,1,0,0:0:0:0:
401,242,61754,1,8,0:0:0:0:
401,242,61968,1,8,0:0:0:0:
290,165,63040,1,0,0:0:0:0:
444,288,63790,1,8,0:0:0:0:
444,288,64004,1,0,0:0:0:0:
431,248,64754,1,0,0:0:0:0:
448,274,65504,1,8,0:0:0:0:
448,274,65718,1,0,0:0:0:0:
423,286,66040,1,0,0:0:0:0:
423,286,66254,1,8,0:0:0:0:
469,199,66468,1,0,0:0:0:0:
406,244,66897,1,0,0:0:0:0:
389,226,67325,1,8,0:0:0:0:
389,226,67754,1,8,0:0:0:0:
321,253,68183,1,0,0:0:0:0:
321,253,68397,1,0,0:0:0:0:
404,235,68611,1,8,0:0:0:0:
404,235,68825,1,8,0:0:0:0:
415,252,69040,1,0,0:0:0:0:
248,271,69683,1,0,0:0:0:0:
303,196,69897,1,8,0:0:0:0:
303,196,70218,1,8,0:0:0:0:
303,196,70540,1,8,0:0:0:0:
287,187,71397,1,8,0:0:0:0:
327,191,71611,1,0,0:0:0:0:
306,268,78040,5,8,0:0:0:0:
303,265,78468,1,0,0:0:0:0:
394,245,79325,1,0,0:0:0:0:
407,271,80183,1,0,0:0:0:0:
419,258,81040,1,0,0:0:0:0:
425,282,81468,1,0,0:0:0:0:
406,246,81683,1,0,0:0:0:0:
406,246,81897,1,8,0:0:0:0:
370,233,82325,1,0,0:0:0:0:
370,233,82754,1,8,0:0:0:0:
370,233,83183,1,0,0:0:0:0:
276,263,83611,1,8,0:0:0:0:
276,263,83825,1,8,0:0:0:0:
276,263,84040,1,0,0:0:0:0:
340,212,84254,1,0,0:0:0:0:
340,212,84468,1,8,0:0:0:0:
337,209,85111,1,8,0:0:0:0:
416,257,85325,1,0,0:0:0:0:
455,271,85647,1,0,0:0:0:0:
448,268,85968,1,8,0:0:0:0:
443,290,86183,1,8,0:0:0:0:
447,306,86397,1,0,0:0:0:0:
457,277,86611,1,0,0:0:0:0:
451,292,87040,1,8,0:0:0:0:
445,296,87361,1,8,0:0:0:0:
448,307,87897,1,0,0:0:0:0:
450,310,88111,1,8,0:0:0:0:
453,289,88325,1,0,0:0:0:0:
453,289,88754,1,8,0:0:0:0:
211,251,88968,1,0,0:0:0:0:
437,300,89611,1,8,0:0:0:0:
437,300,89825,1,8,0:0:0:0:
442,261,90040,1,0,0:0:0:0:
362,195,90254,1,8,0:0:0:0:
416,248,90468,1,0,0:0:0:0:
321,229,90897,1,0,0:0:0:0:
450,268,91325,1,8,0:0:0:0:
426,262,91968,1,8,0:0:0:0:
427,301,92183,1,0,0:0:0:0:
382,252,92397,1,0,0:0:0:0:
382,252,92611,1,8,0:0:0:0:
382,252,93040,1,8,0:0:0:0:
382,272,93254,1,0,0:0:0:0:
382,272,93468,1,8,0:0:0:0:
382,272,93683,1,0,0:0:0:0:
395,239,93897,1,8,0:0:0:0:
281,193,94325,1,0,0:0:0:0:
407,291,94540,1,0,0:0:0:0:
407,291,94754,1,8,0:0:0:0:
280,266,95397,1,8,0:0:0:0:
370,234,95611,1,8,0:0:0:0:
370,234,95825,1,0,0:0:0:0:
368,245,96040,1,0,0:0:0:0:
368,245,96468,1,8,0:0:0:0:
424,277,96683,1,8,0:0:0:0:
424,277,96897,1,0,0:0:0:0:
424,277,97111,1,0,0:0:0:0:
424,277,97325,1,8,0:0:0:0:
286,199,98183,1,0,0:0:0:0:
300,226,98611,1,0,0:0:0:0:
436,303,99040,1,8,0:0:0:0:
269,193,99254,1,0,0:0:0:0:
289,224,99468,1,8,0:0:0:0:
289,224,99897,1,0,0:0:0:0:
289,224,100111,1,0,0:0:0:0:
289,224,100325,1,8,0:0:0:0:
289,224,100540,1,8,0:0:0:0:
272,197,100754,1,0,0:0:0:0:
151,210,101183,1,0,0:0:0:0:
404,228,102254,1,8,0:0:0:0:
410,232,102468,1,0,0:0:0:0:
289,218,102683,1,0,0:0:0:0:
383,241,102897,1,0,0:0:0:0:
391,228,103325,1,0,0:0:0:0:
391,228,103540,1,8,0:0:0:0:
415,251,103754,1,0,0:0:0:0:
415,251,103968,1,8,0:0:0:0:
415,251,104183,1,0,0:0:0:0:
426,272,104825,1,8,0:0:0:0:
371,220,105040,1,0,0:0:0:0:
424,258,105468,1,0,0:0:0:0:
428,289,105683,1,8,0:0:0:0:
