osu file format v14

[General]
AudioFilename: audio.mp3
AudioLeadIn: 0
PreviewTime: 135153
Countdown: 0
SampleSet: Soft
StackLeniency: 0.7
Mode: 0
LetterboxInBreaks: 0
WidescreenStoryboard: 1

[Editor]
Bookmarks: 57912,68946,113084,135153,157222,179290,223428,245497
DistanceSpacing: 1
BeatDivisor: 4
GridSize: 32
TimelineZoom: 1.4

[Metadata]
Title:;w;
TitleUnicode:;ω;
Artist:7_7
ArtistUnicode:7_7
Creator:fllecc
Version:Normal
Source:
Tags:fa featured artist mpg mappers' guild instrumental electronic d&b dnb drum & and bass breakcore toybot vikala
BeatmapID:4465631
BeatmapSetID:2122395

[Difficulty]
HPDrainRate:4
CircleSize:3.5
OverallDifficulty:4
ApproachRate:5
SliderMultiplier:1.2
SliderTickRate:1

[Events]
//Background and Video events
0,0,"F_nbmYAa8AARj0F.jpg",0,0
//Break Periods
2,135353,144988
//Storyboard Layer 0 (Background)
//Storyboard Layer 1 (Fail)
//Storyboard Layer 2 (Pass)
//Storyboard Layer 3 (Foreground)
//Storyboard Layer 4 (Overlay)
//Storyboard Sound Samples

[TimingPoints]
2740,344.827586206897,4,2,1,50,1,0
57912,-125,4,2,1,50,0,0
63429,-125,4,2,1,60,0,0
66188,-125,4,2,1,50,0,0
66877,-125,4,2,1,60,0,0
67222,-125,4,2,1,70,0,0
68257,-100,4,2,1,90,0,0
68946,-100,4,2,1,80,0,0
113084,-90.9090909090909,4,2,1,90,0,1
135153,-100,4,2,1,90,0,0
146188,346.820809248555,4,2,1,60,1,0
146188,-125,4,2,1,60,0,0
151705,346.820809248555,4,2,1,60,1,0
151705,-125,4,2,1,60,0,0
157222,344.827586206897,4,2,1,80,1,0
157222,-100,4,2,1,80,0,0
223428,-90.9090909090909,4,2,1,90,0,1
245497,-100,4,2,1,70,0,0

[Colours]
Combo1 : 207,207,207
Combo2 : 156,207,203
Combo3 : 208,170,221
Combo4 : 255,79,114
Combo5 : 255,113,194
Combo6 : 170,170,170

[HitObjects]
96,128,57912,70,0,L|78:33,2,96,4|0|0,3:2|3:0|3:0,0:0:0:0:
176,179,58946,1,2,3:2:0:0:
256,126,59291,2,0,P|323:127|396:218,1,192,2|0,3:2|3:0,0:0:0:0:
474,274,60326,1,0,3:0:0:0:
387,314,60671,2,0,L|292:296,2,96,0|0|0,3:0|3:0|3:2,0:0:0:0:
474,274,61705,1,0,3:2:0:0:
396,218,62050,6,0,L|413:123,1,96,0|0,3:0|3:0,0:0:0:0:
361,42,62740,1,2,3:2:0:0:
274,82,63084,2,0,L|226:90,1,48,2|0,3:2|0:0,0:0:0:0:
189,59,63429,5,8,0:1:0:0:
94,41,63774,1,8,0:1:0:0:
30,114,64119,1,8,0:1:0:0:
125,132,64464,1,8,0:1:0:0:
220,150,64808,5,8,0:1:0:0:
156,223,65153,1,8,0:1:0:0:
67,217,65498,1,8,0:1:0:0:
3,290,65843,2,0,L|21:385,1,96,8|0,0:1|0:0,0:0:0:0:
107,342,66533,38,0,L|155:334,1,48,8|8,0:0|0:0,0:0:0:0:
195,357,66877,2,0,L|243:349,1,48,8|8,0:0|0:0,0:0:0:0:
283,372,67222,2,0,L|331:364,1,48,8|8,0:1|0:1,0:0:0:0:
378,356,67567,1,8,0:3:0:0:
512,192,68257,54,2,B|432:100|432:100|327:159,1,240,4|4,3:0|1:0,0:1:0:0:
226,219,69291,54,0,L|107:199,1,120,10|2,0:0|0:0,0:0:0:0:
71,158,69808,1,0,1:0:0:0:
71,158,69981,2,0,L|80:98,1,60,10|0,0:0|0:0,0:0:0:0:
47,48,70326,1,2,1:2:0:0:
160,8,70671,2,0,P|217:16|247:65,1,120,8|0,0:0|0:0,0:0:0:0:
298,106,71188,1,0,1:0:0:0:
298,106,71360,1,8,0:0:0:0:
235,208,71705,5,0,1:0:0:0:
171,310,72050,2,0,P|201:359|258:367,1,120,8|0,0:0|0:0,0:0:0:0:
304,327,72567,1,0,1:0:0:0:
304,327,72740,2,0,L|363:336,1,60,8|0,0:0|0:0,0:0:0:0:
422,344,73084,1,0,1:0:0:0:
499,252,73429,2,0,L|479:133,1,120,8|0,0:0|0:0,0:0:0:0:
504,79,73946,1,0,1:0:0:0:
504,79,74119,1,8,0:0:0:0:
400,17,74464,70,0,P|343:25|313:74,2,120,2|10|2,1:2|0:0|0:0,0:0:0:0:
452,49,75326,1,0,1:0:0:0:
452,49,75498,1,10,0:2:0:0:
364,131,75843,2,0,L|245:111,1,120,2|8,1:2|0:0,0:0:0:0:
180,16,76533,1,0,0:0:0:0:
180,16,76705,2,0,L|121:25,1,60,0|8,1:0|0:0,0:0:0:0:
2,7,77222,5,0,1:0:0:0:
19,125,77567,2,0,L|-1:244,1,120,8|0,0:0|0:0,0:0:0:0:
42,292,78084,1,0,1:0:0:0:
42,292,78257,1,8,0:0:0:0:
130,372,78602,2,0,P|187:364|217:315,1,120,0|8,1:0|0:0,0:0:0:0:
137,223,79291,2,0,L|146:164,1,60,0|0,0:0|1:0,0:0:0:0:
190,123,79636,70,0,P|247:131|277:181,1,120,8|6,0:0|1:2,0:0:0:0:
349,277,80326,2,0,L|468:257,1,120,10|2,0:0|0:0,0:0:0:0:
512,302,80843,1,0,1:0:0:0:
512,302,81015,2,0,L|503:362,1,60,10|0,0:2|0:0,0:0:0:0:
443,352,81360,1,2,1:2:0:0:
324,332,81705,2,0,L|205:352,1,120,8|0,0:0|0:0,0:0:0:0:
159,322,82222,1,0,1:0:0:0:
159,322,82395,1,8,0:0:0:0:
50,374,82740,5,0,1:0:0:0:
4,263,83084,2,0,P|12:206|61:176,1,120,8|0,0:0|0:0,0:0:0:0:
123,198,83602,1,0,1:0:0:0:
123,198,83774,2,0,L|182:189,1,60,8|0,0:0|0:0,0:0:0:0:
241,178,84119,1,0,1:0:0:0:
324,92,84464,2,0,P|316:35|267:5,1,120,8|0,0:0|0:0,0:0:0:0:
221,45,84981,1,0,1:0:0:0:
221,45,85153,1,8,0:0:0:0:
117,105,85498,70,0,L|-2:85,2,120,2|10|2,1:2|0:0|0:0,0:0:0:0:
160,154,86360,1,0,1:0:0:0:
160,154,86532,1,10,0:0:0:0:
268,103,86877,1,2,1:2:0:0:
345,194,87222,2,0,L|464:174,1,120,8|0,0:0|0:0,0:0:0:0:
500,127,87740,1,0,1:0:0:0:
500,127,87912,1,8,0:0:0:0:
430,29,88257,6,0,P|373:37|343:87,1,120,0|8,1:0|0:0,0:0:0:0:
420,186,88946,1,0,0:0:0:0:
420,186,89119,2,0,L|411:246,1,60,0|8,1:0|0:0,0:0:0:0:
511,310,89636,2,0,P|481:359|423:368,1,120,0|8,1:0|0:0,0:0:0:0:
330,290,90326,1,0,0:0:0:0:
330,290,90498,1,0,1:0:0:0:
330,290,90671,2,0,L|270:299,1,60,8|8,0:0|0:0,0:0:0:0:
227,340,91015,70,0,L|108:320,1,120,4|10,1:0|0:0,0:0:0:0:
0,304,91705,2,0,L|9:244,1,60,2|0,0:0|1:0,0:0:0:0:
51,202,92050,2,2,L|42:142,1,60,10|2,0:1|0:1,0:0:0:0:
33,83,92395,1,0,1:0:0:0:
126,7,92740,2,0,L|146:126,1,120,8|0,0:0|0:0,0:0:0:0:
163,187,93257,1,0,1:0:0:0:
163,187,93429,2,0,L|223:178,1,60,10|0,0:1|0:0,0:0:0:0:
281,169,93774,5,0,1:0:0:0:
261,50,94119,2,0,L|380:30,1,120,8|0,0:0|0:0,0:0:0:0:
442,24,94636,1,0,1:0:0:0:
442,24,94808,1,8,0:0:0:0:
512,122,95153,1,0,1:0:0:0:
392,137,95498,2,0,L|412:256,1,120,8|0,0:0|0:0,0:0:0:0:
467,289,96015,1,0,1:0:0:0:
467,289,96188,1,8,0:0:0:0:
376,368,96533,70,0,P|318:359|287:310,2,120,2|10|2,1:2|0:0|0:0,0:0:0:0:
422,329,97395,1,0,1:0:0:0:
422,329,97567,2,0,L|413:269,1,60,10|0,0:1|0:0,0:0:0:0:
401,210,97912,1,0,1:0:0:0:
505,150,98257,2,0,L|485:31,1,120,8|0,0:0|0:0,0:0:0:0:
438,3,98774,1,0,1:0:0:0:
438,3,98946,2,0,L|378:12,1,60,10|0,0:1|0:0,0:0:0:0:
339,57,99291,5,0,1:0:0:0:
258,146,99636,2,0,P|200:137|169:88,1,120,8|0,0:0|0:0,0:0:0:0:
202,38,100153,1,0,1:0:0:0:
202,38,100326,1,8,0:0:0:0:
88,0,100671,2,0,P|30:9|-1:58,1,120,0|8,1:0|0:0,0:0:0:0:
73,151,101360,2,0,L|64:211,1,60,0|0,0:0|1:0,0:0:0:0:
21,253,101705,70,0,P|52:302|109:310,1,120,8|6,0:0|1:2,0:0:0:0:
207,380,102395,2,0,L|325:357,1,120,10|2,0:0|0:0,0:0:0:0:
360,310,102912,1,0,1:0:0:0:
360,310,103084,2,0,L|351:250,1,60,10|2,0:1|0:1,0:0:0:0:
387,202,103429,1,0,1:0:0:0:
278,151,103774,2,0,L|298:32,1,120,8|0,0:0|0:0,0:0:0:0:
353,5,104291,1,0,1:0:0:0:
353,5,104463,2,0,L|413:14,1,60,10|0,0:1|0:0,0:0:0:0:
471,22,104808,5,0,1:0:0:0:
409,125,105153,2,0,L|429:244,1,120,8|0,0:0|0:0,0:0:0:0:
486,275,105671,1,0,1:0:0:0:
486,275,105843,1,8,0:0:0:0:
401,359,106188,69,0,1:0:0:0:
315,274,106533,2,0,P|257:281|226:330,1,120,8|0,0:0|0:0,0:0:0:0:
184,374,107050,1,0,1:0:0:0:
184,374,107222,1,8,0:0:0:0:
107,281,107567,6,0,L|87:162,2,120,2|10|2,1:2|0:0|0:0,0:0:0:0:
62,321,108429,1,0,1:0:0:0:
62,321,108602,2,0,L|2:312,1,60,10|0,0:1|0:0,0:0:0:0:
11,252,108946,1,0,1:0:0:0:
87,162,109291,2,0,P|145:169|176:218,1,120,8|0,0:0|0:0,0:0:0:0:
233,248,109808,1,0,1:0:0:0:
233,248,109981,2,0,L|293:239,1,60,10|0,0:1|0:0,0:0:0:0:
351,230,110326,69,0,1:0:0:0:
423,134,110671,2,0,P|391:85|334:78,1,120,8|0,0:0|0:0,0:0:0:0:
290,119,111188,1,0,1:0:0:0:
290,119,111360,1,8,0:0:0:0:
232,13,111705,2,0,P|174:20|142:68,1,120,0|8,1:0|0:0,0:0:0:0:
42,135,112395,2,0,L|51:195,1,60,0|0,0:0|1:0,0:0:0:0:
22,250,112740,21,8,0:0:0:0:
22,250,112912,1,8,0:0:0:0:
22,250,113084,2,0,B|86:268|86:268|137:230,1,132.00000402832,4|8,1:0|0:0,0:0:0:0:
238,152,113774,2,0,L|316:163,1,66.0000020141602,2|0,3:1|1:0,0:0:0:0:
345,208,114119,2,2,L|478:185,1,132.00000402832,10|0,0:1|1:0,0:1:0:0:
495,58,114808,6,0,P|469:17|421:11,2,99.0000030212403,8|0|0,0:0|3:0|1:0,0:0:0:0:
485,120,115498,2,0,L|474:192,1,66.0000020141602,8|4,0:0|3:0,0:0:0:0:
426,226,115843,2,0,L|448:359,1,132.00000402832,4|8,1:2|0:0,0:0:0:0:
324,382,116533,1,2,3:1:0:0:
298,258,116877,2,2,L|232:267,1,66.0000020141602,10|0,0:1|0:0,0:1:0:0:
187,311,117222,69,0,1:0:0:0:
98,222,117567,2,0,L|0:207,2,99.0000030212403,8|0|0,0:0|3:0|1:0,0:0:0:0:
148,184,118257,2,0,L|138:118,1,66.0000020141602,8|8,0:0|3:0,0:0:0:0:
96,71,118602,2,0,P|130:17|194:9,1,132.00000402832,4|8,1:0|0:0,0:0:0:0:
294,83,119291,2,0,L|360:74,1,66.0000020141602,2|0,3:1|1:0,0:0:0:0:
393,20,119636,2,2,P|456:28|490:82,1,132.00000402832,10|0,0:1|1:0,0:1:0:0:
416,184,120326,6,0,L|431:282,2,99.0000030212403,8|0|0,0:0|3:0|1:0,0:0:0:0:
372,146,121015,2,0,L|306:155,1,66.0000020141602,8|8,0:0|3:0,0:0:0:0:
251,125,121360,2,0,L|230:259,1,132.00000402832,4|8,1:2|0:0,0:0:0:0:
312,350,122050,1,2,3:1:0:0:
189,377,122395,2,2,L|123:368,1,66.0000020141602,10|0,0:1|0:0,0:1:0:0:
61,358,122740,69,0,1:0:0:0:
1,247,123084,2,0,P|27:206|75:200,2,99.0000030212403,8|0|0,0:0|3:0|1:0,0:0:0:0:
37,311,123774,5,8,0:0:0:0:
37,311,123946,1,4,3:0:0:0:
37,311,124119,2,0,L|170:288,1,132.00000402832,4|10,1:0|0:0,0:0:0:0:
247,191,124808,2,0,L|237:125,1,66.0000020141602,2|0,3:1|1:0,0:0:0:0:
280,80,125153,2,2,L|149:57,1,132.00000402832,10|2,0:1|1:2,0:1:0:0:
31,14,125843,70,0,L|16:112,2,99.0000030212403,10|0|0,0:0|3:0|1:0,0:0:0:0:
84,48,126533,2,0,L|150:57,1,66.0000020141602,8|4,0:0|3:0,0:0:0:0:
192,101,126877,2,0,P|255:92|289:38,1,132.00000402832,4|8,1:2|0:0,0:0:0:0:
410,2,127567,1,2,3:1:0:0:
380,123,127912,2,2,L|390:190,1,66.0000020141602,10|0,0:1|0:0,0:1:0:0:
400,250,128257,5,0,1:0:0:0:
421,373,128602,2,0,P|468:366|494:325,2,99.0000030212403,8|0|0,0:0|3:0|1:0,0:0:0:0:
372,333,129291,2,0,L|306:342,1,66.0000020141602,8|4,0:0|3:0,0:0:0:0:
243,347,129636,2,0,P|188:313|179:249,1,132.00000402832,4|10,1:0|0:0,0:0:0:0:
120,138,130326,2,0,L|54:147,1,66.0000020141602,2|0,3:1|1:0,0:0:0:0:
18,198,130671,2,2,L|39:332,1,132.00000402832,10|2,0:1|1:2,0:1:0:0:
162,349,131360,70,0,L|260:364,2,99.0000030212403,10|0|0,0:0|3:0|1:0,0:0:0:0:
127,296,132050,2,0,L|137:230,1,66.0000020141602,8|0,0:0|0:0,0:0:0:0:
156,171,132395,2,0,P|219:180|253:234,1,132.00000402832,4|8,1:2|0:0,0:0:0:0:
339,325,133084,1,2,3:1:0:0:
452,270,133429,2,2,L|441:204,1,66.0000020141602,10|0,0:1|0:0,0:1:0:0:
431,142,133774,5,0,1:0:0:0:
313,96,134119,2,0,L|328:-2,2,99.0000030212403,8|0|0,0:0|3:0|1:0,0:0:0:0:
267,137,134808,1,8,0:0:0:0:
267,137,134981,1,8,0:0:0:0:
267,137,135153,1,4,1:0:0:0:
432,268,146188,6,0,L|448:173,2,96,2|0|0,0:3|0:0|0:0,0:0:0:0:
352,326,147228,1,0,0:0:0:0:
297,248,147575,2,0,L|313:153,1,96,2|0,0:3|0:0,0:0:0:0:
256,73,148268,2,0,L|161:56,1,96
81,114,148962,2,0,L|64:208,1,96,2|0,0:3|0:0,0:0:0:0:
122,289,149656,2,0,L|216:305,1,96
297,248,150349,2,0,L|313:153,1,96
256,73,151043,2,0,L|161:56,1,96
81,114,151705,6,0,L|64:208,2,96,2|0|0,0:3|0:0|0:0,0:0:0:0:
161,56,152745,1,0,0:0:0:0:
216,134,153092,2,0,L|199:228,1,96,2|0,0:3|0:0,0:0:0:0:
257,309,153785,2,0,L|351:325,1,96
432,268,154479,2,0,L|448:173,1,96,2|0,0:3|0:0,0:0:0:0:
391,93,155173,2,0,L|296:76,1,96
216,134,155866,2,0,L|199:228,1,96
257,309,156560,2,0,L|351:325,1,96
451,257,157222,5,4,1:0:0:0:
369,169,157566,2,0,L|389:50,1,120,8|0,0:0|0:0,0:0:0:0:
352,9,158084,1,0,1:0:0:0:
352,9,158256,2,0,L|292:18,1,60,10|0,0:0|0:0,0:0:0:0:
233,26,158601,1,0,1:0:0:0:
165,124,158946,2,0,L|46:104,1,120,8|0,0:0|0:0,0:0:0:0:
0,141,159463,1,0,1:0:0:0:
0,141,159635,2,0,L|9:201,1,60,10|0,0:0|0:0,0:0:0:0:
19,259,159980,5,0,1:0:0:0:
103,343,160325,2,0,P|160:335|190:286,1,120,8|0,0:0|0:0,0:0:0:0:
168,234,160842,1,0,1:0:0:0:
168,234,161015,1,10,0:0:0:0:
240,138,161359,2,0,P|297:146|327:196,1,120,0|8,1:0|0:0,0:0:0:0:
313,319,162049,1,0,0:0:0:0:
313,319,162222,2,0,L|373:328,1,60,0|10,1:0|0:0,0:0:0:0:
490,346,162739,69,0,1:0:0:0:
449,233,163084,2,0,L|469:114,1,120,8|0,0:0|0:0,0:0:0:0:
436,70,163601,1,0,1:0:0:0:
436,70,163773,2,0,L|376:79,1,60,10|0,0:0|0:0,0:0:0:0:
325,48,164118,1,0,1:0:0:0:
245,137,164463,2,0,L|265:256,1,120,8|0,0:0|0:0,0:0:0:0:
240,312,164980,1,0,1:0:0:0:
240,312,165153,2,0,L|180:321,1,60,10|0,0:0|0:0,0:0:0:0:
120,328,165497,5,0,1:0:0:0:
20,262,165842,2,0,P|28:205|77:175,1,120,8|0,0:0|0:0,0:0:0:0:
133,197,166359,1,0,1:0:0:0:
133,197,166532,1,10,0:0:0:0:
224,119,166877,2,0,P|215:61|165:31,1,120,0|8,1:0|0:0,0:0:0:0:
45,19,167566,2,0,L|54:79,1,60,0|0,0:0|1:0,0:0:0:0:
98,118,167911,70,0,L|78:236,1,120,8|0,0:0|1:0,0:0:0:0:
57,355,168601,2,0,L|176:335,1,120,8|0,0:0|0:0,0:0:0:0:
237,325,169118,1,0,1:0:0:0:
237,325,169290,2,0,L|228:265,1,60,10|0,0:0|0:0,0:0:0:0:
176,233,169635,1,0,1:0:0:0:
268,156,169980,2,0,L|387:176,1,120,8|0,0:0|0:0,0:0:0:0:
437,142,170497,1,0,1:0:0:0:
437,142,170670,2,0,L|428:82,1,60,10|0,0:0|0:0,0:0:0:0:
470,40,171015,5,0,1:0:0:0:
355,3,171359,2,0,P|297:10|266:60,1,120,8|0,0:0|0:0,0:0:0:0:
290,121,171877,1,0,1:0:0:0:
290,121,172049,1,10,0:0:0:0:
194,194,172394,2,0,L|214:312,1,120,0|8,1:0|0:0,0:0:0:0:
119,384,173084,1,0,0:0:0:0:
119,384,173256,2,0,L|59:375,1,60,0|10,1:0|0:0,0:0:0:0:
2,269,173773,69,0,1:0:0:0:
99,199,174118,2,0,L|79:80,1,120,8|0,0:0|0:0,0:0:0:0:
115,33,174635,1,0,1:0:0:0:
115,33,174808,2,0,L|175:24,1,60,10|0,0:0|0:0,0:0:0:0:
233,18,175153,1,0,1:0:0:0:
307,112,175497,2,0,L|426:132,1,120,8|0,0:0|0:0,0:0:0:0:
470,179,176015,1,0,1:0:0:0:
470,179,176187,2,0,L|461:239,1,60,10|0,0:0|0:0,0:0:0:0:
452,297,176532,5,0,1:0:0:0:
357,370,176877,2,0,P|299:363|268:313,1,120,8|0,0:0|0:0,0:0:0:0:
296,262,177394,1,0,1:0:0:0:
296,262,177566,1,10,0:0:0:0:
207,180,177911,2,0,P|149:187|118:237,1,120,0|8,1:0|0:0,0:0:0:0:
18,297,178601,1,0,0:0:0:0:
18,297,178773,1,0,1:0:0:0:
18,297,178946,2,0,L|27:357,1,60,10|8,0:0|0:0,0:0:0:0:
80,383,179290,70,0,L|199:363,1,120,4|10,1:0|0:0,0:0:0:0:
285,279,179980,2,0,L|276:219,1,60,2|0,0:0|1:0,0:0:0:0:
225,186,180325,2,0,L|216:126,1,60,10|2,0:0|0:1,0:0:0:0:
207,67,180670,1,0,1:0:0:0:
308,3,181015,2,0,P|366:10|397:60,1,120,8|0,0:0|0:0,0:0:0:0:
365,112,181532,1,0,1:0:0:0:
365,112,181704,2,0,L|374:172,1,60,10|0,0:1|0:0,0:0:0:0:
383,231,182049,5,0,1:0:0:0:
480,300,182394,2,0,P|449:349|392:355,1,120,8|0,0:0|0:0,0:0:0:0:
347,322,182911,1,0,1:0:0:0:
347,322,183084,1,10,0:0:0:0:
252,247,183428,1,0,1:0:0:0:
207,358,183773,2,0,L|88:338,1,120,8|0,0:0|0:0,0:0:0:0:
39,370,184290,1,0,1:0:0:0:
39,370,184463,1,10,0:0:0:0:
11,253,184808,70,0,P|42:203|99:197,2,120,2|10|2,1:2|0:0|0:0,0:0:0:0:
25,311,185670,1,0,1:0:0:0:
25,311,185842,2,0,L|85:302,1,60,10|2,0:0|0:1,0:0:0:0:
143,293,186187,1,0,1:0:0:0:
213,195,186532,2,0,L|193:76,1,120,8|0,0:0|0:0,0:0:0:0:
233,33,187049,1,0,1:0:0:0:
233,33,187222,2,0,L|293:42,1,60,10|0,0:1|0:0,0:0:0:0:
343,9,187566,5,0,1:0:0:0:
440,79,187911,2,0,L|420:198,1,120,8|0,0:0|0:0,0:0:0:0:
371,229,188428,1,0,1:0:0:0:
371,229,188601,1,10,0:0:0:0:
460,309,188946,2,0,P|429:359|372:365,1,120,0|8,1:0|0:0,0:0:0:0:
271,298,189635,2,0,L|211:307,1,60,0|0,0:0|1:0,0:0:0:0:
169,263,189980,70,0,L|189:144,1,120,8|6,0:0|1:2,0:0:0:0:
291,82,190670,2,0,P|260:32|203:25,1,120,10|2,0:0|0:0,0:0:0:0:
152,4,191187,1,0,1:0:0:0:
152,4,191359,2,0,L|92:13,1,60,10|2,0:0|0:1,0:0:0:0:
32,20,191704,1,0,1:0:0:0:
82,130,192049,2,0,L|62:249,1,120,8|0,0:0|0:0,0:0:0:0:
55,311,192566,1,0,1:0:0:0:
55,311,192739,2,0,L|115:320,1,60,10|0,0:1|0:0,0:0:0:0:
155,363,193084,5,0,1:0:0:0:
242,280,193428,2,0,L|361:300,1,120,8|0,0:0|0:0,0:0:0:0:
405,347,193946,1,0,1:0:0:0:
405,347,194118,1,10,0:0:0:0:
501,275,194463,1,0,1:0:0:0:
393,223,194808,2,0,L|413:104,1,120,8|0,0:0|0:0,0:0:0:0:
425,45,195325,1,0,1:0:0:0:
425,45,195497,1,10,0:0:0:0:
312,3,195842,70,0,P|254:9|224:59,2,120,2|10|2,1:2|0:2|0:0,0:0:0:0:
368,24,196704,1,0,1:0:0:0:
368,24,196877,2,0,L|359:84,1,60,10|2,0:0|0:1,0:0:0:0:
317,126,197222,1,0,1:0:0:0:
421,184,197566,2,0,L|441:303,1,120,8|0,0:0|0:0,0:0:0:0:
408,354,198084,1,0,1:0:0:0:
408,354,198256,2,0,L|348:345,1,60,10|0,0:1|0:0,0:0:0:0:
289,335,198601,5,0,1:0:0:0:
199,255,198946,2,0,L|80:275,1,120,8|0,0:0|0:0,0:0:0:0:
38,239,199463,1,0,1:0:0:0:
38,239,199635,2,0,L|47:179,1,60,10|0,0:0|0:0,0:0:0:0:
12,130,199980,2,0,P|42:80|99:72,1,120,0|8,1:0|0:0,0:0:0:0:
205,10,200670,1,0,0:0:0:0:
205,10,200842,1,0,1:0:0:0:
205,10,201015,2,0,L|265:19,1,60,10|8,0:0|0:0,0:0:0:0:
305,63,201359,70,0,L|285:182,1,120,4|10,1:0|0:0,0:0:0:0:
197,263,202049,2,0,L|206:323,1,60,2|0,0:0|1:0,0:0:0:0:
253,359,202394,2,0,L|313:350,1,60,10|2,0:0|0:1,0:0:0:0:
344,299,202739,1,0,1:0:0:0:
441,367,203084,2,0,P|491:337|499:279,1,120,8|0,0:0|0:0,0:0:0:0:
464,236,203601,1,0,1:0:0:0:
464,236,203773,2,0,L|473:176,1,60,10|0,0:1|0:0,0:0:0:0:
480,116,204118,5,0,1:0:0:0:
414,16,204463,2,0,P|356:24|326:73,1,120,8|0,0:0|0:0,0:0:0:0:
367,125,204980,1,0,1:0:0:0:
367,125,205153,2,0,L|358:185,1,60,10|0,0:0|0:0,0:0:0:0:
309,219,205497,1,0,1:0:0:0:
222,135,205842,2,0,L|103:155,1,120,8|0,0:0|0:0,0:0:0:0:
70,206,206359,1,0,1:0:0:0:
70,206,206532,1,10,0:0:0:0:
3,305,206877,70,0,L|122:325,2,120,2|10|2,1:2|0:0|0:0,0:0:0:0:
36,255,207739,1,0,1:0:0:0:
36,255,207911,2,0,L|27:195,1,60,10|2,0:0|0:1,0:0:0:0:
19,135,208256,1,0,1:0:0:0:
84,34,208601,2,0,P|141:41|172:91,1,120,8|0,0:0|0:0,0:0:0:0:
224,130,209118,1,0,1:0:0:0:
224,130,209290,2,0,L|215:190,1,60,10|0,0:1|0:0,0:0:0:0:
167,226,209635,5,0,1:0:0:0:
254,307,209980,2,0,L|373:327,1,120,8|0,0:0|0:0,0:0:0:0:
415,376,210497,1,0,1:0:0:0:
415,376,210670,1,10,0:0:0:0:
481,276,211015,2,0,L|461:157,1,120,0|8,1:0|0:0,0:0:0:0:
440,39,211704,2,0,L|380:48,1,60,0|0,0:0|1:0,0:0:0:0:
332,11,212049,70,0,P|275:18|244:68,1,120,8|6,0:0|1:2,0:0:0:0:
269,186,212739,2,0,P|238:235|181:242,1,120,10|2,0:2|0:0,0:0:0:0:
139,204,213256,1,0,1:0:0:0:
139,204,213428,2,0,L|79:213,1,60,10|2,0:0|0:1,0:0:0:0:
31,176,213773,1,0,1:0:0:0:
40,56,214118,2,0,P|97:62|128:111,1,120,8|0,0:0|0:0,0:0:0:0:
187,139,214635,1,0,1:0:0:0:
187,139,214808,2,0,L|247:130,1,60,10|0,0:1|0:0,0:0:0:0:
305,121,215153,5,0,1:0:0:0:
423,100,215497,2,0,L|443:219,1,120,8|0,0:0|0:0,0:0:0:0:
499,251,216015,1,0,1:0:0:0:
499,251,216187,1,10,0:0:0:0:
436,353,216532,1,0,1:0:0:0:
333,290,216877,2,0,L|214:310,1,120,8|0,0:0|0:0,0:0:0:0:
182,362,217394,1,0,1:0:0:0:
182,362,217566,1,10,0:0:0:0:
114,262,217911,70,0,P|57:268|26:317,2,120,4|10|2,1:0|0:2|0:0,0:0:0:0:
148,312,218773,1,0,1:0:0:0:
148,312,218946,2,0,L|208:303,1,60,10|2,0:0|0:1,0:0:0:0:
266,294,219290,1,0,1:0:0:0:
361,221,219635,2,0,L|341:102,1,120,8|0,0:0|0:0,0:0:0:0:
303,62,220153,1,0,1:0:0:0:
303,62,220325,2,0,L|243:71,1,60,10|0,0:1|0:0,0:0:0:0:
195,35,220670,5,4,1:2:0:0:
160,146,221015,2,0,L|41:126,1,120,8|0,0:0|0:0,0:0:0:0:
0,170,221532,1,0,1:0:0:0:
0,170,221704,2,0,L|9:230,1,60,8|0,0:0|0:0,0:0:0:0:
16,288,222049,2,0,L|135:308,1,120,4|8,1:2|0:0,0:0:0:0:
252,326,222739,2,0,L|243:266,1,60,0|2,0:0|1:3,0:0:0:0:
283,224,223084,5,8,0:0:0:0:
283,224,223256,1,8,0:0:0:0:
283,224,223428,2,0,B|274:174|274:174|248:155|248:155|240:106,1,132.00000402832,4|8,1:0|0:0,0:0:0:0:
319,9,224118,2,0,L|384:18,1,66.0000020141602,0|0,3:0|1:0,0:0:0:0:
446,26,224463,2,0,L|427:156,1,132.00000402832,10|0,0:1|1:0,0:0:0:0:
511,249,225153,1,8,0:0:0:0:
441,353,225497,2,0,L|376:344,1,66.0000020141602,4|0,3:0|1:0,0:0:0:0:
333,296,225842,2,0,L|268:305,1,66.0000020141602,10|8,0:1|3:0,0:0:0:0:
224,350,226187,6,0,P|161:342|127:288,1,132.00000402832,4|8,1:2|0:0,0:0:0:0:
155,231,226704,1,0,3:0:0:0:
43,186,227049,1,0,1:0:0:0:
43,186,227222,2,0,L|62:56,1,132.00000402832,10|2,0:1|1:0,0:0:0:0:
175,1,227911,1,8,0:0:0:0:
267,86,228256,2,0,L|258:151,1,66.0000020141602,0|0,3:0|1:0,0:0:0:0:
248,213,228601,1,8,0:0:0:0:
345,291,228946,70,0,P|408:283|442:229,1,132.00000402832,4|8,1:0|0:0,0:0:0:0:
509,122,229635,2,0,L|500:57,1,66.0000020141602,0|0,3:0|1:0,0:0:0:0:
450,17,229980,2,0,L|385:26,1,66.0000020141602,10|0,0:1|0:0,0:0:0:0:
341,72,230325,1,4,1:2:0:0:
232,9,230670,1,12,0:1:0:0:
156,108,231015,2,0,L|165:173,1,66.0000020141602,4|0,3:0|1:0,0:0:0:0:
128,224,231359,2,0,L|63:233,1,66.0000020141602,8|4,0:0|3:0,0:0:0:0:
0,244,231704,6,0,L|19:374,1,132.00000402832,4|8,1:2|0:0,0:0:0:0:
140,340,232394,2,0,L|205:349,1,66.0000020141602,0|0,3:0|1:0,0:0:0:0:
267,358,232739,2,0,P|330:350|364:296,1,132.00000402832,10|0,0:1|1:0,0:0:0:0:
287,202,233428,1,8,0:0:0:0:
287,202,233601,2,2,L|306:72,1,132.00000402832,2|0,0:1|1:0,0:1:0:0:
353,30,234118,2,0,L|418:39,1,66.0000020141602,8|0,0:0|0:0,0:0:0:0:
480,51,234463,70,0,B|509:108|509:108|480:168,1,132.00000402832,4|10,1:0|0:0,0:0:0:0:
414,275,235153,2,0,L|349:266,1,66.0000020141602,2|0,3:2|1:0,0:0:0:0:
306,219,235497,2,0,L|176:238,1,132.00000402832,10|2,0:1|1:2,0:0:0:0:
84,325,236187,1,10,0:0:0:0:
8,224,236532,2,0,L|17:159,1,66.0000020141602,4|0,3:0|1:0,0:0:0:0:
32,98,236877,2,0,L|97:107,1,66.0000020141602,10|0,0:1|0:0,0:0:0:0:
144,148,237222,6,0,P|207:139|241:85,1,132.00000402832,4|8,1:2|0:0,0:0:0:0:
219,24,237739,1,0,3:0:0:0:
344,58,238084,1,0,1:0:0:0:
344,58,238256,2,0,L|474:39,1,132.00000402832,10|2,0:1|1:0,0:0:0:0:
496,162,238946,1,8,0:0:0:0:
372,182,239290,2,0,L|307:191,1,66.0000020141602,0|0,3:0|1:0,0:0:0:0:
256,153,239635,1,8,0:0:0:0:
209,269,239980,70,0,P|218:332|272:366,1,132.00000402832,4|10,1:0|0:0,0:0:0:0:
363,279,240670,2,0,L|428:270,1,66.0000020141602,2|0,3:2|1:0,0:0:0:0:
490,262,241015,2,0,L|481:197,1,66.0000020141602,10|0,0:1|0:0,0:0:0:0:
430,159,241359,1,6,1:2:0:0:
512,64,241704,1,12,0:1:0:0:
400,10,242049,2,0,L|335:19,1,66.0000020141602,4|0,3:0|1:0,0:0:0:0:
289,63,242394,2,0,L|224:54,1,66.0000020141602,10|4,0:2|3:0,0:0:0:0:
176,12,242739,6,0,L|46:31,1,132.00000402832,4|8,1:2|0:0,0:0:0:0:
63,155,243428,2,0,L|54:220,1,66.0000020141602,0|0,3:0|1:0,0:0:0:0:
100,263,243773,2,0,P|163:254|197:200,1,132.00000402832,10|0,0:1|1:0,0:0:0:0:
301,127,244463,1,8,0:0:0:0:
301,127,244635,2,2,P|364:136|398:190,1,132.00000402832,2|0,0:1|1:0,0:1:0:0:
371,251,245153,1,8,0:0:0:0:
371,251,245325,1,8,0:0:0:0:
371,251,245497,1,4,0:1:0:0:
