osu file format v14

[General]
AudioFilename: audio.mp3
AudioLeadIn: 0
PreviewTime: 135153
Countdown: 0
SampleSet: Soft
StackLeniency: 0.7
Mode: 0
LetterboxInBreaks: 0
WidescreenStoryboard: 1

[Editor]
Bookmarks: 57912,68946,113084,135153,157222,179290,223428,245497
DistanceSpacing: 1.2
BeatDivisor: 4
GridSize: 32
TimelineZoom: 1.4

[Metadata]
Title:;w;
TitleUnicode:;ω;
Artist:7_7
ArtistUnicode:7_7
Creator:fllecc
Version:Hard
Source:
Tags:fa featured artist mpg mappers' guild instrumental electronic d&b dnb drum & and bass breakcore toybot vikala
BeatmapID:4468563
BeatmapSetID:2122395

[Difficulty]
HPDrainRate:4
CircleSize:3.8
OverallDifficulty:6
ApproachRate:7.5
SliderMultiplier:1.5
SliderTickRate:1

[Events]
//Background and Video events
0,0,"F_nbmYAa8AARj0F.jpg",0,0
//Break Periods
2,140871,145363
//Storyboard Layer 0 (Background)
//Storyboard Layer 1 (Fail)
//Storyboard Layer 2 (Pass)
//Storyboard Layer 3 (Foreground)
//Storyboard Layer 4 (Overlay)
//Storyboard Sound Samples

[TimingPoints]
2740,344.827586206897,4,2,1,50,1,0
57912,-133.333333333333,4,2,1,50,0,0
63429,-133.333333333333,4,2,1,60,0,0
66188,-133.333333333333,4,2,1,50,0,0
66877,-133.333333333333,4,2,1,60,0,0
67222,-133.333333333333,4,2,1,70,0,0
68257,-100,4,2,1,90,0,0
68946,-100,4,2,1,80,0,0
113084,-83.3333333333333,4,2,1,90,0,1
135153,-100,4,2,1,90,0,0
135240,-133.333333333333,4,2,1,60,0,0
146188,346.820809248555,4,2,1,60,1,0
146188,-133.333333333333,4,2,1,60,0,0
151705,346.820809248555,4,2,1,60,1,0
151705,-133.333333333333,4,2,1,60,0,0
157222,344.827586206897,4,2,1,80,1,0
157222,-100,4,2,1,80,0,0
223428,-83.3333333333333,4,2,1,90,0,1
245497,-100,4,2,1,70,0,0

[Colours]
Combo1 : 207,207,207
Combo2 : 156,207,203
Combo3 : 208,170,221
Combo4 : 255,79,114
Combo5 : 255,113,194
Combo6 : 170,170,170

[HitObjects]
400,208,57912,70,0,L|512:191,2,112.500004291535,4|0|0,3:2|3:0|3:0,0:0:0:0:
270,120,58946,2,0,L|278:64,1,56.2500021457673,2|0,3:2|0:2,0:0:0:0:
225,5,59291,2,0,P|115:14|46:100,1,225.000008583069,2|0,3:2|3:0,0:0:0:0:
167,226,60326,6,0,L|158:281,1,56.2500021457673,2|0,3:2|0:2,0:0:0:0:
185,355,60671,2,0,P|75:345|6:260,1,225.000008583069,0|0,3:0|3:2,0:0:0:0:
120,151,61705,2,0,L|163:143,2,28.1250010728836,2|0|0,3:2|0:0|0:0,0:0:0:0:
50,112,62050,1,0,3:0:0:0:
175,16,62395,70,0,L|231:24,1,56.2500021457673,0|0,3:0|0:0,0:0:0:0:
286,77,62740,2,0,L|329:69,3,28.1250010728836,2|0|0|0,3:2|0:0|0:0|0:0,0:0:0:0:
343,45,63084,2,0,L|386:37,3,28.1250010728836,2|0|0|0,3:2|0:0|0:0|0:0,0:0:0:0:
400,13,63429,22,0,L|456:21,1,56.2500021457673,8|0,0:1|3:0,0:0:0:0:
500,93,63774,2,0,L|443:101,1,56.2500021457673,8|0,0:1|3:0,0:0:0:0:
382,167,64119,1,8,0:1:0:0:
382,167,64291,1,8,0:1:0:0:
448,229,64464,1,8,0:1:0:0:
448,229,64636,1,8,0:1:0:0:
386,295,64808,6,0,L|330:286,1,56.2500021457673,8|0,0:1|3:0,0:0:0:0:
265,223,65153,2,0,L|209:231,1,56.2500021457673,8|0,0:1|3:0,0:0:0:0:
157,305,65498,1,8,0:1:0:0:
157,305,65671,1,8,0:1:0:0:
83,252,65843,1,8,0:1:0:0:
30,326,66015,2,0,L|38:381,1,56.2500021457673,8|0,0:1|0:0,0:0:0:0:
220,238,66533,38,0,L|247:243,3,28.1250010728836,8|8|8|8,0:0|0:0|0:0|0:0,0:0:0:0:
275,270,66877,2,0,L|302:275,3,28.1250010728836,8|8|8|8,0:0|0:0|0:0|0:0,0:0:0:0:
338,306,67222,2,0,L|365:311,3,28.1250010728836,8|8|8|8,0:1|0:1|0:1|0:1,0:0:0:0:
407,345,67567,1,8,0:3:0:0:
512,31,68257,54,2,P|371:48|331:184,1,300,4|4,3:0|1:0,0:1:0:0:
502,297,69291,54,0,L|513:221,1,75,10|0,0:0|0:0,0:0:0:0:
420,255,69636,1,2,0:0:0:0:
420,255,69722,1,0,0:0:0:0:
420,255,69808,2,0,L|344:266,1,75,0|10,1:0|0:0,0:0:0:0:
287,324,70153,1,0,0:0:0:0:
209,264,70326,2,0,P|137:274|98:336,1,150,2|8,1:2|0:0,0:0:0:0:
23,371,70843,1,0,0:0:0:0:
1,291,71015,2,0,L|12:215,1,75,0|0,0:0|1:0,0:0:0:0:
78,167,71360,2,0,L|67:91,1,75,8|0,0:0|0:0,0:0:0:0:
39,69,71619,5,0,0:0:0:0:
39,69,71705,2,0,L|191:47,1,150,0|8,1:0|0:0,0:0:0:0:
257,2,72222,1,0,0:0:0:0:
311,63,72395,2,0,L|300:137,1,75,0|0,0:0|1:0,0:0:0:0:
238,192,72740,1,8,0:0:0:0:
334,237,72912,1,0,0:0:0:0:
334,237,72998,1,0,0:0:0:0:
334,237,73084,2,0,P|406:227|445:165,1,150,0|8,1:0|0:0,0:0:0:0:
506,109,73602,1,0,0:0:0:0:
460,40,73774,2,0,L|386:51,1,75,0|0,0:0|1:0,0:0:0:0:
363,130,74119,1,8,0:0:0:0:
222,54,74464,70,0,B|190:14|190:14|93:33,1,150,2|10,1:2|0:0,0:0:0:0:
35,92,74981,1,0,0:0:0:0:
35,92,75067,1,0,0:0:0:0:
35,92,75153,2,0,L|46:166,1,75,2|0,0:0|1:0,0:0:0:0:
121,200,75498,2,0,L|110:274,1,75,10|0,0:2|0:0,0:0:0:0:
15,300,75843,2,0,P|53:361|125:371,1,150,2|8,1:2|0:0,0:0:0:0:
207,383,76360,1,0,0:0:0:0:
262,321,76533,2,0,L|251:247,1,75,0|0,0:0|1:0,0:0:0:0:
316,196,76877,1,8,0:0:0:0:
231,147,77050,5,0,0:0:0:0:
231,147,77136,1,0,0:0:0:0:
231,147,77222,2,0,P|269:85|341:75,1,150,0|8,1:0|0:0,0:0:0:0:
410,29,77740,1,0,0:0:0:0:
475,79,77912,2,0,L|464:153,1,75,0|0,0:0|1:0,0:0:0:0:
402,208,78257,2,0,L|413:282,1,75,8|0,0:0|0:0,0:0:0:0:
451,372,78602,2,0,L|302:350,1,150,0|8,1:0|0:0,0:0:0:0:
247,287,79119,1,0,0:0:0:0:
247,287,79205,1,0,0:0:0:0:
247,287,79291,2,0,L|173:298,1,75,0|0,0:0|1:0,0:0:0:0:
116,358,79636,1,8,0:0:0:0:
116,358,79722,2,0,L|42:347,1,75,4|8,3:0|0:0,0:0:0:0:
14,315,79981,70,0,B|-5:218|-5:218|35:186,1,150,6|10,1:2|0:0,0:0:0:0:
111,148,80498,1,0,0:0:0:0:
111,148,80584,1,0,0:0:0:0:
111,148,80671,2,0,L|100:74,1,75,2|0,0:0|1:0,0:0:0:0:
163,21,81015,1,10,0:2:0:0:
237,58,81188,1,0,0:0:0:0:
321,10,81360,2,0,P|392:20|430:82,1,150,2|8,1:2|0:0,0:0:0:0:
380,147,81877,2,0,L|306:136,1,75
245,192,82222,1,0,1:0:0:0:
322,221,82395,2,0,L|311:295,1,75,8|0,0:0|0:0,0:0:0:0:
284,328,82654,5,0,0:0:0:0:
284,328,82740,2,0,L|433:350,1,150,0|8,1:0|0:0,0:0:0:0:
495,296,83257,1,0,0:0:0:0:
449,227,83429,2,0,L|460:153,1,75,0|0,0:0|1:0,0:0:0:0:
472,70,83774,2,0,L|398:59,1,75,8|0,0:0|0:0,0:0:0:0:
316,4,84119,2,0,P|244:14|206:76,1,150,0|8,1:0|0:0,0:0:0:0:
270,143,84636,1,0,0:0:0:0:
270,143,84722,1,0,0:0:0:0:
270,143,84808,2,0,L|259:217,1,75,0|0,0:0|1:0,0:0:0:0:
317,276,85153,1,8,0:0:0:0:
178,384,85498,70,0,P|106:374|68:312,1,150,2|10,1:2|0:0,0:0:0:0:
11,252,86015,1,0,0:0:0:0:
91,232,86188,2,0,L|80:158,1,75,2|0,0:0|1:0,0:0:0:0:
12,109,86533,2,0,L|23:35,1,75,10|0,0:0|0:0,0:0:0:0:
57,10,86791,1,0,0:0:0:0:
57,10,86877,2,0,L|206:32,1,150,2|8,1:2|0:0,0:0:0:0:
269,100,87395,1,0,0:0:0:0:
269,100,87481,1,0,0:0:0:0:
269,100,87567,2,0,L|343:89,1,75,0|0,0:0|1:0,0:0:0:0:
388,19,87912,2,0,L|462:30,1,75,8|0,0:0|0:0,0:0:0:0:
509,115,88257,6,0,L|487:264,1,150,0|8,1:0|0:0,0:0:0:0:
424,317,88774,2,0,L|350:306,1,75
308,234,89119,1,0,1:0:0:0:
257,317,89291,2,0,L|145:333,1,112.5,8|0,0:0|0:0,0:0:0:0:
113,307,89636,70,0,L|124:233,1,75,0|0,1:0|0:0,0:0:0:0:
185,176,89981,2,0,L|174:102,1,75,8|0,0:0|0:0,0:0:0:0:
203,72,90240,1,0,0:0:0:0:
203,72,90326,1,0,0:0:0:0:
123,30,90498,1,0,1:0:0:0:
53,84,90671,1,8,0:0:0:0:
53,84,90757,1,8,0:0:0:0:
53,84,90843,2,0,L|58:121,1,37.5,8|8,0:0|0:0,0:0:0:0:
35,160,91015,6,0,B|67:200|67:200|164:181,1,150,4|10,1:0|0:0,0:0:0:0:
215,116,91533,1,0,0:0:0:0:
248,191,91705,2,0,L|237:265,1,75,2|0,0:0|1:0,0:0:0:0:
175,321,92050,1,10,0:1:0:0:
263,361,92222,2,0,P|334:351|372:289,1,150,2|0,0:1|0:0,0:0:0:0:
441,242,92740,1,8,0:0:0:0:
365,210,92912,1,0,0:0:0:0:
365,210,92998,1,0,0:0:0:0:
365,210,93084,2,0,L|376:136,1,75,0|0,0:0|1:0,0:0:0:0:
361,43,93429,70,0,P|433:53|471:116,1,150,10|0,0:1|1:0,0:0:0:0:
296,161,94119,2,0,L|222:150,1,75,8|0,0:0|0:0,0:0:0:0:
200,121,94377,1,0,0:0:0:0:
200,121,94464,2,0,L|126:132,1,75,0|0,0:0|1:0,0:0:0:0:
53,91,94808,1,8,0:0:0:0:
24,168,94981,1,0,0:0:0:0:
100,228,95153,2,0,L|78:377,1,150,0|8,1:0|0:0,0:0:0:0:
168,374,95671,1,0,0:0:0:0:
168,374,95757,1,0,0:0:0:0:
168,374,95843,2,0,L|242:363,1,75,0|0,0:0|1:0,0:0:0:0:
286,292,96188,2,0,L|275:218,1,75,8|0,0:0|0:0,0:0:0:0:
180,193,96533,6,0,P|217:131|289:121,1,150,2|10,1:2|0:0,0:0:0:0:
347,179,97050,1,0,0:0:0:0:
414,131,97222,2,0,L|403:57,1,75,2|0,0:0|1:0,0:0:0:0:
470,9,97567,1,10,0:1:0:0:
512,106,97740,1,0,0:0:0:0:
512,106,97826,1,0,0:0:0:0:
512,106,97912,2,0,L|490:255,1,150,0|8,1:0|0:0,0:0:0:0:
419,297,98429,1,0,0:0:0:0:
346,337,98602,2,0,L|272:326,1,75,0|0,0:0|1:0,0:0:0:0:
202,257,98946,70,0,P|130:266|92:328,1,150,10|0,0:1|1:0,0:0:0:0:
297,234,99636,2,0,L|286:160,1,75,8|0,0:0|0:0,0:0:0:0:
254,141,99895,1,0,0:0:0:0:
254,141,99981,2,0,L|265:67,1,75,0|0,0:0|1:0,0:0:0:0:
210,4,100326,1,8,0:0:0:0:
152,84,100498,1,0,0:0:0:0:
152,84,100584,1,0,0:0:0:0:
152,84,100671,2,0,L|3:62,1,150,0|8,1:0|0:0,0:0:0:0:
16,143,101188,1,0,0:0:0:0:
28,224,101360,2,0,L|39:298,1,75,0|0,0:0|1:0,0:0:0:0:
118,364,101705,1,8,0:0:0:0:
118,364,101791,2,0,L|129:290,1,75,4|8,3:0|0:0,0:0:0:0:
157,259,102050,6,0,B|254:240|254:240|286:280,1,150,6|10,1:2|0:0,0:0:0:0:
267,366,102567,1,0,0:0:0:0:
267,366,102653,1,0,0:0:0:0:
267,366,102740,2,0,L|341:355,1,75,2|0,0:0|1:0,0:0:0:0:
423,350,103084,1,10,0:1:0:0:
383,278,103257,2,0,L|405:130,1,150,2|0,0:1|0:0,0:0:0:0:
476,88,103774,1,8,0:0:0:0:
404,47,103946,1,0,0:0:0:0:
404,47,104033,1,0,0:0:0:0:
404,47,104119,2,0,L|330:58,1,75,0|0,0:0|1:0,0:0:0:0:
249,0,104464,70,0,L|227:148,1,150,10|0,0:1|1:0,0:0:0:0:
276,214,104981,1,0,1:0:0:0:
194,226,105153,2,0,L|120:215,1,75,8|0,0:0|0:0,0:0:0:0:
100,184,105412,1,0,0:0:0:0:
100,184,105498,2,0,L|111:109,1,75,0|0,0:0|1:0,0:0:0:0:
58,45,105843,1,8,0:0:0:0:
139,33,106015,1,0,0:0:0:0:
206,103,106188,2,0,L|354:80,1,150,0|8,1:0|0:0,0:0:0:0:
409,19,106705,1,0,0:0:0:0:
409,19,106791,1,0,0:0:0:0:
409,19,106877,2,0,L|483:30,1,75,0|0,0:0|1:0,0:0:0:0:
473,112,107222,2,0,L|484:186,1,75,8|0,0:0|0:0,0:0:0:0:
462,223,107481,5,0,0:0:0:0:
462,223,107567,2,0,P|390:232|352:294,1,150,2|10,1:2|0:0,0:0:0:0:
391,366,108084,1,0,0:0:0:0:
308,364,108257,2,0,L|234:353,1,75,2|0,0:0|1:0,0:0:0:0:
186,284,108602,1,10,0:1:0:0:
143,374,108774,1,0,0:0:0:0:
143,374,108860,1,0,0:0:0:0:
143,374,108946,2,0,P|71:365|33:303,1,150,0|8,1:0|0:0,0:0:0:0:
77,233,109464,1,0,0:0:0:0:
21,173,109636,1,0,0:0:0:0:
64,103,109808,1,0,1:0:0:0:
8,43,109981,70,0,L|156:66,1,150,10|0,0:1|1:0,0:0:0:0:
226,21,110498,1,0,1:0:0:0:
229,103,110671,2,0,L|218:177,1,75,8|0,0:0|0:0,0:0:0:0:
189,206,110929,1,0,0:0:0:0:
189,206,111015,2,0,L|200:280,1,75,0|0,0:0|1:0,0:0:0:0:
255,341,111360,1,8,0:0:0:0:
327,300,111533,1,0,0:0:0:0:
393,371,111705,6,0,P|465:362|503:300,1,150,0|8,1:0|0:0,0:0:0:0:
439,246,112222,1,0,0:0:0:0:
439,246,112308,1,0,0:0:0:0:
439,246,112395,2,0,L|450:172,1,75,0|0,0:0|1:0,0:0:0:0:
512,98,112740,1,8,0:0:0:0:
512,98,112826,1,8,0:0:0:0:
512,98,112912,2,0,L|505:53,1,37.5,8|8,0:0|0:0,0:0:0:0:
479,25,113084,6,0,B|411:13|411:13|375:37|375:37|309:25,1,179.999994506836,4|8,1:0|0:0,0:0:0:0:
217,18,113602,1,0,3:0:0:0:
245,104,113774,2,0,L|259:202,1,89.9999972534181,2|0,3:1|1:0,0:0:0:0:
181,269,114119,2,2,P|94:258|49:184,1,179.999994506836,10|0,0:1|1:0,0:1:0:0:
3,106,114636,1,0,1:0:0:0:
110,97,114808,6,0,B|197:83|197:83|212:39,2,134.999995880127,8|0|0,0:0|3:0|1:0,0:0:0:0:
50,28,115498,1,8,0:0:0:0:
3,106,115671,69,4,3:0:0:0:
3,106,115757,1,8,3:0:0:0:
3,106,115843,2,0,L|30:288,1,179.999994506836,4|8,1:2|0:0,0:0:0:0:
9,372,116360,1,0,3:0:0:0:
95,346,116533,2,0,L|184:358,1,89.9999972534181,2|0,3:1|1:0,0:0:0:0:
248,295,116877,1,8,0:0:0:0:
248,295,116964,2,2,L|236:206,1,89.9999972534181,2|0,0:1|0:0,0:1:0:0:
262,169,117222,6,0,L|351:181,1,89.9999972534181,0|0,1:0|1:0,0:0:0:0:
429,106,117567,2,0,B|379:59|379:59|317:86,2,134.999995880127,8|0|0,0:0|3:0|1:0,0:0:0:0:
453,202,118257,1,8,0:0:0:0:
453,202,118343,1,0,1:0:0:0:
453,202,118429,1,4,3:0:0:0:
475,289,118602,70,0,P|429:363|343:373,1,179.999994506836,4|8,1:0|0:0,0:0:0:0:
285,303,119119,1,0,3:0:0:0:
285,303,119205,1,0,3:0:0:0:
285,303,119291,2,0,L|297:214,1,89.9999972534181,2|0,3:1|1:0,0:0:0:0:
229,129,119636,2,2,P|142:140|97:214,1,179.999994506836,10|0,0:1|1:0,0:1:0:0:
178,253,120153,1,0,1:0:0:0:
98,327,120326,6,0,P|31:318|-2:262,2,134.999995880127,8|0|0,0:0|3:0|1:0,0:0:0:0:
168,382,121015,1,8,0:0:0:0:
248,340,121188,1,8,3:0:0:0:
175,281,121360,70,0,L|201:102,1,179.999994506836,4|8,1:2|0:0,0:0:0:0:
138,37,121877,1,0,3:0:0:0:
226,17,122050,2,0,L|315:29,1,89.9999972534181,2|0,3:1|1:0,0:0:0:0:
383,96,122395,1,8,0:0:0:0:
383,96,122481,2,2,L|472:84,1,89.9999972534181,2|0,0:1|0:0,0:1:0:0:
502,117,122740,6,0,L|490:206,1,89.9999972534181,0|0,1:0|1:0,0:0:0:0:
411,280,123084,2,0,B|364:230|364:230|391:168,2,134.999995880127,8|0|0,0:0|3:0|1:0,0:0:0:0:
486,346,123774,1,8,0:0:0:0:
486,346,123860,1,0,1:0:0:0:
486,346,123946,1,4,3:0:0:0:
384,383,124119,70,0,P|297:372|252:298,1,179.999994506836,4|10,1:0|0:0,0:0:0:0:
198,225,124636,1,0,3:0:0:0:
287,212,124808,2,0,L|275:123,1,89.9999972534181,2|0,3:1|1:0,0:0:0:0:
203,41,125153,2,2,P|116:52|71:126,1,179.999994506836,10|2,0:1|1:2,0:1:0:0:
1,184,125671,1,0,1:0:0:0:
94,237,125843,6,0,L|227:218,2,134.999995880127,10|0|0,0:0|3:0|1:0,0:0:0:0:
33,303,126533,1,8,0:0:0:0:
115,360,126705,69,4,3:0:0:0:
115,360,126791,1,8,3:0:0:0:
115,360,126877,2,0,L|293:333,1,179.999994506836,4|8,1:2|0:0,0:0:0:0:
373,374,127395,1,0,3:0:0:0:
434,308,127567,2,0,L|422:219,1,89.9999972534181,2|0,3:1|1:0,0:0:0:0:
353,168,127912,1,8,0:0:0:0:
353,168,127998,2,2,L|365:79,1,89.9999972534181,2|0,0:1|0:0,0:1:0:0:
395,44,128257,6,0,L|484:56,1,89.9999972534181,0|0,1:0|1:0,0:0:0:0:
470,163,128602,2,0,B|456:250|456:250|412:265,2,134.999995880127,8|0|0,0:0|3:0|1:0,0:0:0:0:
380,150,129291,1,8,0:0:0:0:
380,150,129377,1,0,1:0:0:0:
380,150,129464,1,4,3:0:0:0:
290,137,129636,70,0,B|193:110|212:165|114:138,1,179.999994506836,4|10,1:0|0:0,0:0:0:0:
37,88,130153,1,0,3:0:0:0:
37,88,130240,1,0,3:0:0:0:
37,88,130326,2,0,L|49:-1,1,89.9999972534181,2|0,3:1|1:0,0:0:0:0:
141,55,130671,2,2,L|165:233,1,179.999994506836,10|2,0:1|1:2,0:1:0:0:
245,273,131188,1,0,1:0:0:0:
167,347,131360,6,0,P|100:338|67:282,2,134.999995880127,10|0|0,0:0|3:0|1:0,0:0:0:0:
250,382,132050,1,8,0:0:0:0:
319,324,132222,1,0,0:0:0:0:
245,273,132395,70,0,L|272:95,1,179.999994506836,4|8,1:2|0:0,0:0:0:0:
218,22,132912,1,0,3:0:0:0:
306,5,133084,2,0,L|395:17,1,89.9999972534181,2|0,3:1|1:0,0:0:0:0:
465,81,133429,1,8,0:1:0:0:
465,81,133515,2,2,L|453:170,1,89.9999972534181,2|0,0:1|0:0,0:1:0:0:
419,201,133774,6,0,L|330:189,1,89.9999972534181,0|0,1:0|1:0,0:0:0:0:
254,266,134119,2,0,B|304:313|304:313|364:286,2,134.999995880127,8|0|0,0:0|3:0|1:0,0:0:0:0:
192,200,134808,2,0,L|199:155,3,44.999998626709,8|8|8|8,0:0|0:0|0:0|0:0,0:0:0:0:
172,118,135153,1,4,1:0:0:0:
256,192,135240,12,0,140671,0:0:0:0:
110,214,146188,6,0,L|0:195,2,112.500004291535,2|0|0,0:3|0:0|0:0,0:0:0:0:
201,114,147228,1,0,0:0:0:0:
284,220,147575,2,0,L|394:200,1,112.500004291535,2|0,0:3|0:0,0:0:0:0:
495,93,148268,2,0,L|384:113,1,112.500004291535
493,240,148962,2,0,L|483:185,2,56.2500021457673,2|0|0,0:3|0:0|0:0,0:0:0:0:
505,380,149656,6,0,L|394:360,1,112.500004291535
312,252,150349,2,0,L|201:232,1,112.500004291535
119,124,151043,2,0,L|8:104,1,112.500004291535
88,330,151705,70,0,L|108:219,2,112.500004291535,2|0|0,0:3|0:0|0:0,0:0:0:0:
221,351,152745,1,0,0:0:0:0:
305,245,153092,2,0,L|285:135,1,112.500004291535,2|0,0:3|0:0,0:0:0:0:
176,35,153785,2,0,L|196:145,1,112.500004291535
326,38,154479,2,0,L|270:48,2,56.2500021457673,2|0|0,0:3|0:0|0:0,0:0:0:0:
470,13,155173,6,0,L|450:123,1,112.500004291535
304,139,155866,2,0,L|284:249,1,112.500004291535
138,265,156560,2,0,L|118:375,1,112.500004291535
4,199,157222,6,0,L|29:46,1,150,4|8,1:0|0:0,0:0:0:0:
100,7,157739,1,0,0:0:0:0:
152,70,157911,2,0,L|226:59,1,75,0|0,0:0|1:0,0:0:0:0:
292,9,158256,2,0,L|366:20,1,75,10|0,0:0|0:0,0:0:0:0:
461,44,158601,2,0,P|424:106|352:116,1,150,0|8,1:0|0:0,0:0:0:0:
277,153,159118,1,0,0:0:0:0:
277,153,159204,1,0,0:0:0:0:
277,153,159290,2,0,L|288:227,1,75,0|0,0:0|1:0,0:0:0:0:
222,277,159635,2,0,L|233:351,1,75,10|0,0:0|0:0,0:0:0:0:
325,382,159980,6,0,P|397:372|435:310,1,150,0|8,1:0|0:0,0:0:0:0:
497,255,160497,1,0,0:0:0:0:
418,228,160670,2,0,L|429:154,1,75,0|0,0:0|1:0,0:0:0:0:
495,104,161015,1,10,0:0:0:0:
419,71,161187,1,0,0:0:0:0:
343,38,161359,2,0,L|195:60,1,150,0|8,1:0|0:0,0:0:0:0:
127,10,161877,1,0,0:0:0:0:
127,10,161963,1,0,0:0:0:0:
127,10,162049,2,0,L|53:21,1,75,0|0,0:0|1:0,0:0:0:0:
4,88,162394,1,10,0:0:0:0:
60,226,162739,70,0,P|131:235|169:297,1,150,0|8,1:0|0:0,0:0:0:0:
93,330,163256,1,0,0:0:0:0:
160,380,163428,2,0,L|234:369,1,75,0|0,0:0|1:0,0:0:0:0:
280,300,163773,2,0,L|269:226,1,75,10|0,0:0|0:0,0:0:0:0:
202,154,164118,2,0,L|227:1,1,150,0|8,1:0|0:0,0:0:0:0:
309,46,164635,1,0,0:0:0:0:
309,46,164722,1,0,0:0:0:0:
309,46,164808,2,0,L|383:35,1,75,0|0,0:0|1:0,0:0:0:0:
465,22,165153,2,0,L|476:96,1,75,10|0,0:0|0:0,0:0:0:0:
398,155,165497,6,0,L|422:303,1,150,0|8,1:0|0:0,0:0:0:0:
487,353,166015,1,0,0:0:0:0:
409,383,166187,2,0,L|335:372,1,75,0|0,0:0|1:0,0:0:0:0:
279,310,166532,1,10,0:0:0:0:
201,339,166704,1,0,0:0:0:0:
123,368,166877,2,0,P|51:358|13:296,1,150,0|8,1:0|0:0,0:0:0:0:
82,248,167394,1,0,0:0:0:0:
82,248,167480,1,0,0:0:0:0:
82,248,167566,2,0,L|71:174,1,75,0|0,0:0|1:0,0:0:0:0:
16,111,167911,1,8,0:0:0:0:
16,111,167997,2,0,L|27:37,1,75,4|8,3:0|0:0,0:0:0:0:
61,13,168256,70,0,P|133:23|171:85,1,150,0|8,1:0|0:0,0:0:0:0:
154,165,168773,1,0,0:0:0:0:
223,209,168946,2,0,L|297:198,1,75,0|0,0:0|1:0,0:0:0:0:
359,252,169290,2,0,L|433:241,1,75,10|0,0:0|0:0,0:0:0:0:
507,176,169635,2,0,L|483:28,1,150,0|8,1:0|0:0,0:0:0:0:
404,1,170153,1,0,0:0:0:0:
404,1,170239,1,0,0:0:0:0:
404,1,170325,2,0,L|330:12,1,75,0|0,0:0|1:0,0:0:0:0:
275,74,170670,2,0,L|286:148,1,75,10|0,0:0|0:0,0:0:0:0:
216,215,171015,6,0,L|68:191,1,150,0|8,1:0|0:0,0:0:0:0:
9,249,171532,1,0,0:0:0:0:
76,296,171704,2,0,L|87:370,1,75,0|0,0:0|1:0,0:0:0:0:
168,357,172049,1,10,0:0:0:0:
249,344,172222,1,0,0:0:0:0:
330,331,172394,2,0,L|478:355,1,150,0|8,1:0|0:0,0:0:0:0:
490,273,172911,1,0,0:0:0:0:
490,273,172997,1,0,0:0:0:0:
490,273,173084,2,0,L|479:199,1,75,0|0,0:0|1:0,0:0:0:0:
511,123,173428,1,10,0:0:0:0:
384,41,173773,70,0,P|312:51|274:113,1,150,0|8,1:0|0:0,0:0:0:0:
327,176,174290,1,0,0:0:0:0:
261,226,174463,2,0,L|187:215,1,75,0|0,0:0|1:0,0:0:0:0:
117,261,174808,2,0,L|43:250,1,75,10|0,0:0|0:0,0:0:0:0:
1,167,175153,2,0,L|25:19,1,150,0|8,1:0|0:0,0:0:0:0:
115,10,175670,1,0,0:0:0:0:
115,10,175756,1,0,0:0:0:0:
115,10,175842,2,0,L|126:83,1,75,0|0,0:0|1:0,0:0:0:0:
138,166,176187,2,0,L|149:240,1,75,10|0,0:0|0:0,0:0:0:0:
130,336,176532,6,0,P|202:326|240:264,1,150,0|8,1:0|0:0,0:0:0:0:
302,210,177049,1,0,0:0:0:0:
321,289,177222,2,0,L|395:300,1,75,0|0,0:0|1:0,0:0:0:0:
465,255,177566,1,10,0:0:0:0:
432,178,177739,1,0,0:0:0:0:
511,122,177911,70,0,P|472:60|401:50,1,150,0|8,1:0|0:0,0:0:0:0:
315,2,178428,1,0,0:0:0:0:
315,2,178515,1,0,0:0:0:0:
315,2,178601,2,0,L|304:76,1,75,0|0,0:0|1:0,0:0:0:0:
244,144,178946,1,10,0:0:0:0:
244,144,179032,1,8,0:0:0:0:
244,144,179118,2,0,L|249:181,1,37.5,8|8,0:0|0:0,0:0:0:0:
274,218,179290,6,0,B|242:258|242:258|145:239,1,150,4|10,1:0|0:0,0:0:0:0:
71,276,179808,1,0,0:0:0:0:
16,213,179980,2,0,L|27:139,1,75,2|0,0:0|1:0,0:0:0:0:
84,79,180325,1,10,0:0:0:0:
18,20,180497,1,2,0:1:0:0:
18,20,180584,1,0,0:0:0:0:
18,20,180670,2,0,L|166:44,1,150,0|8,1:0|0:0,0:0:0:0:
237,2,181187,1,0,0:0:0:0:
238,84,181359,2,0,L|227:158,1,75,0|0,0:0|1:0,0:0:0:0:
291,231,181704,70,0,P|362:220|401:159,1,150,10|0,0:1|1:0,0:0:0:0:
360,85,182222,1,0,1:0:0:0:
413,22,182394,2,0,L|487:33,1,75,8|0,0:0|0:0,0:0:0:0:
512,71,182653,1,0,0:0:0:0:
512,71,182739,2,0,L|501:144,1,75,0|0,0:0|1:0,0:0:0:0:
432,191,183084,1,10,0:0:0:0:
478,259,183256,1,0,0:0:0:0:
394,309,183428,2,0,L|246:285,1,150,0|8,1:0|0:0,0:0:0:0:
194,219,183946,1,0,0:0:0:0:
194,219,184032,1,0,0:0:0:0:
194,219,184118,2,0,L|120:230,1,75,0|0,0:0|1:0,0:0:0:0:
59,286,184463,2,0,L|70:360,1,75,10|0,0:0|0:0,0:0:0:0:
164,381,184808,6,0,P|235:370|274:309,1,150,2|10,1:2|0:0,0:0:0:0:
339,256,185325,1,0,0:0:0:0:
268,214,185497,2,0,L|279:140,1,75,2|0,0:0|1:0,0:0:0:0:
337,80,185842,1,10,0:0:0:0:
244,50,186015,1,2,0:1:0:0:
244,50,186101,1,0,0:0:0:0:
244,50,186187,2,0,L|96:74,1,150,0|8,1:0|0:0,0:0:0:0:
25,30,186704,1,0,0:0:0:0:
21,112,186877,2,0,L|32:186,1,75,0|0,0:0|1:0,0:0:0:0:
13,282,187222,70,0,P|84:271|123:210,1,150,10|0,0:1|1:0,0:0:0:0:
201,62,187911,2,0,L|275:51,1,75,8|0,0:0|0:0,0:0:0:0:
312,78,188170,1,0,0:0:0:0:
312,78,188256,2,0,L|386:67,1,75,0|0,0:0|1:0,0:0:0:0:
447,11,188601,1,10,0:0:0:0:
505,69,188773,1,0,0:0:0:0:
445,145,188946,2,0,L|469:293,1,150,0|8,1:0|0:0,0:0:0:0:
425,366,189463,1,0,0:0:0:0:
425,366,189549,1,0,0:0:0:0:
425,366,189635,2,0,L|351:355,1,75,0|0,0:0|1:0,0:0:0:0:
292,295,189980,1,8,0:0:0:0:
292,295,190066,2,0,L|218:306,1,75,4|8,3:0|0:0,0:0:0:0:
194,340,190325,6,0,P|123:329|84:268,1,150,6|10,1:2|0:0,0:0:0:0:
19,214,190842,1,0,0:0:0:0:
96,186,191015,2,0,L|85:112,1,75,2|0,0:0|1:0,0:0:0:0:
19,61,191359,1,10,0:0:0:0:
109,19,191532,1,2,0:1:0:0:
109,19,191618,1,0,0:0:0:0:
109,19,191704,2,0,L|257:43,1,150,0|8,1:0|0:0,0:0:0:0:
332,7,192222,1,0,0:0:0:0:
327,89,192394,2,0,L|316:163,1,75,0|0,0:0|1:0,0:0:0:0:
332,259,192739,70,0,P|260:247|221:185,1,150,10|0,0:1|1:0,0:0:0:0:
149,145,193256,1,0,1:0:0:0:
97,209,193428,2,0,L|108:283,1,75,8|0,0:0|0:0,0:0:0:0:
140,317,193687,1,0,0:0:0:0:
140,317,193773,2,0,L|214:328,1,75,0|0,0:0|1:0,0:0:0:0:
276,382,194118,1,10,0:0:0:0:
348,343,194290,1,0,0:0:0:0:
284,268,194463,2,0,L|308:120,1,150,0|8,1:0|0:0,0:0:0:0:
323,38,194980,1,0,0:0:0:0:
323,38,195066,1,0,0:0:0:0:
323,38,195153,2,0,L|397:49,1,75,0|0,0:0|1:0,0:0:0:0:
482,0,195497,2,0,L|500:111,1,112.5,10|0,0:0|0:0,0:0:0:0:
480,147,195842,6,0,P|408:159|369:221,1,150,2|10,1:2|0:2,0:0:0:0:
425,281,196359,1,0,0:0:0:0:
372,345,196532,2,0,L|298:334,1,75,2|0,0:0|1:0,0:0:0:0:
240,275,196877,1,10,0:0:0:0:
191,362,197049,1,2,0:1:0:0:
191,362,197135,1,0,0:0:0:0:
191,362,197222,2,0,L|43:338,1,150,0|8,1:0|0:0,0:0:0:0:
2,265,197739,1,0,0:0:0:0:
2,265,197825,1,0,0:0:0:0:
2,265,197911,2,0,L|13:191,1,75,0|0,0:0|1:0,0:0:0:0:
0,91,198256,70,0,P|72:103|111:165,1,150,10|0,0:1|1:0,0:0:0:0:
209,296,198946,2,0,L|283:285,1,75,8|0,0:0|0:0,0:0:0:0:
309,253,199204,1,0,0:0:0:0:
309,253,199290,2,0,L|298:179,1,75,0|0,0:0|1:0,0:0:0:0:
230,130,199635,1,10,0:0:0:0:
283,67,199808,1,0,0:0:0:0:
369,113,199980,6,0,L|443:102,1,75,0|0,1:0|0:0,0:0:0:0:
511,160,200325,2,0,L|500:234,1,75,8|0,0:0|0:0,0:0:0:0:
462,258,200584,1,0,0:0:0:0:
462,258,200670,1,0,0:0:0:0:
509,334,200842,1,0,1:0:0:0:
425,367,201015,1,10,0:0:0:0:
425,367,201101,1,8,0:0:0:0:
425,367,201187,2,0,L|387:361,1,37.5,8|8,0:0|0:0,0:0:0:0:
346,377,201359,70,0,B|306:345|306:345|325:248,1,150,4|10,1:0|0:0,0:0:0:0:
287,174,201877,1,0,0:0:0:0:
241,243,202049,2,0,L|167:232,1,75,2|0,0:0|1:0,0:0:0:0:
102,279,202394,1,10,0:0:0:0:
102,279,202480,1,0,0:0:0:0:
102,279,202566,1,2,0:1:0:0:
25,218,202739,2,0,L|49:70,1,150,0|8,1:0|0:0,0:0:0:0:
103,7,203256,1,0,0:0:0:0:
151,73,203428,2,0,L|225:62,1,75,0|0,0:0|1:0,0:0:0:0:
304,4,203773,6,0,L|452:28,1,150,10|0,0:1|1:0,0:0:0:0:
511,85,204290,1,0,1:0:0:0:
432,110,204463,2,0,L|443:184,1,75,8|0,0:0|0:0,0:0:0:0:
478,213,204722,1,0,0:0:0:0:
478,213,204808,2,0,L|467:287,1,75,0|0,0:0|1:0,0:0:0:0:
490,366,205153,1,10,0:0:0:0:
409,347,205325,1,0,0:0:0:0:
318,382,205497,2,0,L|170:358,1,150,0|8,1:0|0:0,0:0:0:0:
114,296,206015,1,0,0:0:0:0:
114,296,206101,1,0,0:0:0:0:
114,296,206187,2,0,L|125:222,1,75,0|0,0:0|1:0,0:0:0:0:
190,170,206532,2,0,L|179:96,1,75,10|0,0:0|0:0,0:0:0:0:
204,64,206790,69,0,0:0:0:0:
204,64,206877,2,0,L|56:40,1,150,2|10,1:2|0:0,0:0:0:0:
2,103,207394,1,0,0:0:0:0:
66,154,207566,2,0,L|55:228,1,75,2|0,0:0|1:0,0:0:0:0:
107,292,207911,1,10,0:0:0:0:
24,336,208084,1,2,0:1:0:0:
24,336,208170,1,0,0:0:0:0:
24,336,208256,2,0,L|172:360,1,150,0|8,1:0|0:0,0:0:0:0:
242,316,208773,1,0,0:0:0:0:
183,257,208946,2,0,L|194:183,1,75,0|0,0:0|1:0,0:0:0:0:
129,109,209290,6,0,P|168:47|239:35,1,150,10|0,0:1|1:0,0:0:0:0:
358,149,209980,2,0,L|432:138,1,75,8|0,0:0|0:0,0:0:0:0:
460,107,210239,1,0,0:0:0:0:
460,107,210325,2,0,L|449:33,1,75,0|0,0:0|1:0,0:0:0:0:
372,0,210670,1,10,0:0:0:0:
322,65,210842,1,0,0:0:0:0:
236,19,211015,2,0,L|88:43,1,150,0|8,1:0|0:0,0:0:0:0:
24,97,211532,1,0,0:0:0:0:
24,97,211618,1,0,0:0:0:0:
24,97,211704,2,0,L|35:171,1,75,0|0,0:0|1:0,0:0:0:0:
108,220,212049,1,8,0:0:0:0:
108,220,212135,2,0,L|97:294,1,75,4|8,3:0|0:0,0:0:0:0:
68,325,212394,70,0,L|216:349,1,150,6|10,1:2|0:2,0:0:0:0:
279,296,212911,1,0,0:0:0:0:
323,365,213084,2,0,L|397:354,1,75,2|0,0:0|1:0,0:0:0:0:
484,339,213428,1,10,0:0:0:0:
484,339,213515,1,0,0:0:0:0:
484,339,213601,1,2,0:1:0:0:
418,267,213773,2,0,L|442:119,1,150,0|8,1:0|0:0,0:0:0:0:
509,71,214290,1,0,0:0:0:0:
460,4,214463,2,0,L|386:15,1,75,0|0,0:0|1:0,0:0:0:0:
315,82,214808,6,0,P|243:69|204:8,1,150,10|0,0:1|1:0,0:0:0:0:
125,33,215325,1,0,1:0:0:0:
46,58,215497,2,0,L|57:132,1,75,8|0,0:0|0:0,0:0:0:0:
4,196,215842,2,0,L|15:270,1,75,0|0,0:0|1:0,0:0:0:0:
98,321,216187,1,10,0:0:0:0:
177,346,216359,1,0,0:0:0:0:
256,371,216532,2,0,L|404:347,1,150,0|8,1:0|0:0,0:0:0:0:
459,285,217049,1,0,0:0:0:0:
459,285,217135,1,0,0:0:0:0:
459,285,217222,2,0,L|448:211,1,75,0|0,0:0|1:0,0:0:0:0:
382,161,217566,2,0,L|393:87,1,75,10|0,0:0|0:0,0:0:0:0:
372,57,217825,69,0,0:0:0:0:
372,57,217911,2,0,P|300:69|261:131,1,150,4|10,1:0|0:2,0:0:0:0:
307,199,218428,1,0,0:0:0:0:
245,254,218601,2,0,L|171:243,1,75,2|0,0:0|1:0,0:0:0:0:
96,277,218946,1,10,0:0:0:0:
96,277,219032,1,0,0:0:0:0:
96,277,219118,1,2,0:1:0:0:
28,205,219290,2,0,L|52:57,1,150,0|8,1:0|0:0,0:0:0:0:
122,15,219808,1,0,0:0:0:0:
184,69,219980,1,0,0:0:0:0:
254,28,220153,1,0,1:0:0:0:
322,97,220325,6,0,L|298:245,1,150,10|4,0:1|1:2,0:0:0:0:
226,287,220842,1,0,1:0:0:0:
286,342,221015,2,0,L|360:353,1,75,8|0,0:0|0:0,0:0:0:0:
396,382,221273,1,0,0:0:0:0:
396,382,221359,2,0,L|470:371,1,75,0|0,0:0|1:0,0:0:0:0:
510,298,221704,1,8,0:0:0:0:
458,233,221877,1,0,0:0:0:0:
505,147,222049,70,0,P|465:85|394:73,1,150,4|8,1:2|0:0,0:0:0:0:
319,27,222566,1,0,0:0:0:0:
319,27,222653,1,0,0:0:0:0:
319,27,222739,2,0,L|308:101,1,75,0|2,0:0|1:3,0:0:0:0:
292,203,223084,1,8,0:0:0:0:
292,203,223170,1,8,0:0:0:0:
292,203,223256,2,0,L|286:239,1,37.5,8|8,0:0|0:0,0:0:0:0:
255,272,223428,22,0,B|158:245|177:300|79:273,1,179.999994506836,4|8,1:0|0:0,0:0:0:0:
15,208,223946,1,0,3:0:0:0:
15,208,224032,1,0,3:0:0:0:
15,208,224118,2,0,L|28:118,1,89.9999972534181,0|0,3:0|1:0,0:0:0:0:
104,41,224463,2,0,P|191:52|236:126,1,179.999994506836,10|0,0:1|1:0,0:0:0:0:
222,214,224980,5,2,1:0:0:0:
311,228,225153,2,0,L|400:215,1,89.9999972534181,8|0,0:0|0:0,0:0:0:0:
433,184,225411,1,8,3:0:0:0:
433,184,225497,2,0,L|420:94,1,89.9999972534181,4|0,3:0|1:0,0:0:0:0:
487,35,225842,1,10,0:1:0:0:
402,6,226015,1,8,3:0:0:0:
314,70,226187,70,0,B|275:21|275:21|159:44,1,179.999994506836,4|8,1:2|0:0,0:0:0:0:
78,85,226704,1,0,3:0:0:0:
145,146,226877,2,0,L|158:236,1,89.9999972534181,0|0,3:0|1:0,0:0:0:0:
246,222,227222,1,10,0:1:0:0:
257,320,227394,1,4,3:0:0:0:
179,381,227566,2,2,B|137:360|137:360|94:369,1,89.9999972534181,2|0,1:0|1:0,0:1:0:0:
1,264,227911,6,0,L|91:277,1,89.9999972534181,8|0,0:0|3:0,0:0:0:0:
132,256,228170,1,0,3:0:0:0:
132,256,228256,1,0,3:0:0:0:
103,170,228428,1,0,1:0:0:0:
13,174,228601,2,0,L|32:40,1,134.999995880127,8|0,0:0|0:0,0:0:0:0:
69,15,228946,70,0,P|156:26|201:100,1,179.999994506836,4|8,1:0|0:0,0:0:0:0:
214,197,229463,1,0,3:0:0:0:
214,197,229549,1,0,3:0:0:0:
214,197,229635,2,0,L|304:184,1,89.9999972534181,0|0,3:0|1:0,0:0:0:0:
367,120,229980,2,0,L|457:133,1,89.9999972534181,10|0,0:1|0:0,0:0:0:0:
505,229,230325,6,2,P|470:284|406:292,1,134.999995880127,4|0,1:2|0:0,0:1:0:0:
371,321,230670,2,2,L|281:308,1,89.9999972534181,12|0,0:1|0:0,0:1:0:0:
219,244,231015,2,0,L|228:199,2,44.999998626709,4|4|0,3:0|3:0|1:0,0:0:0:0:
196,331,231359,1,8,0:0:0:0:
110,355,231532,1,4,3:0:0:0:
46,292,231704,70,0,B|69:176|69:176|20:137,1,179.999994506836,4|8,1:2|0:0,0:0:0:0:
19,46,232222,1,0,3:0:0:0:
109,24,232394,2,0,L|199:37,1,89.9999972534181,0|0,3:0|1:0,0:0:0:0:
185,126,232739,2,0,L|172:216,1,89.9999972534181,10|0,0:1|0:0,0:0:0:0:
230,283,233084,5,0,1:0:0:0:
307,237,233256,2,0,L|397:250,1,89.9999972534181,0|8,1:0|0:0,0:0:0:0:
485,189,233601,2,2,L|459:11,1,179.999994506836,2|0,0:1|1:0,0:1:0:0:
379,49,234118,1,8,0:0:0:0:
379,49,234204,2,0,L|289:36,1,89.9999972534181,4|0,3:0|0:0,0:0:0:0:
251,60,234463,70,0,B|239:128|239:128|263:164|263:164|251:230,1,179.999994506836,4|10,1:0|0:0,0:0:0:0:
174,272,234980,1,0,3:0:0:0:
174,272,235066,1,0,3:0:0:0:
174,272,235153,2,0,L|187:362,1,89.9999972534181,2|0,3:2|1:0,0:0:0:0:
293,378,235497,2,0,P|380:367|425:293,1,179.999994506836,10|2,0:1|1:2,0:0:0:0:
494,235,236015,5,2,1:0:0:0:
409,204,236187,2,0,L|422:114,1,89.9999972534181,10|4,0:0|3:0,0:0:0:0:
463,94,236446,1,4,3:0:0:0:
463,94,236532,2,0,L|450:4,1,89.9999972534181,4|0,3:0|1:0,0:0:0:0:
361,16,236877,1,10,0:1:0:0:
271,30,237049,1,0,0:0:0:0:
221,125,237222,70,0,P|134:114|89:40,1,179.999994506836,4|8,1:2|0:0,0:0:0:0:
5,5,237739,1,0,3:0:0:0:
18,93,237911,2,0,L|31:183,1,89.9999972534181,0|0,3:0|1:0,0:0:0:0:
113,237,238256,1,10,0:1:0:0:
57,318,238428,1,4,3:0:0:0:
140,371,238601,2,2,B|181:350|181:350|224:359,1,89.9999972534181,2|0,1:0|1:0,0:1:0:0:
287,271,238946,6,0,L|274:181,1,89.9999972534181,8|0,0:0|3:0,0:0:0:0:
241,158,239204,1,0,3:0:0:0:
241,158,239290,1,0,3:0:0:0:
245,67,239463,1,0,1:0:0:0:
330,36,239635,2,0,P|396:44|430:100,1,134.999995880127,8|0,0:0|0:0,0:0:0:0:
464,127,239980,70,0,B|415:166|415:166|438:282,1,179.999994506836,4|10,1:2|0:0,0:0:0:0:
388,358,240497,1,0,3:0:0:0:
388,358,240584,1,0,3:0:0:0:
388,358,240670,2,0,L|298:345,1,89.9999972534181,2|0,3:2|1:0,0:0:0:0:
237,278,241015,2,0,L|250:188,1,89.9999972534181,10|0,0:1|0:0,0:0:0:0:
341,132,241359,6,2,L|320:-8,1,134.999995880127,6|0,1:2|0:0,0:1:0:0:
283,24,241704,2,2,L|193:11,1,89.9999972534181,12|0,0:1|0:0,0:1:0:0:
103,0,242049,2,0,L|96:45,2,44.999998626709,4|4|0,3:0|3:0|1:0,0:0:0:0:
172,91,242394,1,10,0:2:0:0:
90,129,242566,1,4,3:0:0:0:
8,167,242739,70,0,L|186:193,1,179.999994506836,4|8,1:2|0:0,0:0:0:0:
256,136,243256,1,0,3:0:0:0:
300,214,243428,2,0,L|390:201,1,89.9999972534181,0|0,3:0|1:0,0:0:0:0:
478,188,243773,2,0,L|491:278,1,89.9999972534181,10|0,0:1|0:0,0:0:0:0:
436,348,244118,5,0,1:0:0:0:
346,335,244290,2,0,L|256:322,1,89.9999972534181,0|8,1:0|0:0,0:0:0:0:
158,368,244635,2,2,L|184:190,1,179.999994506836,2|0,0:1|1:0,0:1:0:0:
247,126,245153,2,0,L|240:81,3,44.999998626709,8|8|8|8,0:0|0:0|0:0|0:0,0:0:0:0:
267,45,245497,1,4,0:1:0:0:
