osu file format v14

[General]
AudioFilename: audio.mp3
AudioLeadIn: 0
PreviewTime: 135153
Countdown: 0
SampleSet: Soft
StackLeniency: 0.7
Mode: 0
LetterboxInBreaks: 0
WidescreenStoryboard: 0

[Editor]
Bookmarks: 57912,68946,113084,135153,157222,179290,223428,245497
DistanceSpacing: 0.95
BeatDivisor: 4
GridSize: 32
TimelineZoom: 1.6

[Metadata]
Title:;w;
TitleUnicode:;ω;
Artist:7_7
ArtistUnicode:7_7
Creator:fllecc
Version:Extra
Source:
Tags:fa featured artist mpg mappers' guild instrumental electronic d&b dnb drum & and bass breakcore toybot vikala
BeatmapID:4459877
BeatmapSetID:2122395

[Difficulty]
HPDrainRate:6
CircleSize:4
OverallDifficulty:8.8
ApproachRate:9.2
SliderMultiplier:1.4
SliderTickRate:1

[Events]
//Background and Video events
0,0,"F_nbmYAa8AARj0F.jpg",0,0
//Break Periods
//Storyboard Layer 0 (Background)
//Storyboard Layer 1 (Fail)
//Storyboard Layer 2 (Pass)
//Storyboard Layer 3 (Foreground)
//Storyboard Layer 4 (Overlay)
//Storyboard Sound Samples

[TimingPoints]
2740,344.827586206897,4,2,1,50,1,0
57826,-100,4,2,1,5,0,0
57912,-200,4,2,1,50,0,0
63429,-133.333333333333,4,2,1,60,0,0
66188,-200,4,2,1,50,0,0
66877,-200,4,2,1,60,0,0
67222,-200,4,2,1,70,0,0
68257,-80,4,2,1,90,0,0
68860,-80,4,2,1,5,0,0
68946,-80,4,2,1,80,0,0
113084,-57.1428571428571,4,2,1,90,0,1
113774,-50,4,2,1,90,0,1
114464,-57.1428571428571,4,2,1,90,0,1
116533,-50,4,2,1,90,0,1
117567,-57.1428571428571,4,2,1,90,0,1
119291,-50,4,2,1,90,0,1
120326,-57.1428571428571,4,2,1,90,0,1
122050,-50,4,2,1,90,0,1
123084,-57.1428571428571,4,2,1,90,0,1
124981,-50,4,2,1,90,0,1
125843,-57.1428571428571,4,2,1,90,0,1
127567,-50,4,2,1,90,0,1
128602,-57.1428571428571,4,2,1,90,0,1
130498,-50,4,2,1,90,0,1
131360,-57.1428571428571,4,2,1,90,0,1
133084,-50,4,2,1,90,0,1
134119,-57.1428571428571,4,2,1,90,0,1
135153,-100,4,2,1,90,0,0
135240,-100,4,2,1,60,0,0
146102,-100,4,2,1,5,0,0
146188,346.820809248555,4,2,1,60,1,0
146188,-200,4,2,1,60,0,0
151705,346.820809248555,4,2,1,60,1,0
151705,-200,4,2,1,60,0,0
157222,344.827586206897,4,2,1,80,1,0
157222,-80,4,2,1,80,0,0
179290,-74.0740740740741,4,2,1,80,0,0
223428,-57.1428571428571,4,2,1,90,0,1
224118,-50,4,2,1,90,0,1
225153,-57.1428571428571,4,2,1,90,0,1
226187,-50,4,2,1,90,0,1
227911,-57.1428571428571,4,2,1,90,0,1
228946,-50,4,2,1,90,0,1
229636,-50,4,2,1,90,0,1
230325,-57.1428571428571,4,2,1,90,0,1
232049,-50,4,2,1,90,0,1
233256,-57.1428571428571,4,2,1,90,0,1
233601,-50,4,2,1,90,0,1
234204,-57.1428571428571,4,2,1,90,0,1
235153,-50,4,2,1,90,0,1
236015,-57.1428571428571,4,2,1,90,0,1
237566,-50,4,2,1,90,0,1
238601,-57.1428571428571,4,2,1,90,0,1
240670,-50,4,2,1,90,0,1
241359,-57.1428571428571,4,2,1,90,0,1
243084,-50,4,2,1,90,0,1
243773,-57.1428571428571,4,2,1,90,0,1
244635,-50,4,2,1,90,0,1
245497,-100,4,2,1,70,0,0

[Colours]
Combo1 : 207,207,207
Combo2 : 156,207,203
Combo3 : 208,170,221
Combo4 : 255,79,114
Combo5 : 255,113,194
Combo6 : 170,170,170

[HitObjects]
256,192,56188,12,0,57826,0:0:0:0:
127,343,57912,69,4,3:2:0:0:
53,324,58257,1,0,3:0:0:0:
0,379,58602,1,0,3:0:0:0:
161,188,58946,5,2,3:2:0:0:
235,207,59119,1,2,0:2:0:0:
288,152,59291,1,0,3:0:0:0:
266,78,59636,2,0,L|231:81,1,35,0|0,3:0|0:0,0:0:0:0:
100,27,59981,70,0,L|169:34,1,70,0|0,3:0|3:0,0:0:0:0:
231,81,60498,1,2,0:2:0:0:
292,127,60671,2,0,L|361:120,1,70,0|0,3:0|3:0,0:0:0:0:
426,78,61188,1,0,0:0:0:0:
487,126,61360,2,0,L|485:143,3,17.5,2|0|0|0,3:2|0:0|0:0|0:0,0:0:0:0:
460,169,61705,2,0,L|458:186,4,17.5,2|0|0|0|0,3:2|0:0|0:0|0:0|3:0,0:0:0:0:
224,224,62395,6,0,L|222:207,2,17.5,0|0|0,3:0|0:0|0:0,0:0:0:0:
172,281,62740,2,0,L|174:298,3,17.5,2|0|0|0,3:2|0:0|0:0|0:0,0:0:0:0:
199,324,63084,2,0,L|201:341,3,17.5,2|0|0|0,3:2|0:0|0:0|0:0,0:0:0:0:
226,367,63429,70,0,L|295:360,1,52.5000020027161,8|0,0:1|3:0,0:0:0:0:
429,296,63774,2,0,L|376:290,1,52.5000020027161,8|0,0:1|3:0,0:0:0:0:
290,274,64119,37,8,0:1:0:0:
364,377,64291,1,8,0:1:0:0:
377,291,64464,1,8,0:1:0:0:
278,361,64636,1,8,0:1:0:0:
351,206,64808,38,0,L|345:153,1,52.5000020027161,8|0,0:1|3:0,0:0:0:0:
170,16,65153,2,0,L|164:68,1,52.5000020027161,8|0,0:1|3:0,0:0:0:0:
225,161,65498,37,8,0:1:0:0:
283,59,65671,1,8,0:1:0:0:
164,68,65843,1,8,0:1:0:0:
345,153,66015,1,8,0:1:0:0:
408,107,66188,38,0,L|402:54,1,52.5
425,23,66533,1,8,0:0:0:0:
458,16,66619,1,8,0:0:0:0:
490,29,66705,1,8,0:0:0:0:
508,59,66791,1,8,0:0:0:0:
506,93,66877,1,8,0:0:0:0:
498,133,66964,1,8,0:0:0:0:
493,175,67050,1,8,0:0:0:0:
487,217,67136,1,8,0:0:0:0:
504,255,67222,37,8,0:1:0:0:
446,274,67308,1,8,0:1:0:0:
386,267,67395,1,8,0:1:0:0:
334,235,67481,1,8,0:1:0:0:
300,185,67567,2,0,L|304:146,1,35,8|0,0:3|0:0,0:0:0:0:
228,175,67912,2,0,L|232:136,1,35,8|0,0:3|0:0,0:0:0:0:
10,185,68257,6,2,B|125:164|125:164|183:205|183:205|299:185,1,306.25,4|0,3:0|0:0,0:1:0:0:
512,0,68946,53,4,1:0:0:0:
512,0,69291,2,0,L|494:101,1,87.5,10|0,0:0|0:0,0:0:0:0:
299,184,69636,1,2,0:0:0:0:
299,184,69722,1,0,0:0:0:0:
299,184,69808,1,0,1:0:0:0:
422,65,69981,1,10,0:0:0:0:
405,169,70153,1,0,0:0:0:0:
221,50,70326,6,0,P|152:52|79:144,1,175,2|8,1:2|0:0,0:0:0:0:
147,337,70843,1,0,0:0:0:0:
171,301,70929,1,0,0:0:0:0:
181,259,71015,1,0,0:0:0:0:
173,216,71101,1,0,0:0:0:0:
150,179,71187,1,0,1:0:0:0:
29,256,71360,1,8,0:0:0:0:
229,371,71533,69,0,0:0:0:0:
229,371,71619,1,0,0:0:0:0:
229,371,71705,2,0,L|408:352,1,175,0|8,1:0|0:0,0:0:0:0:
479,212,72222,1,0,0:0:0:0:
479,212,72308,1,0,0:0:0:0:
479,212,72395,2,0,L|463:301,1,87.5,0|0,0:0|1:0,0:0:0:0:
359,138,72740,2,0,L|374:50,1,87.5,8|0,0:0|0:0,0:0:0:0:
417,43,72998,1,0,0:0:0:0:
460,36,73084,5,0,1:0:0:0:
444,122,73257,1,0,1:0:0:0:
279,71,73429,1,8,0:0:0:0:
375,52,73602,69,0,0:0:0:0:
375,52,73688,1,0,0:0:0:0:
375,52,73774,1,0,0:0:0:0:
320,185,73946,1,0,1:0:0:0:
187,130,74119,1,8,0:0:0:0:
54,75,74291,5,0,0:0:0:0:
54,75,74377,1,0,0:0:0:0:
54,75,74464,2,0,B|8:111|8:111|30:224,1,175,2|10,1:2|0:0,0:0:0:0:
138,305,74981,1,0,0:0:0:0:
138,305,75067,1,0,0:0:0:0:
138,305,75153,1,2,0:0:0:0:
103,181,75326,1,0,1:0:0:0:
21,353,75498,1,10,0:2:0:0:
235,299,75671,69,0,0:0:0:0:
235,299,75757,1,0,0:0:0:0:
235,299,75843,2,0,P|304:301|377:393,1,175,2|8,1:2|0:0,0:0:0:0:
508,168,76360,1,0,0:0:0:0:
464,164,76446,1,0,0:0:0:0:
423,177,76532,1,0,0:0:0:0:
389,205,76618,1,0,0:0:0:0:
369,243,76704,1,0,1:0:0:0:
485,306,76877,1,8,0:0:0:0:
373,374,77050,5,0,0:0:0:0:
373,374,77136,1,0,0:0:0:0:
373,374,77222,2,0,L|262:354,1,87.5,0|0,1:0|0:0,0:0:0:0:
150,242,77567,2,0,L|261:222,1,87.5,8|0,0:0|0:0,0:0:0:0:
265,194,77826,1,0,0:0:0:0:
281,153,77912,1,0,0:0:0:0:
280,110,77998,1,0,0:0:0:0:
263,70,78084,1,0,1:0:0:0:
74,15,78257,2,0,L|58:105,1,87.5,8|0,0:0|0:0,0:0:0:0:
28,131,78515,69,0,0:0:0:0:
28,131,78602,2,0,P|81:197|166:206,1,175,0|8,1:0|0:0,0:0:0:0:
240,97,79119,1,0,0:0:0:0:
240,97,79205,1,0,0:0:0:0:
240,97,79291,1,0,0:0:0:0:
341,184,79464,1,0,1:0:0:0:
512,34,79636,1,8,0:0:0:0:
478,6,79722,2,0,L|462:96,1,87.5,4|8,3:0|0:0,0:0:0:0:
512,182,79981,6,0,B|417:156|435:209|340:183,1,175,6|10,1:2|0:0,0:0:0:0:
462,92,80498,1,0,0:0:0:0:
462,92,80584,1,0,0:0:0:0:
462,92,80671,1,2,0:0:0:0:
410,263,80843,1,0,1:0:0:0:
276,138,81015,2,0,L|291:51,1,87.5,10|0,0:2|0:0,0:0:0:0:
268,19,81274,69,0,0:0:0:0:
268,19,81360,2,0,P|183:27|129:93,1,175,2|8,1:2|0:0,0:0:0:0:
0,189,81877,1,0,0:0:0:0:
43,184,81963,1,0,0:0:0:0:
84,197,82049,1,0,0:0:0:0:
118,224,82135,1,0,0:0:0:0:
138,262,82221,1,0,1:0:0:0:
160,379,82395,1,8,0:0:0:0:
47,339,82567,1,0,0:0:0:0:
251,302,82740,6,0,L|338:317,1,87.5,0|0,1:0|0:0,0:0:0:0:
497,381,83084,2,0,P|515:296|497:211,1,175,8|0,0:0|0:0,0:0:0:0:
364,120,83602,1,0,1:0:0:0:
427,247,83774,1,8,0:0:0:0:
450,64,83946,69,0,0:0:0:0:
450,64,84033,1,0,0:0:0:0:
450,64,84119,2,0,L|270:82,1,175,0|8,1:0|0:0,0:0:0:0:
83,17,84636,1,0,0:0:0:0:
83,17,84722,1,0,0:0:0:0:
83,17,84808,2,0,L|170:8,1,87.5,0|0,0:0|1:0,0:0:0:0:
87,194,85153,2,0,L|0:185,1,87.5,8|0,0:0|0:0,0:0:0:0:
85,106,85412,5,0,0:0:0:0:
85,106,85498,2,0,P|170:114|224:180,1,175,2|10,1:2|0:0,0:0:0:0:
328,327,86015,1,0,0:0:0:0:
284,331,86101,1,0,0:0:0:0:
243,318,86187,1,2,0:0:0:0:
209,291,86273,1,0,0:0:0:0:
189,253,86359,1,0,1:0:0:0:
304,198,86533,1,10,0:0:0:0:
448,294,86705,69,0,0:0:0:0:
448,294,86791,1,0,0:0:0:0:
448,294,86877,2,0,L|433:381,1,87.5,2|0,1:2|0:0,0:0:0:0:
508,121,87222,2,0,P|467:170|403:176,1,131.25,8|0,0:0|0:0,0:0:0:0:
375,141,87567,2,0,L|390:54,1,87.5,0|0,0:0|1:0,0:0:0:0:
256,0,87912,1,8,0:0:0:0:
161,142,88084,5,0,0:0:0:0:
161,142,88171,1,0,0:0:0:0:
161,142,88257,2,0,L|178:317,1,175,0|8,1:0|0:0,0:0:0:0:
0,384,88774,1,0,0:0:0:0:
0,340,88860,1,0,0:0:0:0:
16,302,88946,1,0,0:0:0:0:
52,277,89032,1,0,0:0:0:0:
95,274,89118,1,0,1:0:0:0:
258,357,89291,1,8,0:0:0:0:
410,257,89464,69,0,0:0:0:0:
410,257,89550,1,0,0:0:0:0:
410,257,89636,2,0,L|401:169,1,87.5,0|0,1:0|0:0,0:0:0:0:
466,19,89981,2,0,P|382:30|349:106,1,175,8|0,0:0|0:0,0:0:0:0:
512,203,90498,1,0,1:0:0:0:
302,310,90671,5,8,0:0:0:0:
250,300,90757,1,8,0:0:0:0:
198,291,90843,1,8,0:0:0:0:
146,282,90929,1,8,0:0:0:0:
95,273,91015,2,0,L|79:186,1,87.5,4|0,1:0|0:0,0:0:0:0:
0,113,91360,1,10,0:0:0:0:
181,11,91533,1,0,0:0:0:0:
181,11,91619,1,0,0:0:0:0:
181,11,91705,2,0,L|165:98,1,87.5,2|0,0:0|1:0,0:0:0:0:
301,215,92050,69,10,0:1:0:0:
499,124,92222,2,0,L|455:116,1,43.75,2|0,0:1|0:0,0:0:0:0:
409,58,92395,2,0,L|426:233,1,175,0|8,1:2|0:0,0:0:0:0:
504,375,92912,1,0,0:0:0:0:
460,379,92998,1,0,0:0:0:0:
419,365,93084,1,0,0:0:0:0:
389,334,93170,1,0,0:0:0:0:
374,294,93257,1,0,1:0:0:0:
250,160,93429,6,0,P|165:168|111:234,1,175,10|0,0:1|1:0,0:0:0:0:
8,315,93946,1,0,1:0:0:0:
179,379,94119,2,0,L|163:292,1,87.5,8|0,0:0|0:0,0:0:0:0:
192,261,94377,1,0,0:0:0:0:
192,261,94464,1,0,0:0:0:0:
30,205,94636,1,0,1:0:0:0:
80,63,94808,2,0,L|96:148,1,87.5,8|0,0:0|0:0,0:0:0:0:
137,175,95067,69,0,0:0:0:0:
137,175,95153,2,0,P|221:167|275:101,1,175,0|8,1:0|0:0,0:0:0:0:
384,0,95671,1,0,0:0:0:0:
384,0,95757,1,0,0:0:0:0:
384,0,95843,1,0,0:0:0:0:
220,45,96015,1,0,1:0:0:0:
330,155,96188,1,8,0:0:0:0:
373,150,96274,1,0,0:0:0:0:
414,163,96360,1,0,0:0:0:0:
448,191,96446,1,0,0:0:0:0:
468,229,96533,2,0,L|452:316,1,87.5,2|0,1:2|0:0,0:0:0:0:
258,383,96877,6,0,P|291:306|375:298,1,175,10|2,0:0|0:0,0:0:0:0:
499,375,97395,1,0,1:0:0:0:
285,230,97567,1,10,0:1:0:0:
259,265,97653,2,0,L|172:281,1,87.5,2|0,0:0|0:0,0:0:0:0:
107,238,97912,69,0,1:0:0:0:
219,141,98084,1,0,0:0:0:0:
106,319,98257,1,8,0:0:0:0:
38,192,98429,1,0,0:0:0:0:
33,148,98515,1,0,0:0:0:0:
46,107,98601,1,0,0:0:0:0:
74,73,98687,1,0,0:0:0:0:
112,53,98773,1,0,1:0:0:0:
362,81,98946,6,0,P|277:72|223:6,1,175,10|0,0:1|1:0,0:0:0:0:
223,6,99636,2,0,L|207:93,1,87.5,8|0,0:0|0:0,0:0:0:0:
179,126,99895,1,0,0:0:0:0:
199,164,99981,1,0,0:0:0:0:
233,192,100067,1,0,0:0:0:0:
275,204,100153,1,0,1:0:0:0:
397,156,100326,1,8,0:0:0:0:
499,237,100498,1,0,0:0:0:0:
499,237,100584,1,0,0:0:0:0:
499,237,100671,1,0,1:0:0:0:
374,278,100843,1,0,0:0:0:0:
496,134,101015,70,0,L|480:47,1,87.5,8|0,0:0|0:0,0:0:0:0:
443,24,101274,1,0,0:0:0:0:
405,0,101360,1,0,0:0:0:0:
258,74,101533,1,0,1:0:0:0:
395,159,101705,1,8,0:0:0:0:
432,182,101791,2,0,L|416:269,1,87.5,4|8,3:0|0:0,0:0:0:0:
493,325,102050,6,0,B|427:312|427:312|393:336|393:336|327:325,1,175,6|10,1:2|0:0,0:0:0:0:
171,225,102567,1,0,0:0:0:0:
171,225,102653,1,0,0:0:0:0:
171,225,102740,1,2,0:0:0:0:
339,247,102912,1,0,1:0:0:0:
212,366,103084,69,10,0:1:0:0:
112,278,103257,2,0,L|68:286,1,43.75,2|0,0:1|0:0,0:0:0:0:
0,324,103429,2,0,P|-15:238|0:153,1,175,0|8,1:0|0:0,0:0:0:0:
0,0,103946,1,0,0:0:0:0:
20,38,104032,1,0,0:0:0:0:
54,65,104118,1,0,0:0:0:0:
95,78,104204,1,0,0:0:0:0:
138,74,104291,1,0,1:0:0:0:
381,86,104464,6,0,P|326:20|242:12,1,175,10|0,0:1|1:0,0:0:0:0:
326,143,104981,1,0,1:0:0:0:
177,220,105153,2,0,L|193:133,1,87.5,8|0,0:0|0:0,0:0:0:0:
230,109,105412,1,0,0:0:0:0:
230,109,105498,1,0,0:0:0:0:
334,257,105671,1,0,1:0:0:0:
482,153,105843,69,8,0:0:0:0:
482,153,105929,1,0,0:0:0:0:
482,153,106015,1,0,0:0:0:0:
482,153,106102,1,0,0:0:0:0:
482,153,106188,2,0,L|466:66,1,87.5,0|0,1:0|0:0,0:0:0:0:
282,183,106533,2,0,L|313:355,1,175,8|0,0:0|0:0,0:0:0:0:
382,168,107050,1,0,1:0:0:0:
257,44,107222,2,0,L|170:60,1,87.5,8|0,0:0|0:0,0:0:0:0:
23,58,107481,5,0,0:0:0:0:
23,58,107567,2,0,P|107:66|162:131,1,175,2|10,1:2|0:0,0:0:0:0:
193,272,108084,1,0,0:0:0:0:
149,276,108170,1,0,0:0:0:0:
108,263,108256,1,2,0:0:0:0:
74,236,108342,1,0,0:0:0:0:
53,197,108428,1,0,1:0:0:0:
254,186,108602,1,10,0:1:0:0:
283,217,108688,2,0,L|370:233,1,87.5,2|0,0:0|0:0,0:0:0:0:
410,165,108946,70,0,B|455:201|455:201|433:314,1,175,0|8,1:0|0:0,0:0:0:0:
263,374,109464,1,0,0:0:0:0:
263,374,109550,1,0,0:0:0:0:
263,374,109636,1,0,0:0:0:0:
432,316,109808,1,0,1:0:0:0:
226,299,109981,2,0,L|95:284,1,131.25,10|0,0:1|0:0,0:0:0:0:
65,251,110326,5,0,1:0:0:0:
220,157,110498,1,0,1:0:0:0:
62,70,110671,1,8,0:0:0:0:
116,160,110843,69,0,0:0:0:0:
116,160,110929,1,0,0:0:0:0:
116,160,111015,1,0,0:0:0:0:
255,32,111188,1,0,1:0:0:0:
364,106,111360,1,8,0:0:0:0:
408,110,111446,1,0,0:0:0:0:
449,97,111532,1,0,0:0:0:0:
483,69,111618,1,0,0:0:0:0:
503,31,111705,2,0,L|416:15,1,87.5,0|0,1:0|1:0,0:0:0:0:
254,153,112050,5,8,0:0:0:0:
399,293,112222,1,0,0:0:0:0:
399,293,112308,1,0,0:0:0:0:
399,293,112395,1,0,0:0:0:0:
449,97,112567,1,0,1:0:0:0:
287,284,112740,69,8,0:0:0:0:
229,273,112826,1,8,0:0:0:0:
178,303,112912,1,8,0:0:0:0:
121,292,112998,1,8,0:0:0:0:
70,322,113084,22,0,B|58:253|58:253|83:217|83:217|70:149,1,183.750001752377,4|0,1:0|0:0,0:0:0:0:
87,55,113429,5,8,0:0:0:0:
87,55,113515,1,0,3:0:0:0:
87,55,113602,2,0,L|26:65,1,61.2500005841255,0|0,3:0|0:0,0:0:0:0:
172,212,113774,2,0,L|240:199,1,70,2|0,3:1|0:0,0:0:0:0:
208,91,113946,70,0,L|196:22,1,70,0|0,1:0|0:0,0:0:0:0:
51,176,114119,2,2,L|85:383,1,210,10|0,0:1|0:0,0:1:0:0:
172,212,114464,5,0,1:0:0:0:
29,327,114636,1,0,1:0:0:0:
245,236,114808,2,0,P|304:244|351:283,1,122.500001168251,8|0,0:0|0:0,0:0:0:0:
372,327,115067,1,0,3:0:0:0:
393,371,115153,2,0,L|457:359,1,61.2500005841255,0|0,3:0|0:0,0:0:0:0:
499,294,115326,2,0,L|438:282,1,61.2500005841255,0|0,1:0|0:0,0:0:0:0:
260,343,115498,1,8,0:0:0:0:
391,176,115671,69,4,3:0:0:0:
370,132,115757,1,8,3:0:0:0:
349,88,115843,2,0,P|405:18|494:10,1,183.750001752377,4|0,1:2|0:0,0:0:0:0:
512,93,116188,1,8,0:0:0:0:
512,93,116274,1,0,3:0:0:0:
512,93,116360,2,0,L|448:81,1,61.2500005841255,0|0,3:0|0:0,0:0:0:0:
294,12,116533,6,0,B|186:-25|189:73|82:52,1,210,2|0,3:1|0:0,0:0:0:0:
45,165,116877,69,8,0:0:0:0:
0,98,116964,2,2,B|108:61|105:159|212:138,1,210,2|0,3:1|1:0,0:1:0:0:
459,96,117395,5,0,1:0:0:0:
416,77,117481,1,0,0:0:0:0:
373,58,117567,2,0,L|394:178,1,122.500001168251,8|0,0:0|0:0,0:0:0:0:
272,258,117826,2,0,L|293:137,1,122.500001168251,0|0,3:0|0:0,0:0:0:0:
472,208,118084,1,0,1:0:0:0:
317,334,118257,2,0,L|256:346,1,61.2500005841255,8|0,0:0|0:0,0:0:0:0:
0,384,118429,69,8,3:0:0:0:
0,384,118515,1,4,3:0:0:0:
0,384,118602,2,0,P|37:278|179:273,1,245.000002336502,4|8,1:0|0:0,0:0:0:0:
317,334,119119,5,0,3:0:0:0:
365,343,119205,1,0,3:0:0:0:
414,352,119291,2,0,L|483:338,1,70,2|0,3:1|0:0,0:0:0:0:
334,231,119464,2,0,L|264:244,1,70,0|0,1:0|0:0,0:0:0:0:
454,146,119636,70,2,L|413:352,1,210,10|0,0:1|0:0,0:1:0:0:
485,219,119981,5,0,1:0:0:0:
366,21,120153,1,0,1:0:0:0:
237,177,120326,2,0,P|175:177|124:140,1,122.500001168251,8|0,0:0|0:0,0:0:0:0:
48,85,120584,2,0,P|93:53|165:55,1,122.500001168251,0|0,3:0|0:0,0:0:0:0:
46,174,120843,2,0,L|34:235,1,61.2500005841255,0|0,1:0|0:0,0:0:0:0:
0,359,121015,69,8,0:0:0:0:
0,359,121102,1,4,3:0:0:0:
0,359,121188,1,8,3:0:0:0:
0,359,121274,1,8,3:0:0:0:
0,359,121360,2,0,B|69:347|69:347|105:372|105:372|173:359,1,183.750001752377,4|0,1:2|0:0,0:0:0:0:
369,234,121705,5,8,0:0:0:0:
326,228,121791,1,0,3:0:0:0:
285,238,121877,1,0,3:0:0:0:
250,262,121963,1,0,3:0:0:0:
223,295,122050,2,2,P|273:341|344:340,1,140,2|0,3:1|1:0,0:1:0:0:
512,204,122308,69,0,0:0:0:0:
512,204,122395,2,2,B|483:240|483:240|392:223,1,140,10|0,0:1|0:0,0:1:0:0:
416,0,122740,6,0,L|440:138,1,140,0|0,1:0|1:0,0:0:0:0:
439,137,123084,2,0,L|318:115,1,122.500001168251,8|0,0:0|0:0,0:0:0:0:
294,81,123343,1,0,3:0:0:0:
267,47,123429,2,0,L|327:36,1,61.2500005841255,0|0,3:0|0:0,0:0:0:0:
169,155,123602,2,0,L|229:144,1,61.2500005841255,0|0,1:0|0:0,0:0:0:0:
27,45,123774,1,8,0:0:0:0:
27,45,123860,1,0,1:0:0:0:
27,45,123946,2,0,L|87:34,1,61.2500005841255,4|0,3:0|0:0,0:0:0:0:
170,272,124119,70,0,P|86:252|54:166,1,183.750001752377,4|0,1:0|0:0,0:0:0:0:
169,155,124464,1,10,0:0:0:0:
169,155,124550,1,0,3:0:0:0:
169,155,124636,2,0,L|229:144,1,61.2500005841255,0|0,3:0|0:0,0:0:0:0:
54,168,124808,5,2,3:1:0:0:
306,238,124981,2,0,L|236:225,1,70,0|0,1:0|0:0,0:0:0:0:
1,359,125153,70,2,P|103:349|170:270,1,210,10|0,0:1|0:0,0:1:0:0:
105,99,125498,5,2,1:2:0:0:
169,271,125671,1,0,1:0:0:0:
356,306,125843,2,0,P|417:306|466:273,1,122.500001168251,10|0,0:0|0:0,0:0:0:0:
502,185,126102,1,0,3:0:0:0:
502,185,126188,2,0,P|437:187|390:220,1,122.500001168251,0|0,3:0|1:0,0:0:0:0:
327,378,126446,1,0,0:0:0:0:
327,378,126533,2,0,L|266:366,1,61.2500005841255,8|0,0:0|0:0,0:0:0:0:
0,202,126705,69,4,3:0:0:0:
0,202,126791,1,8,3:0:0:0:
0,202,126877,2,0,B|103:173|83:232|178:207,1,183.750001752377,4|0,1:2|0:0,0:0:0:0:
293,0,127222,5,8,0:0:0:0:
255,20,127308,1,0,3:0:0:0:
228,52,127395,1,0,3:0:0:0:
215,93,127480,1,0,3:0:0:0:
218,135,127567,2,0,L|296:150,1,70,2|0,3:1|0:0,0:0:0:0:
429,31,127740,2,0,L|360:44,1,70,0|0,1:0|0:0,0:0:0:0:
505,194,127912,70,2,B|376:129|376:129|425:194,1,210,10|0,3:1|3:0,3:1:0:0:
505,87,128257,5,0,1:0:0:0:
330,236,128429,1,0,1:0:0:0:
472,384,128602,2,0,L|454:262,1,122.500001168251,8|0,0:0|0:0,0:0:0:0:
344,336,128860,69,0,3:0:0:0:
344,336,128946,2,0,L|283:324,1,61.2500005841255,0|0,3:0|0:0,0:0:0:0:
173,255,129119,2,0,L|234:243,1,61.2500005841255,0|0,1:0|0:0,0:0:0:0:
149,377,129292,5,8,0:0:0:0:
100,382,129378,1,0,1:0:0:0:
53,368,129464,1,4,3:0:0:0:
18,334,129550,1,4,3:0:0:0:
0,289,129636,2,0,L|35:108,1,183.750001752377,4|0,1:0|0:0,0:0:0:0:
107,26,129981,69,10,0:0:0:0:
107,26,130067,1,0,3:0:0:0:
107,26,130153,2,0,L|119:87,1,61.2500005841255,0|0,3:0|0:0,0:0:0:0:
18,22,130326,1,2,3:1:0:0:
109,173,130498,6,0,L|179:159,1,70,0|0,1:0|0:0,0:0:0:0:
421,64,130671,2,2,B|342:50|342:50|300:78|300:78|223:64,1,210,10|0,0:1|0:0,0:1:0:0:
373,8,131015,69,2,1:2:0:0:
270,120,131188,1,0,1:0:0:0:
512,173,131360,6,0,L|390:155,1,122.500001168251,10|0,0:0|0:0,0:0:0:0:
352,186,131619,1,0,3:0:0:0:
314,217,131705,2,0,L|326:278,1,61.2500005841255,0|0,3:0|0:0,0:0:0:0:
476,336,131877,2,0,L|464:275,1,61.2500005841255,0|0,1:0|0:0,0:0:0:0:
223,309,132050,2,0,P|284:379|376:374,1,183.750001752377,8|0,0:0|0:0,0:0:0:0:
512,173,132395,70,0,B|413:146|432:202|332:175,1,183.750001752377,4|0,1:2|0:0,0:0:0:0:
302,60,132740,1,8,0:0:0:0:
302,60,132826,1,0,3:0:0:0:
302,60,132912,2,0,L|314:-1,1,61.2500005841255,0|0,3:0|0:0,0:0:0:0:
390,35,133084,2,0,L|376:103,1,70,2|0,3:1|0:0,0:0:0:0:
156,153,133257,5,0,1:0:0:0:
156,153,133343,1,0,0:0:0:0:
156,153,133429,2,2,P|56:169|19:263,1,210,10|0,0:1|0:0,0:1:0:0:
146,384,133774,70,0,L|118:246,1,140,0|0,1:0|1:0,0:0:0:0:
118,246,134119,2,0,L|238:269,1,122.500001168251,8|0,0:0|0:0,0:0:0:0:
368,208,134377,1,0,3:0:0:0:
368,208,134464,2,0,L|308:196,1,61.2500005841255,0|0,3:0|0:0,0:0:0:0:
318,357,134636,2,0,L|329:297,1,61.2500005841255,0|0,1:0|0:0,0:0:0:0:
299,0,134808,5,8,0:0:0:0:
254,32,134894,1,8,0:0:0:0:
226,77,134980,1,8,0:0:0:0:
215,131,135066,1,8,0:0:0:0:
223,184,135152,1,4,1:0:0:0:
256,192,135240,12,0,140671,0:0:0:0:
256,192,140757,12,0,146102,0:0:0:0:
352,320,146188,6,0,L|388:316,1,35,2|0,0:3|0:0,0:0:0:0:
461,327,146534,2,0,L|457:292,1,35
468,218,146881,2,0,L|433:222,1,35
359,230,147228,1,2,0:0:0:0:
160,320,147575,6,0,L|124:316,1,35,2|0,0:3|0:0,0:0:0:0:
51,327,147922,2,0,L|55:292,1,35
44,218,148268,2,0,L|79:222,1,35
153,211,148615,2,0,L|149:246,1,35,2|0,0:0|0:0,0:0:0:0:
51,327,148962,70,0,L|55:292,1,35,2|0,0:3|0:0,0:0:0:0:
160,320,149309,2,0,L|124:316,1,35
153,211,149656,2,0,L|149:246,1,35
44,218,150003,2,0,L|79:222,1,35,2|0,0:0|0:0,0:0:0:0:
160,320,150349,6,0,L|125:316,1,35
51,327,150696,2,0,L|55:292,1,35
44,218,151043,2,0,L|79:222,1,35
153,211,151390,2,0,L|149:246,1,35,2|0,0:0|0:0,0:0:0:0:
209,86,151705,70,0,L|180:106,1,35,2|0,0:3|0:0,0:0:0:0:
153,211,152051,2,0,L|149:176,1,35
73,101,152398,2,0,L|105:115,2,35,0|0|2,0:0|0:0|0:0,0:0:0:0:
359,211,153092,6,0,L|363:176,1,35,2|0,0:3|0:0,0:0:0:0:
303,86,153439,2,0,L|331:106,1,35
439,101,153785,2,0,L|406:115,1,35
359,211,154132,2,0,L|363:176,1,35,2|0,0:0|0:0,0:0:0:0:
303,86,154479,70,0,L|331:106,1,35,2|0,0:3|0:0,0:0:0:0:
359,211,154826,2,0,L|363:176,1,35
439,101,155173,2,0,L|406:115,1,35
303,86,155520,2,0,L|331:106,1,35,2|0,0:0|0:0,0:0:0:0:
465,204,155866,6,0,L|437:184,1,35
379,11,156213,2,0,L|375:46,1,35
254,182,156560,2,0,L|286:167,1,35
439,101,156907,2,0,L|471:86,1,35,2|0,0:0|0:0,0:0:0:0:
286,168,157222,6,0,L|111:149,1,175,4|8,1:0|0:0,0:0:0:0:
0,72,157739,1,0,0:0:0:0:
0,72,157825,1,0,0:0:0:0:
0,72,157911,1,0,0:0:0:0:
98,53,158084,1,0,1:0:0:0:
13,177,158256,2,0,L|31:278,1,87.5,10|0,0:0|0:0,0:0:0:0:
172,371,158601,6,0,P|192:286|171:202,1,175,0|8,1:0|0:0,0:0:0:0:
104,266,159118,1,0,0:0:0:0:
264,232,159290,1,0,0:0:0:0:
85,172,159463,1,0,1:0:0:0:
193,296,159635,1,10,0:0:0:0:
247,141,159808,69,0,0:0:0:0:
247,141,159894,1,0,0:0:0:0:
247,141,159980,2,0,B|341:115|323:168|418:142,1,175,0|8,1:0|0:0,0:0:0:0:
471,0,160497,2,0,L|392:66,1,87.5
512,175,160842,2,0,L|494:74,1,87.5,0|10,1:0|0:0,0:0:0:0:
339,169,161187,5,0,0:0:0:0:
339,169,161273,1,0,0:0:0:0:
339,169,161359,2,0,L|323:255,1,87.5,0|0,1:0|0:0,0:0:0:0:
512,280,161704,2,0,P|443:282|370:374,1,175,8|0,0:0|0:0,0:0:0:0:
475,375,162222,1,0,1:0:0:0:
440,192,162394,69,10,0:0:0:0:
440,192,162480,1,0,0:0:0:0:
440,192,162566,1,0,0:0:0:0:
440,192,162653,1,0,0:0:0:0:
440,192,162739,2,0,L|421:17,1,175,0|8,1:0|0:0,0:0:0:0:
344,130,163256,1,0,0:0:0:0:
248,24,163428,2,0,L|334:40,1,87.5,0|0,0:0|1:0,0:0:0:0:
181,120,163773,2,0,L|95:136,1,87.5,10|0,0:0|0:0,0:0:0:0:
59,118,164032,5,0,0:0:0:0:
59,118,164118,2,0,P|38:202|58:286,1,175,0|8,1:0|0:0,0:0:0:0:
44,384,164635,1,0,0:0:0:0:
155,290,164808,1,0,0:0:0:0:
58,286,164980,1,0,1:0:0:0:
139,382,165153,2,0,L|225:366,1,87.5,10|0,0:0|0:0,0:0:0:0:
361,235,165497,70,0,L|275:219,1,87.5,0|0,1:0|0:0,0:0:0:0:
506,310,165842,2,0,P|421:318|367:384,1,175,8|0,0:0|0:0,0:0:0:0:
454,206,166359,1,0,1:0:0:0:
506,310,166532,1,10,0:0:0:0:
506,310,166618,1,0,0:0:0:0:
506,310,166704,1,0,0:0:0:0:
361,235,166877,6,0,L|377:149,1,87.5,0|0,1:0|0:0,0:0:0:0:
449,26,167222,1,8,0:0:0:0:
328,95,167394,1,0,0:0:0:0:
328,95,167480,1,0,0:0:0:0:
328,95,167566,1,0,0:0:0:0:
474,122,167739,1,0,1:0:0:0:
354,0,167911,1,8,0:0:0:0:
354,0,167997,2,0,L|268:16,1,87.5,4|8,3:0|0:0,0:0:0:0:
241,59,168256,70,0,B|146:33|164:86|69:60,1,175,0|8,1:0|0:0,0:0:0:0:
0,0,168773,1,0,0:0:0:0:
0,0,168859,1,0,0:0:0:0:
0,0,168946,1,0,0:0:0:0:
127,116,169118,1,0,1:0:0:0:
31,225,169290,2,0,L|47:139,1,87.5,10|0,0:0|0:0,0:0:0:0:
224,205,169635,6,0,P|244:289|224:373,1,175,0|8,1:0|0:0,0:0:0:0:
130,290,170153,1,0,0:0:0:0:
130,290,170239,1,0,0:0:0:0:
130,290,170325,2,0,L|44:306,1,87.5,0|0,0:0|1:0,0:0:0:0:
223,373,170670,2,0,L|309:357,1,87.5,10|0,0:0|0:0,0:0:0:0:
337,324,170928,69,0,0:0:0:0:
337,324,171015,2,0,L|510:342,1,175,0|8,1:0|0:0,0:0:0:0:
413,180,171532,1,0,0:0:0:0:
320,237,171704,2,0,L|336:323,1,87.5,0|0,0:0|1:0,0:0:0:0:
508,233,172049,1,10,0:0:0:0:
413,180,172222,5,0,0:0:0:0:
413,180,172308,1,0,0:0:0:0:
413,180,172394,2,0,L|429:94,1,87.5,0|0,1:0|0:0,0:0:0:0:
483,0,172739,2,0,P|400:3|353:76,1,175,8|0,0:0|0:0,0:0:0:0:
264,159,173256,1,0,1:0:0:0:
148,56,173428,69,10,0:0:0:0:
148,56,173515,1,0,0:0:0:0:
148,56,173601,1,0,0:0:0:0:
148,56,173687,1,0,0:0:0:0:
148,56,173773,2,0,L|234:40,1,87.5,0|0,1:0|0:0,0:0:0:0:
76,190,174118,1,8,0:0:0:0:
50,89,174290,1,0,0:0:0:0:
50,89,174377,1,0,0:0:0:0:
50,89,174463,1,0,0:0:0:0:
180,159,174635,1,0,1:0:0:0:
4,212,174808,2,0,L|20:298,1,87.5,10|0,0:0|0:0,0:0:0:0:
6,342,175066,5,0,0:0:0:0:
6,342,175153,2,0,B|100:316|82:369|177:343,1,175,0|8,1:0|0:0,0:0:0:0:
295,264,175670,1,0,0:0:0:0:
295,264,175756,1,0,0:0:0:0:
295,264,175842,2,0,L|279:178,1,87.5,0|0,0:0|1:0,0:0:0:0:
184,240,176187,1,10,0:0:0:0:
372,368,176359,69,0,0:0:0:0:
372,368,176446,1,0,0:0:0:0:
372,368,176532,2,0,P|457:359|511:293,1,175,0|8,1:0|0:0,0:0:0:0:
468,138,177049,1,0,0:0:0:0:
353,251,177222,1,0,0:0:0:0:
510,293,177394,1,0,1:0:0:0:
349,128,177566,5,10,0:0:0:0:
349,128,177653,1,0,0:0:0:0:
349,128,177739,1,0,0:0:0:0:
349,128,177825,1,0,0:0:0:0:
349,128,177911,2,0,P|264:119|210:53,1,175,0|8,1:0|0:0,0:0:0:0:
398,0,178428,1,0,0:0:0:0:
398,0,178515,1,0,0:0:0:0:
398,0,178601,2,0,L|414:86,1,87.5,0|0,0:0|1:0,0:0:0:0:
173,145,178946,69,10,0:0:0:0:
118,139,179032,1,8,0:0:0:0:
67,154,179118,1,8,0:0:0:0:
26,189,179204,1,8,0:0:0:0:
0,237,179290,2,0,B|70:223|70:223|107:248|107:248|178:237,1,189.000000720978,4|10,1:0|0:0,0:0:0:0:
342,205,179808,1,0,0:0:0:0:
342,205,179894,1,0,0:0:0:0:
342,205,179980,1,2,0:0:0:0:
173,145,180153,1,0,1:0:0:0:
311,333,180325,5,10,0:0:0:0:
357,337,180411,1,0,0:0:0:0:
402,323,180497,1,2,0:1:0:0:
439,294,180584,1,0,0:0:0:0:
462,253,180670,2,0,L|444:159,1,94.5000003604889,0|0,1:0|0:0,0:0:0:0:
320,0,181015,2,0,L|302:93,1,94.5000003604889,8|0,0:0|0:0,0:0:0:0:
302,92,181273,1,0,0:0:0:0:
302,92,181359,1,0,0:0:0:0:
421,52,181532,1,0,1:0:0:0:
342,205,181704,70,0,P|249:195|190:123,1,189.000000720978,10|0,0:1|1:0,0:0:0:0:
16,32,182222,1,0,1:0:0:0:
117,8,182394,2,0,L|99:101,1,94.5000003604889,8|0,0:0|0:0,0:0:0:0:
99,100,182653,1,0,0:0:0:0:
99,100,182739,1,0,0:0:0:0:
0,224,182911,1,0,1:0:0:0:
157,248,183084,5,10,0:0:0:0:
157,248,183170,1,0,0:0:0:0:
157,248,183256,1,0,0:0:0:0:
157,248,183342,1,0,0:0:0:0:
157,248,183428,2,0,L|250:230,1,94.5000003604889,0|0,1:0|0:0,0:0:0:0:
17,305,183773,2,0,P|110:315|169:387,1,189.000000720978,8|0,0:0|0:0,0:0:0:0:
66,212,184290,1,0,1:0:0:0:
239,320,184463,69,10,0:0:0:0:
281,315,184549,1,0,0:0:0:0:
323,311,184635,1,0,0:0:0:0:
365,306,184722,1,0,0:0:0:0:
408,302,184808,2,0,P|478:242|487:150,1,189.000000720978,2|10,1:2|0:0,0:0:0:0:
349,20,185325,1,0,0:0:0:0:
349,20,185411,1,0,0:0:0:0:
349,20,185497,1,2,0:0:0:0:
412,160,185670,1,0,1:0:0:0:
504,32,185842,1,10,0:0:0:0:
309,121,186015,5,2,0:1:0:0:
262,112,186101,1,0,0:0:0:0:
216,103,186187,2,0,L|-5:126,1,189.000000720978,0|8,1:0|0:0,0:0:0:0:
208,15,186704,1,0,0:0:0:0:
208,15,186790,1,0,0:0:0:0:
208,15,186877,2,0,L|301:5,1,94.5000003604889,0|0,0:0|1:0,0:0:0:0:
179,202,187222,70,0,P|86:192|27:120,1,189.000000720978,10|0,0:1|1:0,0:0:0:0:
215,128,187739,1,0,1:0:0:0:
92,0,187911,2,0,L|102:93,1,94.5000003604889,8|0,0:0|0:0,0:0:0:0:
102,93,188170,1,0,0:0:0:0:
102,93,188256,1,0,0:0:0:0:
258,200,188428,1,0,1:0:0:0:
93,287,188601,5,10,0:0:0:0:
93,287,188687,1,0,0:0:0:0:
93,287,188773,1,0,0:0:0:0:
93,287,188859,1,0,0:0:0:0:
93,287,188946,2,0,L|0:269,1,94.5000003604889,0|0,1:0|0:0,0:0:0:0:
203,384,189290,2,0,L|296:366,1,94.5000003604889,8|0,0:0|0:0,0:0:0:0:
322,333,189549,1,0,0:0:0:0:
339,294,189635,1,0,0:0:0:0:
345,252,189722,1,0,0:0:0:0:
339,210,189808,1,0,1:0:0:0:
224,4,189980,1,8,0:0:0:0:
197,31,190066,2,0,L|215:124,1,94.5000003604889,4|8,3:0|0:0,0:0:0:0:
292,67,190325,70,0,B|393:39|374:96|476:69,1,189.000000720978,6|10,1:2|0:0,0:0:0:0:
239,221,190842,1,0,0:0:0:0:
192,225,190928,1,0,0:0:0:0:
148,205,191015,1,2,0:0:0:0:
120,166,191101,1,0,0:0:0:0:
114,119,191187,1,0,1:0:0:0:
272,54,191359,1,10,0:0:0:0:
376,197,191532,5,2,0:1:0:0:
376,197,191618,1,0,0:0:0:0:
376,197,191704,2,0,L|356:384,1,189.000000720978,0|8,1:0|0:0,0:0:0:0:
467,350,192222,1,0,0:0:0:0:
467,350,192308,1,0,0:0:0:0:
467,350,192394,1,0,0:0:0:0:
276,225,192566,1,0,1:0:0:0:
51,355,192739,70,0,P|110:284|202:275,1,189.000000720978,10|0,0:1|1:0,0:0:0:0:
279,313,193256,1,0,1:0:0:0:
159,373,193428,1,8,0:0:0:0:
276,225,193601,1,0,0:0:0:0:
276,225,193687,1,0,0:0:0:0:
276,225,193773,1,0,0:0:0:0:
128,108,193946,1,0,1:0:0:0:
201,274,194118,1,10,0:0:0:0:
260,92,194290,5,0,0:0:0:0:
260,92,194377,1,0,0:0:0:0:
260,92,194463,2,0,L|353:74,1,94.5000003604889,0|0,1:0|0:0,0:0:0:0:
503,4,194808,2,0,L|485:97,1,94.5000003604889,8|0,0:0|0:0,0:0:0:0:
451,113,195066,1,0,0:0:0:0:
417,130,195153,1,0,0:0:0:0:
287,18,195325,1,0,1:0:0:0:
191,168,195497,69,10,0:0:0:0:
199,210,195584,1,0,0:0:0:0:
207,252,195670,1,0,0:0:0:0:
215,294,195756,1,0,0:0:0:0:
223,335,195842,2,0,B|153:321|153:321|116:346|116:346|45:335,1,189.000000720978,2|10,1:2|0:2,0:0:0:0:
0,192,196359,1,0,0:0:0:0:
0,192,196446,1,0,0:0:0:0:
0,192,196532,1,2,0:0:0:0:
96,265,196704,1,0,1:0:0:0:
255,84,196877,5,10,0:0:0:0:
208,79,196963,1,0,0:0:0:0:
163,93,197049,1,2,0:1:0:0:
126,122,197135,1,0,0:0:0:0:
103,163,197222,2,0,L|196:181,1,94.5000003604889,0|0,1:0|0:0,0:0:0:0:
409,326,197566,2,0,P|364:272|296:265,1,141.750000540733,8|0,0:0|0:0,0:0:0:0:
269,292,197911,2,0,L|287:385,1,94.5000003604889,0|0,0:0|1:0,0:0:0:0:
496,213,198256,70,0,L|460:27,1,189.000000720978,10|0,0:1|1:0,0:0:0:0:
387,12,198773,1,0,1:0:0:0:
274,141,198946,2,0,L|181:123,1,94.5000003604889,8|0,0:0|0:0,0:0:0:0:
166,87,199204,1,0,0:0:0:0:
119,86,199290,1,0,0:0:0:0:
78,108,199377,1,0,0:0:0:0:
53,148,199463,1,0,1:0:0:0:
164,216,199635,1,10,0:0:0:0:
24,358,199808,5,0,0:0:0:0:
24,358,199894,1,0,0:0:0:0:
24,358,199980,2,0,L|6:265,1,94.5000003604889,0|0,1:0|0:0,0:0:0:0:
181,123,200325,2,0,L|163:216,1,94.5000003604889,8|0,0:0|0:0,0:0:0:0:
121,207,200584,1,0,0:0:0:0:
79,199,200670,1,0,0:0:0:0:
28,45,200842,1,0,1:0:0:0:
230,300,201015,69,10,0:0:0:0:
286,305,201101,1,8,0:0:0:0:
339,288,201187,1,8,0:0:0:0:
383,253,201273,1,8,0:0:0:0:
410,203,201359,2,0,L|392:110,1,94.5000003604889,4|0,1:0|0:0,0:0:0:0:
206,5,201704,5,10,0:0:0:0:
312,163,201877,1,0,0:0:0:0:
312,163,201963,1,0,0:0:0:0:
312,163,202049,1,2,0:0:0:0:
468,55,202222,1,0,1:0:0:0:
306,69,202394,1,10,0:0:0:0:
512,192,202566,69,2,0:1:0:0:
512,192,202653,1,0,0:0:0:0:
512,192,202739,2,0,L|492:379,1,189.000000720978,0|8,1:0|0:0,0:0:0:0:
400,217,203256,1,0,0:0:0:0:
397,175,203342,1,0,0:0:0:0:
409,135,203428,1,0,0:0:0:0:
435,102,203515,1,0,0:0:0:0:
473,82,203601,1,0,1:0:0:0:
512,192,203773,1,10,0:1:0:0:
348,278,203946,5,0,0:0:0:0:
306,269,204032,1,0,0:0:0:0:
264,261,204118,2,0,P|172:270|113:341,1,189.000000720978,0|8,1:0|0:0,0:0:0:0:
232,381,204635,1,0,0:0:0:0:
232,381,204722,1,0,0:0:0:0:
232,381,204808,1,0,0:0:0:0:
348,278,204980,1,0,1:0:0:0:
245,162,205153,1,10,0:0:0:0:
129,265,205325,69,0,0:0:0:0:
129,265,205411,1,0,0:0:0:0:
129,265,205497,2,0,L|36:247,1,94.5000003604889,0|0,1:0|0:0,0:0:0:0:
245,162,205842,2,0,L|338:180,1,94.5000003604889,8|0,0:0|0:0,0:0:0:0:
150,5,206187,1,0,0:0:0:0:
141,51,206273,1,0,0:0:0:0:
132,97,206359,1,0,1:0:0:0:
443,148,206532,5,10,0:0:0:0:
422,110,206618,1,0,0:0:0:0:
389,84,206704,1,0,0:0:0:0:
348,71,206790,1,0,0:0:0:0:
307,76,206877,2,0,L|327:263,1,189.000000720978,2|10,1:2|0:0,0:0:0:0:
487,380,207394,1,0,0:0:0:0:
487,380,207480,1,0,0:0:0:0:
487,380,207566,1,2,0:0:0:0:
441,275,207739,1,0,1:0:0:0:
259,355,207911,69,10,0:0:0:0:
259,355,207997,1,0,0:0:0:0:
259,355,208084,1,2,0:1:0:0:
259,355,208170,1,0,0:0:0:0:
259,355,208256,2,0,L|166:337,1,94.5000003604889,0|0,1:0|0:0,0:0:0:0:
50,212,208601,2,0,B|0:251|0:251|23:374,1,189.000000720978,8|0,0:0|0:0,0:0:0:0:
193,201,209118,5,0,1:0:0:0:
184,154,209204,1,0,0:0:0:0:
175,108,209290,2,0,P|115:37|24:28,1,189.000000720978,10|0,0:1|1:0,0:0:0:0:
61,140,209808,1,0,1:0:0:0:
205,10,209980,2,0,L|298:28,1,94.5000003604889,8|0,0:0|0:0,0:0:0:0:
298,28,210239,1,0,0:0:0:0:
298,28,210325,1,0,0:0:0:0:
455,0,210497,1,0,1:0:0:0:
401,148,210670,69,10,0:0:0:0:
401,148,210756,1,0,0:0:0:0:
401,148,210842,1,0,0:0:0:0:
401,148,210928,1,0,0:0:0:0:
401,148,211015,2,0,L|383:241,1,94.5000003604889,0|0,1:0|0:0,0:0:0:0:
503,374,211359,1,8,0:0:0:0:
302,269,211532,1,0,0:0:0:0:
302,269,211618,1,0,0:0:0:0:
302,269,211704,1,0,0:0:0:0:
463,211,211877,5,0,1:0:0:0:
331,342,212049,1,8,0:0:0:0:
295,373,212135,2,0,L|202:355,1,94.5000003604889,4|8,3:0|0:0,0:0:0:0:
14,363,212394,70,0,P|68:289|159:284,1,189.000000720978,6|10,1:2|0:2,0:0:0:0:
331,342,212911,1,0,0:0:0:0:
377,346,212997,1,0,0:0:0:0:
422,332,213084,1,2,0:0:0:0:
459,303,213170,1,0,0:0:0:0:
481,261,213256,1,0,1:0:0:0:
470,110,213428,1,10,0:0:0:0:
364,217,213601,5,2,0:1:0:0:
364,217,213687,1,0,0:0:0:0:
364,217,213773,2,0,L|271:199,1,94.5000003604889,0|0,1:0|0:0,0:0:0:0:
404,0,214118,2,0,L|386:93,1,94.5000003604889,8|0,0:0|0:0,0:0:0:0:
386,92,214377,1,0,0:0:0:0:
386,92,214463,1,0,0:0:0:0:
271,199,214635,1,0,1:0:0:0:
150,80,214808,70,0,P|58:89|3:166,1,189.000000720978,10|0,0:1|1:0,0:0:0:0:
123,205,215325,1,0,1:0:0:0:
252,111,215497,2,0,L|234:18,1,94.5000003604889,8|0,0:0|0:0,0:0:0:0:
273,2,215756,1,0,0:0:0:0:
315,5,215842,1,0,0:0:0:0:
352,24,215928,1,0,0:0:0:0:
378,58,216015,1,0,1:0:0:0:
271,199,216187,1,10,0:0:0:0:
453,225,216359,5,0,0:0:0:0:
453,225,216446,1,0,0:0:0:0:
453,225,216532,2,0,L|471:132,1,94.5000003604889,0|0,1:0|0:0,0:0:0:0:
351,321,216877,1,8,0:0:0:0:
510,384,217049,1,0,0:0:0:0:
510,384,217135,1,0,0:0:0:0:
510,384,217222,1,0,0:0:0:0:
362,212,217394,1,0,1:0:0:0:
201,344,217566,69,10,0:0:0:0:
153,338,217653,1,0,0:0:0:0:
107,333,217739,1,0,0:0:0:0:
61,328,217825,1,0,0:0:0:0:
13,323,217911,1,4,1:0:0:0:
13,323,218256,6,0,L|31:230,1,94.5000003604889,10|0,0:2|0:0,0:0:0:0:
169,155,218601,1,2,0:0:0:0:
177,201,218687,1,0,0:0:0:0:
186,247,218773,1,0,1:0:0:0:
8,49,218946,69,10,0:0:0:0:
8,49,219032,1,0,0:0:0:0:
8,49,219118,1,2,0:1:0:0:
8,49,219204,1,0,0:0:0:0:
8,49,219290,2,0,B|78:35|78:35|115:60|115:60|186:49,1,189.000000720978,0|8,1:0|0:0,0:0:0:0:
420,74,219808,1,0,0:0:0:0:
420,74,219894,1,0,0:0:0:0:
420,74,219980,1,0,0:0:0:0:
254,3,220153,1,0,1:0:0:0:
353,119,220325,5,10,0:1:0:0:
348,165,220411,1,0,0:0:0:0:
343,212,220497,1,0,0:0:0:0:
338,259,220584,1,0,0:0:0:0:
333,306,220670,1,4,1:2:0:0:
512,384,220842,1,0,1:0:0:0:
491,190,221015,1,8,0:0:0:0:
448,292,221187,69,0,0:0:0:0:
448,292,221273,1,0,0:0:0:0:
448,292,221359,1,0,0:0:0:0:
288,382,221532,1,0,1:0:0:0:
155,255,221704,1,8,0:0:0:0:
108,250,221790,1,0,0:0:0:0:
63,263,221877,1,0,0:0:0:0:
27,293,221963,1,0,0:0:0:0:
4,335,222049,2,0,L|97:353,1,94.5000003604889,4|0,1:2|1:0,0:0:0:0:
256,192,222394,5,8,0:0:0:0:
98,60,222566,1,0,0:0:0:0:
98,60,222653,1,0,0:0:0:0:
98,60,222739,1,0,0:0:0:0:
63,263,222911,1,2,1:3:0:0:
332,30,223084,69,8,0:0:0:0:
386,27,223170,1,8,0:0:0:0:
432,58,223256,1,8,0:0:0:0:
450,110,223342,1,8,0:0:0:0:
509,155,223428,22,0,B|409:128|428:184|329:157,1,183.750001752377,4|0,1:0|0:0,0:0:0:0:
328,156,223773,1,8,0:0:0:0:
98,60,223946,5,0,3:0:0:0:
98,60,224032,1,0,3:0:0:0:
98,60,224118,2,0,L|111:-8,1,70,0|0,3:0|0:0,0:0:0:0:
237,119,224290,2,0,L|224:187,1,70,0|0,1:0|0:0,0:0:0:0:
2,203,224463,70,0,B|131:149|131:149|70:241,1,210,10|0,0:1|0:0,0:0:0:0:
0,384,224808,1,0,1:0:0:0:
210,256,224980,2,0,L|223:188,1,70,2|0,1:0|0:0,0:0:0:0:
45,285,225153,6,0,P|98:357|186:377,1,183.750001752377,8|8,0:0|3:0,0:0:0:0:
226,347,225497,1,4,3:0:0:0:
274,337,225584,1,4,3:0:0:0:
322,328,225670,1,0,1:0:0:0:
512,384,225842,70,0,L|451:372,1,61.2500005841255,10|0,0:1|0:0,0:0:0:0:
402,264,226015,2,0,L|462:275,1,61.2500005841255,8|0,3:0|3:0,0:0:0:0:
274,337,226187,6,0,B|217:291|217:291|244:156,1,210,4|0,1:2|0:0,0:0:0:0:
192,8,226532,1,8,0:0:0:0:
328,140,226704,70,0,L|316:208,1,70,0|0,3:0|0:0,0:0:0:0:
187,93,226877,2,0,L|252:69,1,70,0|0,3:0|0:0,0:0:0:0:
217,239,227049,2,0,L|163:194,1,70,0|0,1:0|0:0,0:0:0:0:
379,16,227222,5,10,0:1:0:0:
427,13,227308,1,8,3:0:0:0:
471,34,227394,1,4,3:0:0:0:
501,72,227480,1,4,3:0:0:0:
510,119,227566,2,2,L|482:260,1,140,2|0,1:0|1:0,0:1:0:0:
482,256,227911,70,0,L|346:230,1,122.500001168251,8|0,0:0|3:0,0:0:0:0:
314,248,228170,1,0,3:0:0:0:
268,264,228256,1,0,3:0:0:0:
352,377,228428,2,0,L|365:308,1,61.2500005841255,0|0,1:0|0:0,0:0:0:0:
256,99,228601,2,0,L|221:279,1,183.750001752377,8|0,0:0|0:0,0:0:0:0:
1,375,228946,6,0,P|41:279|147:271,1,210,4|0,1:0|0:0,0:0:0:0:
136,266,229290,1,8,0:0:0:0:
256,99,229463,69,0,3:0:0:0:
256,99,229549,1,0,3:0:0:0:
256,99,229635,2,0,L|184:85,1,70,0|0,3:0|0:0,0:0:0:0:
62,32,229808,2,0,L|133:18,1,70,0|0,1:0|0:0,0:0:0:0:
314,164,229980,6,0,B|393:149|393:149|436:178|436:178|512:164,1,210,10|0,0:1|0:0,0:0:0:0:
372,248,230325,70,2,B|348:374|348:374|379:321,1,183.750001752377,4|0,1:2|0:0,0:1:0:0:
512,164,230670,2,2,B|490:36|490:36|479:97,1,183.750001752377,12|0,0:1|0:0,0:1:0:0:
415,163,231015,5,4,3:0:0:0:
366,153,231101,1,4,3:0:0:0:
318,144,231187,1,0,1:0:0:0:
270,134,231273,1,8,3:0:0:0:
222,125,231359,2,0,L|232:65,1,61.2500005841255,8|0,0:0|0:0,0:0:0:0:
304,3,231532,2,0,L|315:63,1,61.2500005841255,4|0,3:0|0:0,0:0:0:0:
150,242,231704,70,0,P|61:233|2:164,1,183.750001752377,4|0,1:2|0:0,0:0:0:0:
42,39,232049,2,0,L|54:107,1,70,8|0,0:0|0:0,0:0:0:0:
150,242,232222,2,0,L|137:173,1,70,0|0,3:0|0:0,0:0:0:0:
0,287,232394,5,0,3:0:0:0:
9,335,232480,1,0,3:0:0:0:
18,384,232566,2,0,L|86:371,1,70,0|0,1:0|0:0,0:0:0:0:
232,307,232739,2,0,L|441:346,1,210,10|0,0:1|0:0,0:0:0:0:
496,186,233084,69,0,1:0:0:0:
327,294,233256,2,0,L|338:354,1,61.2500005841255,0|0,1:0|0:0,0:0:0:0:
512,274,233428,2,0,L|452:263,1,61.2500005841255,8|0,0:0|0:0,0:0:0:0:
374,3,233601,6,2,B|359:80|359:80|387:122|387:122|370:202,1,210,2|0,0:1|0:0,0:1:0:0:
469,55,233946,1,0,1:0:0:0:
243,158,234118,1,8,0:0:0:0:
243,158,234204,2,0,P|182:158|133:124,1,122.500001168251,4|0,3:0|0:0,0:0:0:0:
0,0,234463,70,0,P|90:77|102:197,1,245.000002336502,4|10,1:0|0:0,0:0:0:0:
17,383,234980,5,0,3:0:0:0:
9,334,235066,1,0,3:0:0:0:
0,285,235153,2,0,L|68:273,1,70,2|0,3:2|0:0,0:0:0:0:
170,209,235325,2,0,L|101:197,1,70,0|0,1:0|0:0,0:0:0:0:
200,363,235497,70,0,P|302:353|369:274,1,210,10|0,0:1|0:0,0:0:0:0:
341,140,235842,1,2,1:2:0:0:
454,260,236015,2,0,L|443:320,1,61.2500005841255,2|0,1:0|0:0,0:0:0:0:
268,226,236187,5,10,0:0:0:0:
452,96,236359,1,4,3:0:0:0:
428,53,236446,1,4,3:0:0:0:
391,21,236532,1,4,3:0:0:0:
345,4,236618,1,8,3:0:0:0:
297,4,236704,2,0,L|307:64,1,61.2500005841255,0|0,1:0|0:0,0:0:0:0:
112,211,236877,2,0,P|112:150|146:101,1,122.500001168251,10|0,0:1|0:0,0:0:0:0:
256,192,237135,69,8,3:0:0:0:
256,192,237222,2,0,B|356:165|337:221|436:194,1,183.750001752377,4|0,1:2|0:0,0:0:0:0:
512,104,237566,6,0,L|443:116,1,70,8|0,0:0|0:0,0:0:0:0:
412,259,237739,2,0,L|436:193,1,70,0|0,3:0|0:0,0:0:0:0:
327,94,237911,2,0,L|371:147,1,70,0|0,3:0|0:0,0:0:0:0:
512,183,238084,69,0,1:0:0:0:
303,300,238256,1,10,0:1:0:0:
255,291,238342,1,8,3:0:0:0:
207,282,238428,1,4,3:0:0:0:
158,273,238515,1,4,3:0:0:0:
110,264,238601,2,2,L|-28:288,1,122.500001168251,2|0,1:0|1:0,0:1:0:0:
256,192,238946,6,0,L|394:168,1,122.500001168251,8|0,0:0|3:0,0:0:0:0:
404,130,239204,1,0,3:0:0:0:
432,90,239290,1,0,3:0:0:0:
392,62,239377,1,0,3:0:0:0:
352,34,239463,2,0,L|362:94,1,61.2500005841255,0|0,1:0|0:0,0:0:0:0:
509,283,239635,2,0,L|489:163,1,122.500001168251,8|0,0:0|0:0,0:0:0:0:
384,303,239894,69,4,3:0:0:0:
354,341,239980,2,0,B|285:327|285:327|247:353|247:353|181:341,1,183.750001752377,4|0,1:0|0:0,0:0:0:0:
180,340,240325,1,10,0:0:0:0:
0,266,240497,5,0,3:0:0:0:
0,266,240584,1,0,3:0:0:0:
0,266,240670,2,0,L|69:278,1,70,2|0,3:2|0:0,0:0:0:0:
192,146,240842,2,0,L|123:134,1,70,0|0,1:0|0:0,0:0:0:0:
61,0,241015,70,0,L|96:206,1,210,10|0,0:1|0:0,0:0:0:0:
249,254,241359,6,2,P|301:180|298:90,1,183.750001752377,6|0,1:2|0:0,0:1:0:0:
61,0,241704,2,2,P|8:73|11:163,1,183.750001752377,12|0,0:1|0:0,0:1:0:0:
155,127,242049,69,4,3:0:0:0:
155,127,242135,1,4,3:0:0:0:
155,127,242222,1,0,1:0:0:0:
155,127,242308,1,8,3:0:0:0:
155,127,242394,2,0,B|255:100|236:156|335:129,1,183.750001752377,10|0,0:2|0:0,0:0:0:0:
471,3,242739,6,0,L|289:33,1,183.750001752377,4|0,1:2|0:0,0:0:0:0:
435,172,243084,2,0,L|423:102,1,70,8|0,0:0|0:0,0:0:0:0:
265,183,243256,2,0,L|276:251,1,70,0|0,3:0|0:0,0:0:0:0:
512,384,243428,69,0,3:0:0:0:
504,335,243515,1,0,3:0:0:0:
496,287,243601,2,0,L|428:298,1,70,0|0,1:0|0:0,0:0:0:0:
228,377,243773,2,0,P|264:296|351:274,1,183.750001752377,10|0,0:1|0:0,0:0:0:0:
512,384,244118,5,0,1:0:0:0:
351,274,244290,2,0,L|360:213,1,61.2500005841255,0|0,1:0|0:0,0:0:0:0:
504,97,244463,2,0,L|513:158,1,61.2500005841255,8|0,0:0|0:0,0:0:0:0:
357,31,244635,70,2,B|277:19|277:19|235:51|235:51|159:41,1,210,2|0,0:1|0:0,0:1:0:0:
301,117,244980,2,0,L|371:128,1,70,0|0,1:0|0:0,0:0:0:0:
185,270,245153,5,8,0:0:0:0:
131,278,245239,1,8,0:0:0:0:
78,266,245325,1,8,0:0:0:0:
33,238,245411,1,8,0:0:0:0:
1,193,245497,1,4,0:0:0:0:
