osu file format v14

[General]
AudioFilename: audio.mp3
AudioLeadIn: 0
PreviewTime: 135153
Countdown: 0
SampleSet: Soft
StackLeniency: 0.7
Mode: 0
LetterboxInBreaks: 0
WidescreenStoryboard: 1

[Editor]
Bookmarks: 57912,68946,113084,135153,157222,179290,223428,245497
DistanceSpacing: 0.95
BeatDivisor: 4
GridSize: 32
TimelineZoom: 1.4

[Metadata]
Title:;w;
TitleUnicode:;ω;
Artist:7_7
ArtistUnicode:7_7
Creator:fllecc
Version:Easy
Source:
Tags:fa featured artist mpg mappers' guild instrumental electronic d&b dnb drum & and bass breakcore toybot vikala
BeatmapID:4470135
BeatmapSetID:2122395

[Difficulty]
HPDrainRate:3
CircleSize:3
OverallDifficulty:3
ApproachRate:3
SliderMultiplier:0.9
SliderTickRate:1

[Events]
//Background and Video events
0,0,"F_nbmYAa8AARj0F.jpg",0,0
//Break Periods
2,135352,155782
//Storyboard Layer 0 (Background)
//Storyboard Layer 1 (Fail)
//Storyboard Layer 2 (Pass)
//Storyboard Layer 3 (Foreground)
//Storyboard Layer 4 (Overlay)
//Storyboard Sound Samples

[TimingPoints]
2740,344.827586206897,4,2,1,50,1,0
57912,-100,4,2,1,50,0,0
63429,-100,4,2,1,60,0,0
66188,-100,4,2,1,50,0,0
66877,-100,4,2,2,60,0,0
67222,-100,4,2,1,70,0,0
68257,-100,4,2,1,90,0,0
68946,-100,4,2,1,80,0,0
113084,-100,4,2,1,90,0,1
135153,-100,4,2,1,90,0,0
146188,346.820809248555,4,2,1,50,1,0
151705,346.820809248555,4,2,1,50,1,0
157222,344.827586206897,4,2,1,80,1,0
157222,-100,4,2,1,80,0,0
223428,-100,4,2,1,90,0,1
245497,-100,4,2,1,70,0,0

[Colours]
Combo1 : 207,207,207
Combo2 : 156,207,203
Combo3 : 208,170,221
Combo4 : 255,79,114
Combo5 : 255,113,194
Combo6 : 170,170,170

[HitObjects]
416,256,57912,70,0,L|399:344,2,90,4|0|0,3:2|3:0|3:0,0:0:0:0:
486,207,58946,1,2,3:2:0:0:
441,132,59291,2,0,P|355:145|312:220,1,180,0|0,3:0|3:0,0:0:0:0:
238,264,60326,2,0,L|149:246,1,90,0|0,3:0|3:0,0:0:0:0:
1,160,61360,6,0,L|14:71,2,90,2|0|0,3:2|3:2|3:0,0:0:0:0:
149,246,62740,2,0,L|132:334,1,90,2|0,3:2|3:2,0:0:0:0:
202,383,63429,6,0,L|290:365,1,90,8|8,0:1|0:1,0:0:0:0:
374,349,64119,1,8,0:1:0:0:
458,333,64464,1,8,0:1:0:0:
442,249,64808,6,0,L|456:160,1,90,8|8,0:1|0:1,0:0:0:0:
511,94,65498,1,8,0:1:0:0:
477,15,65843,2,0,L|388:31,1,90,8|0,0:1|0:0,0:0:0:0:
304,47,66533,38,2,L|352:312,1,270,8|8,0:0|0:3,0:0:0:0:
189,364,68257,54,2,P|102:351|59:276,1,180,4|4,3:0|1:0,0:1:0:0:
104,203,69291,54,0,L|86:115,2,90,10|2|10,0:0|0:0|0:0,0:0:0:0:
171,258,70326,1,2,1:2:0:0:
217,186,70671,2,0,L|394:217,1,180,8|8,0:0|0:0,0:0:0:0:
478,232,71705,2,0,L|494:143,1,90,0|8,1:0|0:0,0:0:0:0:
509,58,72395,2,0,L|421:43,1,90,0|8,0:0|0:0,0:0:0:0:
336,27,73084,1,0,1:0:0:0:
273,84,73429,2,0,L|303:261,1,180,8|8,0:0|0:0,0:0:0:0:
373,310,74464,6,0,L|461:293,2,90,2|10|2,1:2|0:0|0:0,0:0:0:0:
296,348,75498,1,10,0:2:0:0:
225,300,75843,1,2,1:2:0:0:
147,337,76188,2,0,P|60:324|17:249,1,180,8|8,0:0|0:0,0:0:0:0:
80,191,77222,2,0,L|64:102,1,90,0|8,1:0|0:0,0:0:0:0:
49,17,77912,2,0,L|138:1,1,90,0|8,0:0|0:0,0:0:0:0:
212,42,78602,1,0,1:0:0:0:
158,108,78946,1,8,0:0:0:0:
179,277,79636,1,8,0:0:0:0:
123,343,79981,70,0,L|34:327,2,90,6|10|2,1:2|0:0|0:0,0:0:0:0:
207,357,81015,1,10,0:2:0:0:
290,373,81360,1,2,1:2:0:0:
352,314,81705,2,0,L|321:136,1,180,8|8,0:0|0:0,0:0:0:0:
307,52,82740,2,0,L|395:68,1,90,0|8,1:0|0:0,0:0:0:0:
479,83,83429,2,0,L|463:172,1,90,0|8,0:0|0:0,0:0:0:0:
511,242,84119,1,0,1:0:0:0:
440,289,84464,2,0,L|263:259,1,180,8|8,0:0|0:0,0:0:0:0:
173,243,85498,6,0,L|189:331,2,90,2|10|2,1:2|0:0|0:0,0:0:0:0:
132,167,86533,1,10,0:0:0:0:
69,225,86877,1,2,1:2:0:0:
28,149,87222,2,0,P|71:73|157:61,1,180,8|8,0:0|0:0,0:0:0:0:
238,34,88257,2,0,L|254:122,1,90,0|8,1:0|0:0,0:0:0:0:
199,188,88946,1,0,0:0:0:0:
272,231,89291,1,8,0:0:0:0:
217,296,89636,2,0,L|233:385,1,90,0|8,1:0|0:0,0:0:0:0:
317,370,90326,1,0,0:0:0:0:
401,355,90671,1,8,0:0:0:0:
451,286,91015,70,0,L|435:198,2,90,4|10|2,1:0|0:0|0:0,0:0:0:0:
401,355,92050,1,10,0:1:0:0:
328,308,92395,1,0,1:2:0:0:
278,377,92740,2,0,P|191:364|148:289,1,180,8|10,0:0|0:1,0:0:0:0:
212,232,93774,2,0,L|197:143,1,90,0|8,1:0|0:0,0:0:0:0:
184,58,94464,2,0,L|96:74,1,90,0|8,0:0|0:0,0:0:0:0:
17,39,95153,1,0,1:0:0:0:
6,123,95498,2,0,L|36:300,1,180,8|8,0:0|0:0,0:0:0:0:
103,353,96533,6,0,L|191:338,2,90,2|10|2,1:2|0:0|0:0,0:0:0:0:
36,300,97567,1,10,0:1:0:0:
47,216,97912,1,0,1:0:0:0:
131,227,98257,2,0,L|308:258,1,180,8|10,0:0|0:1,0:0:0:0:
371,316,99291,2,0,L|460:299,1,90,0|8,1:0|0:0,0:0:0:0:
510,230,99981,2,0,L|495:142,1,90,0|8,0:0|0:0,0:0:0:0:
418,101,100671,1,0,1:0:0:0:
404,16,101015,1,8,0:0:0:0:
254,98,101705,1,8,0:0:0:0:
178,138,102050,70,0,L|90:122,2,90,6|10|2,1:2|0:0|0:0,0:0:0:0:
232,203,103084,1,10,0:1:0:0:
216,287,103429,1,0,1:0:0:0:
201,371,103774,2,0,P|114:358|71:283,1,180,8|10,0:0|0:1,0:0:0:0:
7,226,104808,2,0,L|23:138,1,90,0|8,1:0|0:0,0:0:0:0:
39,53,105498,2,0,L|127:68,1,90,0|8,0:0|0:0,0:0:0:0:
200,22,106188,1,0,1:0:0:0:
249,91,106533,2,0,L|216:268,1,180,8|8,0:0|0:0,0:0:0:0:
140,309,107567,6,0,L|52:292,2,90,2|10|2,1:2|0:0|0:0,0:0:0:0:
196,374,108602,1,10,0:1:0:0:
280,358,108946,1,0,1:0:0:0:
365,350,109291,2,0,P|452:337|495:262,1,180,8|10,0:0|0:1,0:0:0:0:
452,187,110326,2,0,L|468:98,1,90,0|8,1:0|0:0,0:0:0:0:
422,26,111015,1,0,0:0:0:0:
337,41,111360,1,8,0:0:0:0:
252,56,111705,2,0,L|268:145,1,90,0|8,1:0|0:0,0:0:0:0:
224,218,112395,1,0,0:0:0:0:
139,203,112740,1,8,0:0:0:0:
54,188,113084,5,4,1:0:0:0:
3,256,113429,2,0,L|11:300,2,45,8|0|2,0:0|3:0|3:1,0:0:0:0:
54,188,114119,1,10,0:1:0:0:
39,103,114464,2,0,L|55:15,2,90,0|8|0,1:0|0:0|3:0,0:0:0:0:
121,133,115498,1,8,0:0:0:0:
203,163,115843,6,0,L|227:295,1,135,4|0,1:2|3:0,0:0:0:0:
235,337,116533,2,0,L|323:320,1,90,2|8,3:1|0:0,0:0:0:0:
397,362,117222,1,0,1:0:0:0:
449,294,117567,2,0,L|432:206,1,90,8|0,0:0|3:0,0:0:0:0:
414,121,118257,1,8,0:0:0:0:
498,103,118602,70,0,P|455:28|369:16,1,180,4|2,1:0|3:1,0:0:0:0:
300,67,119636,1,10,0:1:0:0:
239,7,119981,2,0,L|151:23,2,90,0|8|0,1:0|0:0|3:0,0:0:0:0:
300,67,121015,1,8,0:0:0:0:
280,150,121360,6,0,L|248:280,1,135,4|0,1:2|3:0,0:0:0:0:
237,322,122050,2,0,L|149:338,1,90,2|10,3:1|0:1,0:0:0:0:
64,352,122740,1,0,1:0:0:0:
13,282,123084,2,0,L|30:194,1,90,8|0,0:0|3:0,0:0:0:0:
98,142,123774,1,8,0:0:0:0:
27,92,124119,70,0,L|44:4,2,90,4|10|2,1:0|0:0|3:2,0:0:0:0:
98,142,125153,1,10,0:1:0:0:
183,127,125498,1,2,1:2:0:0:
268,112,125843,2,0,L|285:200,1,90,10|0,0:0|3:0,0:0:0:0:
230,266,126533,1,8,0:0:0:0:
304,306,126877,6,0,L|436:331,1,135,4|0,1:2|3:0,0:0:0:0:
478,339,127567,2,0,L|461:251,1,90,2|10,3:1|0:1,0:0:0:0:
508,179,128257,1,0,1:0:0:0:
436,131,128602,2,0,L|453:43,2,90,8|0|8,0:0|3:0|0:0,0:0:0:0:
357,165,129636,70,0,P|270:153|227:78,1,180,4|2,1:0|3:2,0:0:0:0:
167,17,130671,1,10,0:1:0:0:
101,71,131015,2,0,L|13:87,1,90,2|10,1:2|0:0,0:0:0:0:
27,171,131705,1,0,3:0:0:0:
41,254,132050,1,8,0:0:0:0:
55,337,132395,6,0,L|187:312,1,135,4|0,1:2|3:0,0:0:0:0:
229,305,133084,2,0,L|212:217,1,90,2|10,3:1|0:1,0:0:0:0:
195,132,133774,1,0,1:0:0:0:
260,77,134119,1,8,0:0:0:0:
340,105,134464,1,0,3:0:0:0:
405,50,134808,2,0,L|449:58,2,45,8|8|4,0:0|0:0|1:0,0:0:0:0:
390,217,157222,38,0,L|374:128,1,90,4|8,1:0|0:0,0:0:0:0:
360,43,157911,2,0,L|271:59,1,90,0|10,0:0|0:0,0:0:0:0:
197,15,158601,1,0,1:0:0:0:
153,89,158946,2,0,L|185:267,1,180,8|10,0:0|0:0,0:0:0:0:
150,344,159980,2,0,L|61:360,1,90,0|8,1:0|0:0,0:0:0:0:
1,299,160670,2,0,L|17:210,1,90,0|10,0:0|0:0,0:0:0:0:
33,126,161359,1,0,1:0:0:0:
110,163,161704,2,0,P|197:150|240:75,1,180,8|10,0:0|0:0,0:0:0:0:
309,24,162739,6,0,L|398:40,1,90,0|8,1:0|0:0,0:0:0:0:
481,54,163428,2,0,L|465:143,1,90,0|10,0:0|0:0,0:0:0:0:
390,185,164118,1,0,1:0:0:0:
439,254,164463,2,0,P|395:329|309:341,1,180,8|10,0:0|0:0,0:0:0:0:
254,275,165497,2,0,L|270:186,1,90,0|8,1:0|0:0,0:0:0:0:
330,126,166187,2,0,L|314:37,1,90,0|10,0:0|0:0,0:0:0:0:
236,0,166877,1,0,1:0:0:0:
181,65,167222,1,8,0:0:0:0:
12,39,167911,1,8,0:0:0:0:
27,123,168256,70,0,L|43:212,1,90,0|8,1:0|0:0,0:0:0:0:
57,295,168946,2,0,L|146:311,1,90,0|10,0:0|0:0,0:0:0:0:
200,376,169635,1,0,1:0:0:0:
274,333,169980,2,0,L|452:301,1,180,8|10,0:0|0:0,0:0:0:0:
509,238,171015,2,0,L|493:149,1,90,0|8,1:0|0:0,0:0:0:0:
479,66,171704,2,0,L|390:82,1,90,0|10,0:0|0:0,0:0:0:0:
310,49,172394,1,0,1:0:0:0:
277,129,172739,2,0,L|99:161,1,180,8|10,0:0|0:0,0:0:0:0:
11,176,173773,6,0,L|27:87,1,90,0|8,1:0|0:0,0:0:0:0:
98,40,174463,2,0,L|187:56,1,90,0|10,0:0|0:0,0:0:0:0:
262,15,175153,1,0,1:0:0:0:
291,93,175497,2,0,P|335:168|421:180,1,180,8|10,0:0|0:0,0:0:0:0:
491,130,176532,2,0,L|475:41,1,90,0|8,1:0|0:0,0:0:0:0:
398,3,177222,1,0,0:0:0:0:
335,60,177566,1,10,0:0:0:0:
262,15,177911,2,0,L|173:31,1,90,0|8,1:0|0:0,0:0:0:0:
137,108,178601,1,0,0:0:0:0:
201,164,178946,1,10,0:0:0:0:
160,240,179290,69,4,1:0:0:0:
96,184,179635,2,0,L|8:166,2,90,10|2|10,0:0|0:0|0:0,0:0:0:0:
160,240,180670,1,0,1:0:0:0:
224,296,181015,2,0,P|310:284|354:209,1,180,8|10,0:0|0:1,0:0:0:0:
291,150,182049,2,0,L|307:61,1,90,0|8,1:0|0:0,0:0:0:0:
380,18,182739,2,0,L|469:34,1,90,0|10,0:0|0:0,0:0:0:0:
510,108,183428,1,0,1:0:0:0:
443,161,183773,2,0,L|475:339,1,180,8|10,0:0|0:0,0:0:0:0:
401,382,184808,6,0,L|312:366,2,90,2|10|2,1:2|0:0|0:0,0:0:0:0:
474,338,185842,1,10,0:0:0:0:
460,253,186187,1,0,1:0:0:0:
446,168,186532,2,0,P|360:180|316:255,1,180,8|10,0:0|0:1,0:0:0:0:
248,307,187566,2,0,L|159:291,1,90,0|8,1:0|0:0,0:0:0:0:
101,353,188256,2,0,L|12:337,1,90,0|10,0:0|0:0,0:0:0:0:
27,252,188946,1,0,1:0:0:0:
107,221,189290,1,8,0:0:0:0:
80,51,189980,1,8,0:0:0:0:
149,0,190325,70,0,L|238:16,2,90,6|10|2,1:2|0:0|0:0,0:0:0:0:
80,51,191359,1,10,0:0:0:0:
94,136,191704,1,0,1:0:0:0:
108,221,192049,2,0,P|194:209|238:134,1,180,8|10,0:0|0:1,0:0:0:0:
301,74,193084,2,0,L|390:90,1,90,0|8,1:0|0:0,0:0:0:0:
473,105,193773,2,0,L|457:194,1,90,0|10,0:0|0:0,0:0:0:0:
511,259,194463,1,0,1:0:0:0:
434,297,194808,2,0,L|256:265,1,180,8|10,0:0|0:0,0:0:0:0:
212,191,195842,6,0,L|228:102,2,90,2|10|2,1:2|0:2|0:0,0:0:0:0:
140,237,196877,1,10,0:0:0:0:
55,222,197222,1,0,1:0:0:0:
4,291,197566,2,0,P|47:366|134:378,1,180,8|10,0:0|0:1,0:0:0:0:
195,318,198601,2,0,L|284:334,1,90,0|8,1:0|0:0,0:0:0:0:
355,380,199290,1,0,0:0:0:0:
439,366,199635,1,10,0:0:0:0:
481,291,199980,2,0,L|465:202,1,90,0|8,1:0|0:0,0:0:0:0:
400,145,200670,1,0,0:0:0:0:
440,69,201015,1,10,0:0:0:0:
373,15,201359,70,0,L|284:31,2,90,4|10|2,1:0|0:0|0:0,0:0:0:0:
440,69,202394,1,10,0:0:0:0:
400,145,202739,1,0,1:0:0:0:
360,221,203084,2,0,P|273:208|229:133,1,180,8|10,0:0|0:1,0:0:0:0:
175,67,204118,2,0,L|86:83,1,90,0|8,1:0|0:0,0:0:0:0:
2,100,204808,2,0,L|18:189,1,90,0|10,0:0|0:0,0:0:0:0:
96,222,205497,1,0,1:0:0:0:
40,287,205842,2,0,P|83:362|170:374,1,180,8|10,0:0|0:0,0:0:0:0:
216,301,206877,6,0,L|305:317,2,90,2|10|2,1:2|0:0|0:0,0:0:0:0:
168,230,207911,1,10,0:0:0:0:
232,175,208256,1,0,1:0:0:0:
184,104,208601,2,0,P|227:28|314:16,1,180,8|10,0:0|0:1,0:0:0:0:
389,52,209635,2,0,L|373:141,1,90,0|8,1:0|0:0,0:0:0:0:
441,191,210325,2,0,L|425:280,1,90,0|10,0:0|0:0,0:0:0:0:
484,341,211015,1,0,1:0:0:0:
407,379,211359,1,8,0:0:0:0:
239,345,212049,1,8,0:0:0:0:
186,277,212394,70,0,L|97:293,2,90,6|10|2,1:2|0:2|0:0,0:0:0:0:
253,224,213428,1,10,0:0:0:0:
207,149,213773,1,0,1:0:0:0:
272,94,214118,2,0,P|229:18|142:6,1,180,8|10,0:0|0:1,0:0:0:0:
75,57,215153,2,0,L|91:146,1,90,0|8,1:0|0:0,0:0:0:0:
22,197,215842,2,0,L|38:286,1,90,0|10,0:0|0:0,0:0:0:0:
53,369,216532,1,0,1:0:0:0:
130,333,216877,2,0,P|216:320|258:244,1,180,8|10,0:0|0:0,0:0:0:0:
200,180,217911,6,0,L|216:91,2,90,4|10|2,1:0|0:2|0:0,0:0:0:0:
258,243,218946,1,10,0:0:0:0:
342,228,219290,1,0,1:0:0:0:
426,213,219635,2,0,L|394:35,1,180,8|10,0:0|0:1,0:0:0:0:
477,23,220670,2,0,L|493:112,1,90,4|8,1:2|0:0,0:0:0:0:
510,195,221359,1,0,0:0:0:0:
426,213,221704,1,8,0:0:0:0:
341,230,222049,2,0,L|252:214,1,90,4|8,1:2|0:0,0:0:0:0:
167,199,222739,1,0,0:0:0:0:
152,283,223084,1,8,0:0:0:0:
137,367,223428,5,4,1:0:0:0:
222,382,223773,2,0,L|266:374,2,45,8|0|0,0:0|3:0|3:0,0:0:0:0:
137,367,224463,1,10,0:1:0:0:
52,352,224808,1,0,1:0:0:0:
2,281,225153,2,0,L|18:192,1,90,8|4,0:0|3:0,0:0:0:0:
86,142,225842,1,10,0:1:0:0:
40,69,226187,5,4,1:2:0:0:
108,18,226532,2,0,L|153:25,2,45,8|0|0,0:0|3:0|3:0,0:0:0:0:
40,69,227222,1,10,0:1:0:0:
86,142,227566,2,0,L|175:126,1,90,2|8,1:0|0:0,0:0:0:0:
234,64,228256,1,0,3:0:0:0:
318,82,228601,1,8,0:0:0:0:
376,19,228946,70,0,P|442:27|475:85,1,135,4|0,1:0|3:0,0:0:0:0:
449,116,229635,2,0,L|465:205,1,90,0|10,3:0|0:1,0:0:0:0:
480,288,230325,1,4,1:2:0:0:
396,306,230670,1,12,0:1:0:0:
312,324,231015,2,0,L|223:308,1,90,4|8,3:0|0:0,0:0:0:0:
139,291,231704,5,4,1:2:0:0:
68,340,232049,2,0,L|75:385,2,45,8|0|0,0:0|3:0|3:0,0:0:0:0:
7,279,232739,1,10,0:1:0:0:
78,230,233084,2,0,L|62:141,2,90,0|8|2,1:0|0:0|0:1,0:0:0:0:
162,212,234118,1,8,0:0:0:0:
246,194,234463,70,0,L|334:177,2,90,4|10|2,1:0|0:0|3:2,0:0:0:0:
228,110,235497,1,10,0:1:0:0:
210,26,235842,1,2,1:2:0:0:
126,44,236187,2,0,L|37:28,1,90,10|4,0:0|3:0,0:0:0:0:
21,112,236877,1,10,0:1:0:0:
4,195,237222,5,4,1:2:0:0:
76,240,237566,2,0,L|120:232,2,45,8|0|0,0:0|3:0|3:0,0:0:0:0:
27,310,238256,1,10,0:1:0:0:
99,355,238601,2,0,L|188:339,1,90,2|8,1:0|0:0,0:0:0:0:
265,374,239290,2,0,L|354:358,1,90,0|8,3:0|0:0,0:0:0:0:
395,283,239980,70,0,P|361:227|296:220,1,135,4|0,1:0|3:0,0:0:0:0:
262,193,240670,2,0,L|278:104,1,90,2|10,3:2|0:1,0:0:0:0:
339,45,241359,1,6,1:2:0:0:
423,63,241704,1,12,0:1:0:0:
507,81,242049,2,0,L|491:170,1,90,4|10,3:0|0:2,0:0:0:0:
415,210,242739,5,4,1:2:0:0:
473,272,243084,2,0,L|466:317,2,45,8|0|0,0:0|3:0|3:0,0:0:0:0:
415,210,243773,1,10,0:1:0:0:
331,228,244118,2,0,L|242:212,1,90,0|8,1:0|0:0,0:0:0:0:
157,197,244808,1,2,0:1:0:0:
72,182,245153,2,0,L|28:190,2,45,8|8|4,0:0|0:0|0:1,0:0:0:0:
