osu file format v14

[General]
AudioFilename: audio.mp3
AudioLeadIn: 0
PreviewTime: 109171
Countdown: 0
SampleSet: Soft
StackLeniency: 0.7
Mode: 0
LetterboxInBreaks: 0
WidescreenStoryboard: 1

[Editor]
DistanceSpacing: 1.1
BeatDivisor: 2
GridSize: 32
TimelineZoom: 2

[Metadata]
Title:[WAVE ALPHA]
TitleUnicode:【WAVE ALPHA】
Artist:7UPPERCUTS x CAM
ArtistUnicode:7UPPERCUTS x CAM
Creator:Asaiga
Version:PandaHero's Normal
Source:
Tags:lmt lasse pandahero vpop vietnamese couple BACKYARD TYO
BeatmapID:1948210
BeatmapSetID:920529

[Difficulty]
HPDrainRate:4
CircleSize:3.5
OverallDifficulty:4
ApproachRate:5
SliderMultiplier:0.8
SliderTickRate:1

[Events]
//Background and Video events
0,0,"past.jpg",0,0
//Break Periods
2,85434,89183
//Storyboard Layer 0 (Background)
//Storyboard Layer 1 (Fail)
//Storyboard Layer 2 (Pass)
//Storyboard Layer 3 (Foreground)
//Storyboard Sound Samples

[TimingPoints]
74,309.278350515464,4,2,1,70,1,0
11208,-100,4,2,1,70,0,0
11439,-100,4,2,1,5,0,0
11517,-100,4,2,1,70,0,0
16388,-100,4,2,1,5,0,0
16465,-100,4,2,1,70,0,0
21104,-100,4,2,1,60,0,0
26053,-100,4,2,1,60,0,0
29764,-100,4,2,1,60,0,0
31001,-100,4,2,1,70,0,0
31233,-100,4,2,1,5,0,0
31311,-100,4,2,1,70,0,0
36182,-100,4,2,1,5,0,0
36259,-100,4,2,1,70,0,0
41130,-100,4,2,1,5,0,0
41208,-100,4,2,1,70,0,0
46079,-100,4,2,1,5,0,0
46156,-100,4,2,1,70,0,0
48553,-100,4,2,1,5,0,0
48630,-100,4,2,1,70,0,0
50795,-100,4,2,1,70,0,0
54816,-100,4,2,1,70,0,0
55744,-100,4,2,1,70,0,0
60692,-100,4,2,1,80,0,1
80486,-100,4,2,1,70,0,0
90383,-100,4,2,1,60,0,0
95022,-100,4,2,1,60,0,0
95331,-100,4,2,1,60,0,0
95641,-100,4,2,1,60,0,0
95950,-100,4,2,1,60,0,0
96568,-100,4,2,1,60,0,0
96878,-100,4,2,1,60,0,0
97187,-100,4,2,1,60,0,0
99970,-100,4,2,1,60,0,0
100280,-100,4,2,1,60,0,0
102445,-100,4,2,1,60,0,0
102754,-100,4,2,1,60,0,0
104919,-100,4,2,1,60,0,0
105228,-100,4,2,1,60,0,0
107393,-100,4,2,1,60,0,0
107702,-100,4,2,1,60,0,0
110177,-100,4,2,1,80,0,1
127496,-100,4,2,1,70,0,0
129970,-100,4,2,1,60,0,0
144816,-100,4,2,1,70,0,0
149764,-100,4,2,1,70,0,0
149919,-100,4,2,1,30,0,0
152316,-100,4,2,1,30,0,0
154945,-100,4,2,1,30,0,0

[Colours]
Combo1 : 233,122,219
Combo2 : 228,141,116

[HitObjects]
41,33,11208,6,0,P|37:90|36:124,1,80,4|8,0:0|0:0,0:0:0:0:
118,144,11826,2,0,P|136:126|164:109,2,40,2|2|8,0:0|0:0|0:0,0:0:0:0:
102,185,12290,2,0,P|93:244|111:268,1,80,6|2,0:0|0:0,0:0:0:0:
144,269,12754,1,8,0:0:0:0:
219,224,13063,1,2,0:0:0:0:
295,267,13372,1,8,0:0:0:0:
259,347,13682,6,0,P|220:346|165:355,2,80,6|8|2,0:0|0:0|0:0,0:0:0:0:
345,331,14610,1,2,0:0:0:0:
380,356,14764,2,0,P|425:358|466:350,1,80,12|2,0:0|0:0,0:0:0:0:
487,318,15228,1,8,0:0:0:0:
429,251,15537,1,8,0:0:0:0:
473,174,15847,2,0,L|475:130,1,40,8|0,3:2|3:0,0:0:0:0:
444,101,16156,6,0,L|364:96,1,80,4|8,0:0|0:0,0:0:0:0:
289,143,16775,2,0,L|242:139,2,40,2|2|2,0:0|0:0|0:0,0:0:0:0:
298,185,17238,2,0,L|291:271,1,80,12|2,0:0|0:0,0:0:0:0:
259,294,17702,1,8,0:0:0:0:
175,265,18012,1,2,0:0:0:0:
110,324,18321,2,0,L|57:323,1,40,8|2,0:0|0:0,0:0:0:0:
33,298,18630,5,4,0:0:0:0:
14,212,18939,1,8,0:0:0:0:
89,166,19249,2,0,L|143:170,2,40,2|2|2,0:0|0:0|0:0,0:0:0:0:
76,123,19713,2,0,P|87:83|103:47,1,80,12|2,0:0|0:0,0:0:0:0:
143,31,20177,1,8,0:0:0:0:
217,78,20486,1,8,0:0:0:0:
261,153,20795,2,0,L|256:208,1,40,0|0,3:0|3:0,0:0:0:0:
224,222,21104,6,0,L|226:316,1,80,6|8,0:0|0:0,0:0:0:0:
62,235,22032,1,8,0:0:0:0:
105,157,22342,2,0,L|149:161,2,40,2|2|8,0:0|0:0|0:0,0:0:0:0:
71,75,22960,2,0,L|25:80,2,40,2|2|8,0:0|0:0|0:0,0:0:0:0:
156,52,23579,5,2,0:0:0:0:
239,80,23888,1,8,0:0:0:0:
407,29,24506,1,8,0:0:0:0:
475,84,24816,2,0,L|479:127,1,40,2|2,0:0|0:0,0:0:0:0:
478,167,25125,1,8,0:0:0:0:
400,207,25434,2,0,L|392:166,1,40,2|2,0:0|0:0,0:0:0:0:
382,124,25743,1,8,0:0:0:0:
302,161,26053,6,0,P|312:223|315:284,2,120,2|0|8,0:0|0:0|0:0,0:0:0:0:
261,82,27290,2,0,L|207:80,1,40,2|2,0:0|0:0,0:0:0:0:
176,82,27599,1,8,0:0:0:0:
95,118,27909,2,0,L|46:114,2,40,2|2|8,0:0|0:0|0:0,0:0:0:0:
105,205,28527,6,0,L|94:293,1,80,2|8,0:0|0:0,0:0:0:0:
153,350,29146,1,0,0:0:0:0:
233,313,29455,1,8,0:0:0:0:
311,351,29764,2,0,L|318:262,1,80,2|8,0:0|0:0,0:0:0:0:
316,183,30383,2,0,L|269:185,2,40,2|2|8,0:0|0:0|0:0,0:0:0:0:
400,156,31001,5,4,0:0:0:0:
474,201,31311,1,8,0:0:0:0:
491,287,31620,2,0,L|487:331,1,40,2|2,0:0|0:0,0:0:0:0:
452,353,31929,1,8,0:0:0:0:
452,353,32084,2,0,P|399:342|314:341,1,120,2|8,0:0|0:0,0:0:0:0:
251,306,32857,2,0,L|194:316,2,40,2|2|8,0:0|0:0|0:0,0:0:0:0:
305,236,33476,6,0,P|309:178|301:134,1,80,2|8,0:0|0:0,0:0:0:0:
290,70,34094,2,0,L|237:66,1,40,2|2,0:0|0:0,0:0:0:0:
210,86,34403,1,8,0:0:0:0:
210,86,34558,2,0,P|157:75|72:74,1,120,2|8,0:0|0:0,0:0:0:0:
17,120,35331,1,2,0:0:0:0:
71,189,35641,2,0,L|67:244,1,40,8|0,0:0|3:0,0:0:0:0:
89,267,35950,6,0,P|86:308|89:376,2,80,6|8|2,0:0|0:0|0:0,0:0:0:0:
168,228,36878,1,8,0:0:0:0:
168,228,37032,2,0,P|215:252|292:245,1,120,2|8,0:0|0:0,0:0:0:0:
338,182,37805,2,0,L|386:187,1,40,2|2,0:0|0:0,0:0:0:0:
421,190,38115,1,8,0:0:0:0:
487,247,38424,5,2,0:0:0:0:
469,333,38733,1,8,0:0:0:0:
392,289,39043,1,2,0:0:0:0:
307,313,39352,2,0,L|300:370,1,40,8|2,0:0|0:0,0:0:0:0:
258,355,39661,2,0,P|192:362|155:344,1,80,0|8,0:0|0:0,0:0:0:0:
102,316,40280,1,2,0:0:0:0:
155,246,40589,2,0,L|206:243,2,40,8|0|4,3:2|3:0|0:0,0:0:0:0:
115,167,41208,6,0,P|71:192|17:195,1,80,8|2,0:0|0:0,0:0:0:0:
9,115,41826,1,8,0:0:0:0:
9,115,41981,2,0,P|34:67|95:42,1,120,2|8,0:0|0:0,0:0:0:0:
171,80,42754,1,2,0:0:0:0:
254,51,43063,1,8,0:0:0:0:
308,120,43372,1,4,0:0:0:0:
263,197,43682,5,8,0:0:0:0:
263,197,44300,1,8,0:0:0:0:
435,233,44919,1,8,0:0:0:0:
435,233,45537,1,8,0:0:0:0:
435,144,45847,6,0,P|368:151|332:145,2,80,4|8|2,0:0|0:0|0:0,0:0:0:0:
458,59,46775,1,8,0:0:0:0:
458,59,46929,2,0,P|405:35|321:53,1,120,6|8,0:0|0:0,0:0:0:0:
269,87,47702,2,0,L|223:83,1,40,2|2,0:0|0:0,0:0:0:0:
187,100,48012,1,8,0:0:0:0:
185,187,48321,1,4,0:0:0:0:
275,208,48630,5,8,0:0:0:0:
275,208,49249,1,8,0:0:0:0:
175,353,49867,1,8,0:0:0:0:
175,353,50486,1,8,0:0:0:0:
89,334,50795,6,0,P|73:240|33:162,1,160,12|8,0:0|0:0,0:0:0:0:
0,105,51723,1,0,0:0:0:0:
56,37,52032,1,2,0:0:0:0:
56,37,52187,2,0,P|122:51|189:47,1,120,8|8,0:0|0:0,0:0:0:0:
262,46,52960,1,2,0:0:0:0:
288,129,53269,6,0,L|281:227,1,80,4|0,0:0|0:0,0:0:0:0:
310,292,53888,2,0,B|378:254|389:330|465:286,1,160,8|2,0:0|0:0,0:0:0:0:
506,210,54816,1,0,0:0:0:0:
448,143,55125,2,0,P|405:136|359:139,1,80,8|2,0:0|0:0,0:0:0:0:
294,185,55744,5,4,0:0:0:0:
219,237,56053,1,8,0:0:0:0:
198,151,56362,2,0,L|196:106,1,40,2|2,0:0|0:0,0:0:0:0:
191,67,56671,1,8,0:0:0:0:
111,28,56981,2,0,P|34:33|15:48,1,80,0|8,0:0|0:0,0:0:0:0:
24,120,57599,1,8,0:0:0:0:
24,120,57754,2,0,L|30:206,1,80,2|8,0:0|0:0,0:0:0:0:
132,286,58527,5,8,0:0:0:0:
201,232,58836,1,2,0:0:0:0:
279,273,59146,1,0,0:0:0:0:
259,358,59455,1,8,0:0:0:0:
476,96,60692,5,4,0:0:0:0:
397,57,61001,1,8,0:0:0:0:
324,106,61311,2,0,P|286:109|238:103,1,80,2|8,0:0|0:0,0:0:0:0:
219,140,61775,2,0,P|231:187|223:273,1,120,4|8,0:0|0:0,0:0:0:0:
159,314,62548,1,2,0:0:0:0:
72,296,62857,2,0,L|68:237,1,40,8|0,0:0|3:0,0:0:0:0:
89,217,63166,6,0,P|93:172|101:131,2,80,4|8|2,0:0|0:0|0:0,0:0:0:0:
2,200,64094,2,0,L|3:141,1,40,8|4,0:0|0:0,0:0:0:0:
4,115,64403,1,0,0:0:0:0:
60,46,64713,1,8,0:0:0:0:
146,61,65022,1,2,0:0:0:0:
173,144,65331,1,8,3:2:0:0:
259,127,65641,6,0,P|312:114|349:90,2,80,4|8|2,0:0|0:0|0:0,0:0:0:0:
227,209,66568,1,8,0:0:0:0:
227,209,66723,2,0,P|220:283|220:334,1,120,4|8,0:0|0:0,0:0:0:0:
302,358,67496,1,2,0:0:0:0:
385,329,67805,2,0,L|446:323,1,40,8|0,0:0|0:0,0:0:0:0:
469,328,68115,6,0,B|504:234|441:255|476:152,1,160,4|2,0:0|0:0,0:0:0:0:
424,96,69043,1,8,0:0:0:0:
341,126,69352,1,0,0:0:0:0:
310,43,69661,2,0,L|375:16,2,40,8|0|2,0:0|0:0|0:0,0:0:0:0:
236,93,70280,1,8,3:2:0:0:
270,174,70589,6,0,P|283:229|280:284,1,80,4|8,0:0|0:0,0:0:0:0:
199,277,71208,2,0,P|186:332|189:387,1,80,2|8,0:0|0:0,0:0:0:0:
228,359,71671,2,0,P|283:346|370:351,1,120,2|8,0:0|0:0,0:0:0:0:
432,367,72445,1,2,0:0:0:0:
430,279,72754,2,0,L|425:215,1,40,8|0,0:0|0:0,0:0:0:0:
417,195,73063,5,4,0:0:0:0:
331,217,73372,1,8,0:0:0:0:
327,128,73682,2,0,L|331:77,1,40,2|0,0:0|0:0,0:0:0:0:
265,27,74146,2,0,P|185:48|171:82,1,120,4|8,0:0|0:0,0:0:0:0:
101,128,74919,2,0,L|53:123,2,40,2|2|8,0:0|0:0|0:0,0:0:0:0:
172,179,75537,5,4,0:0:0:0:
255,151,75847,1,8,0:0:0:0:
321,208,76156,2,0,L|369:200,2,40,2|12|0,0:0|0:0|0:0,0:0:0:0:
292,242,76620,2,0,P|281:297|274:369,1,120,12|8,0:0|0:0,0:0:0:0:
189,335,77393,2,0,L|141:329,1,40,2|2,0:0|0:0,0:0:0:0:
105,334,77702,6,0,L|98:381,2,40,8|8|4,0:0|0:0|0:0,0:0:0:0:
50,264,78321,2,0,L|62:216,1,40,8|0,0:0|0:0,0:0:0:0:
71,182,78630,1,2,0:0:0:0:
132,118,78939,1,8,0:0:0:0:
210,157,79249,2,0,P|266:174|350:160,1,120,4|0,0:0|0:0,0:0:0:0:
367,151,79867,1,2,0:0:0:0:
440,102,80177,1,8,0:0:0:0:
484,177,80486,5,4,0:0:0:0:
256,192,80641,12,0,82960,0:0:0:0:
138,188,90383,5,4,0:0:0:0:
200,125,90692,2,0,L|265:126,2,40,0|0|8,0:0|0:0|0:0,0:0:0:0:
133,67,91311,2,0,L|85:67,1,40,0|0,0:0|0:0,0:0:0:0:
52,84,91620,1,2,0:0:0:0:
33,169,91929,1,0,0:0:0:0:
87,237,92238,2,0,P|131:226|194:231,1,80,8|0,0:0|0:0,0:0:0:0:
249,252,92857,6,0,P|288:251|327:240,2,80,2|0|8,0:0|0:0|0:0,0:0:0:0:
238,339,93785,2,0,L|297:344,1,40,0|0,3:0|3:0,0:0:0:0:
321,344,94094,1,2,0:0:0:0:
407,329,94403,1,0,0:0:0:0:
390,242,94713,2,0,L|379:177,2,40,8|0|0,0:0|0:0|0:0,0:0:0:0:
479,267,95331,5,2,0:0:0:0:
479,267,95641,1,0,1:0:0:0:
493,180,95950,2,0,P|475:137|454:98,1,80,8|0,0:0|3:0,0:0:0:0:
398,44,96568,1,2,0:0:0:0:
398,44,96878,1,0,1:0:0:0:
314,70,97187,2,0,L|260:68,2,40,8|0|0,0:0|0:0|0:0,0:0:0:0:
365,141,97805,5,2,0:0:0:0:
314,213,98115,1,0,0:0:0:0:
228,194,98424,2,0,L|214:150,2,40,8|0|0,0:0|0:0|3:0,0:0:0:0:
247,279,99043,1,2,0:0:0:0:
160,296,99352,2,0,L|106:298,1,40,0|0,0:0|0:0,0:0:0:0:
88,328,99661,2,0,L|41:329,1,40,8|8,0:0|0:0,0:0:0:0:
14,299,99970,2,0,P|15:258|20:209,1,80,2|4,0:0|0:0,0:0:0:0:
34,132,100589,5,0,0:0:0:0:
97,70,100898,2,0,B|125:57|125:57|185:75,1,80,8|0,0:0|3:0,0:0:0:0:
238,128,101517,1,2,0:0:0:0:
179,193,101826,2,0,L|173:240,1,40,0|0,0:0|0:0,0:0:0:0:
167,276,102135,1,8,0:0:0:0:
226,340,102445,1,0,0:0:0:0:
305,302,102754,6,0,B|315:267|315:267|294:210,2,80,2|0|8,0:0|0:0|0:0,0:0:0:0:
378,351,103682,1,0,3:0:0:0:
449,299,103991,2,0,B|441:263|441:263|457:211,1,80,2|0,0:0|0:0,0:0:0:0:
403,149,104610,2,0,L|358:152,2,40,8|0|0,0:0|0:0|0:0,0:0:0:0:
384,62,105228,6,0,L|339:62,1,40,2|0,0:0|0:0,0:0:0:0:
302,77,105537,2,0,B|264:62|264:62|210:76,1,80,0|8,0:0|0:0,0:0:0:0:
160,130,106156,1,0,3:0:0:0:
220,193,106465,2,0,B|255:208|255:208|308:195,1,80,0|0,0:0|0:0,0:0:0:0:
358,259,107084,2,0,L|404:254,2,40,8|0|0,0:0|0:0|0:0,0:0:0:0:
291,316,107702,6,0,B|257:298|257:298|203:314,1,80,2|0,0:0|3:0,0:0:0:0:
173,305,108166,1,0,3:0:0:0:
173,305,108321,2,0,L|172:248,1,40,2|2,0:0|0:0,0:0:0:0:
149,227,108630,2,0,L|156:133,1,80,0|0,3:0|3:0,0:0:0:0:
154,147,110177,5,6,0:0:0:0:
94,82,110486,1,8,0:0:0:0:
20,130,110796,2,0,P|27:166|28:215,1,80,2|0,0:0|0:0,0:0:0:0:
36,252,111260,2,0,P|83:240|169:248,1,120,4|8,0:0|0:0,0:0:0:0:
237,273,112033,1,2,0:0:0:0:
297,207,112342,2,0,L|294:167,1,40,8|0,0:0|0:0,0:0:0:0:
318,130,112651,6,0,P|368:136|418:131,2,80,4|8|2,0:0|0:0|0:0,0:0:0:0:
284,48,113579,2,0,L|225:47,1,40,8|4,0:0|0:0,0:0:0:0:
199,47,113888,1,0,0:0:0:0:
113,69,114198,1,8,0:0:0:0:
47,127,114507,1,8,0:0:0:0:
124,168,114816,1,0,3:0:0:0:
63,231,115126,6,0,P|58:266|61:321,2,80,4|0|2,0:0|0:0|0:0,0:0:0:0:
148,210,116053,1,8,0:0:0:0:
148,210,116208,2,0,P|222:203|273:209,1,120,4|8,0:0|0:0,0:0:0:0:
355,212,116981,1,2,0:0:0:0:
406,283,117290,2,0,L|400:344,1,40,8|0,0:0|0:0,0:0:0:0:
366,349,117600,6,0,P|292:330|206:350,1,160,4|2,0:0|0:0,0:0:0:0:
123,343,118528,1,8,0:0:0:0:
104,256,118837,1,0,0:0:0:0:
177,206,119146,2,0,L|226:207,1,40,8|2,0:0|0:0,0:0:0:0:
261,209,119455,1,8,0:0:0:0:
320,143,119765,1,0,3:0:0:0:
285,62,120074,6,0,P|230:49|175:52,1,80,4|8,0:0|0:0,0:0:0:0:
125,82,120693,2,0,P|112:137|115:192,1,80,2|0,0:0|0:0,0:0:0:0:
117,203,121156,2,0,P|172:190|259:195,1,120,2|8,0:0|0:0,0:0:0:0:
322,204,121930,1,2,0:0:0:0:
386,263,122239,2,0,L|381:327,1,40,8|0,0:0|0:0,0:0:0:0:
384,346,122548,5,4,0:0:0:0:
468,320,122857,1,8,0:0:0:0:
477,232,123167,2,0,L|481:180,1,40,2|2,0:0|0:0,0:0:0:0:
450,109,123631,2,0,P|370:130|356:164,1,120,4|8,0:0|0:0,0:0:0:0:
270,173,124404,2,0,L|213:151,2,40,2|2|8,0:0|0:0|0:0,0:0:0:0:
324,247,125022,5,4,0:0:0:0:
264,312,125332,1,8,0:0:0:0:
182,278,125641,2,0,L|126:281,1,40,2|8,0:0|0:0,0:0:0:0:
58,307,126104,2,0,B|26:268|26:268|38:183,1,120,4|8,0:0|0:0,0:0:0:0:
49,111,126878,1,2,0:0:0:0:
127,69,127187,2,0,L|174:76,1,40,8|0,0:0|0:0,0:0:0:0:
210,78,127496,5,4,0:0:0:0:
277,21,127805,1,0,0:0:0:0:
422,119,128424,1,0,0:0:0:0:
369,189,128733,2,0,P|311:176|213:186,1,120,4|0,0:0|0:0,0:0:0:0:
216,206,129352,2,0,L|224:276,1,40,8|8,0:0|0:0,0:0:0:0:
194,281,129661,2,0,L|202:351,2,40,8|8|4,0:0|0:0|0:0,0:0:0:0:
111,250,130280,5,0,0:0:0:0:
36,297,130589,1,8,0:0:0:0:
11,212,130898,2,0,P|14:160|23:117,1,80,0|2,0:0|0:0,0:0:0:0:
45,48,131517,1,0,0:0:0:0:
122,88,131826,1,8,0:0:0:0:
202,49,132135,2,0,L|240:31,1,40,0|0,0:0|0:0,0:0:0:0:
280,45,132445,6,0,P|264:98|268:178,1,120,4|2,0:0|0:0,0:0:0:0:
280,203,133063,1,8,0:0:0:0:
367,190,133372,2,0,L|412:182,1,40,0|0,0:0|0:0,0:0:0:0:
446,202,133682,2,0,P|459:243|465:303,1,80,2|0,0:0|0:0,0:0:0:0:
406,345,134300,1,8,0:0:0:0:
322,317,134610,2,0,L|256:321,1,40,0|0,0:0|0:0,0:0:0:0:
238,326,134919,1,4,0:0:0:0:
150,313,135228,5,0,0:0:0:0:
123,229,135537,1,8,0:0:0:0:
185,166,135847,2,0,P|262:162|291:165,1,80,0|2,0:0|0:0,0:0:0:0:
304,83,136465,1,0,0:0:0:0:
241,21,136775,1,8,0:0:0:0:
153,29,137084,1,0,0:0:0:0:
114,108,137393,6,0,P|110:165|108:250,1,120,4|2,0:0|0:0,0:0:0:0:
146,250,138012,2,0,P|201:243|240:246,1,80,8|0,0:0|0:0,0:0:0:0:
304,281,138630,1,2,0:0:0:0:
281,366,138939,1,0,0:0:0:0:
193,357,139249,2,0,P|138:350|99:353,1,80,8|0,0:0|0:0,0:0:0:0:
29,326,139867,5,4,0:0:0:0:
36,237,140177,2,0,P|36:189|29:133,2,80,0|8|0,0:0|0:0|0:0,0:0:0:0:
123,224,141104,2,0,P|166:216|216:218,1,80,2|0,0:0|0:0,0:0:0:0:
288,231,141723,1,8,0:0:0:0:
357,284,142032,1,0,0:0:0:0:
433,240,142342,6,0,P|440:179|434:121,1,120,4|2,0:0|0:0,0:0:0:0:
423,78,142960,1,8,0:0:0:0:
343,40,143269,1,0,0:0:0:0:
267,85,143579,2,0,P|231:89|171:87,1,80,2|0,0:0|0:0,0:0:0:0:
195,176,144197,2,0,P|231:172|291:174,1,80,8|0,0:0|0:0,0:0:0:0:
357,203,144816,5,4,0:0:0:0:
297,267,145125,2,0,L|247:267,2,40,0|2|8,0:0|0:0|0:0,0:0:0:0:
373,311,145744,2,0,L|370:373,1,40,0|2,0:0|0:0,0:0:0:0:
490,294,146362,2,0,L|491:228,1,40,8|8,0:0|0:0,0:0:0:0:
467,216,146671,2,0,L|468:132,1,80,2|8,0:0|0:0,0:0:0:0:
404,75,147290,6,0,B|322:54|331:109|239:92,1,160,2|8,0:0|0:0,0:0:0:0:
160,73,148218,1,8,0:0:0:0:
120,151,148527,2,0,L|123:208,1,40,0|0,3:0|3:0,0:0:0:0:
86,216,148836,2,0,L|89:281,1,40,0|0,3:0|3:0,0:0:0:0:
113,292,149146,2,0,P|161:282|209:288,1,80,0|0,3:0|3:0,0:0:0:0:
274,312,149764,5,4,0:0:0:0:
256,192,149919,12,0,152238,0:0:0:0:
256,192,152316,12,0,154945,0:0:0:0:
