osu file format v14

[General]
AudioFilename: audio.mp3
AudioLeadIn: 0
PreviewTime: 64765
Countdown: 0
SampleSet: Normal
StackLeniency: 0.7
Mode: 1
LetterboxInBreaks: 0
WidescreenStoryboard: 1

[Editor]
DistanceSpacing: 1.3
BeatDivisor: 4
GridSize: 16
TimelineZoom: 2.1

[Metadata]
Title:Nanairo no Enogu de (TV Size)
TitleUnicode:七色の絵の具で (TV Size)
Artist:7LAND
ArtistUnicode:ナナランド
Creator:iloveyou4ever
Version:Oni
Source:転生貴族の異世界冒険録〜自重を知らない神々の使徒〜
Tags:The Aristocrat's aristocrats Otherworldly Adventure: Serving Gods Who Go Too Far Chronicles of an Aristocrat Reborn in Another World: The Apostle of the Gods Who Know No Self-Restraint With the Seven Color Paints 7-land nanaland 三好麗奈 REINA MIYOSHI 百瀬ひより HIYORI MOMOSE 瀬戸みなみ MINAMI SETO 大場はるか Oba Haruka 峰島こまき Mineshima Komaki 西嶋菜々子 NANAKO NISHIJIMA 竹内月音 TSUKINE TAKEUCHI Tensei Kizoku no Isekai Boukenroku: Jichou o wo Shiranai Kamigami no Shito anime japanese j-rock jrock rock j-pop jpop pop ending theme ed female vocal vocalist short version
BeatmapID:4179603
BeatmapSetID:1997795

[Difficulty]
HPDrainRate:5.5
CircleSize:5
OverallDifficulty:5.5
ApproachRate:5
SliderMultiplier:1.4
SliderTickRate:1

[Events]
//Background and Video events
Video,0,"output.mp4"
0,0,"BG.jpg",0,0
//Break Periods
//Storyboard Layer 0 (Background)
//Storyboard Layer 1 (Fail)
//Storyboard Layer 2 (Pass)
//Storyboard Layer 3 (Foreground)
//Storyboard Layer 4 (Overlay)
//Storyboard Sound Samples

[TimingPoints]
871,342.857142857143,4,1,0,60,1,0
871,-111.111111111111,4,1,0,60,0,0
7728,-100,4,1,0,90,0,0
19728,-102.040816326531,4,1,0,90,0,0
19899,-104.166666666667,4,1,0,90,0,0
20071,-106.382978723404,4,1,0,80,0,0
31042,-100,4,1,0,80,0,0
40810,-101.522842639594,4,1,0,80,0,0
40982,-102.794291490346,4,1,0,80,0,0
41153,-104.090315697253,4,1,0,80,0,0
41325,-105.427310066112,4,1,0,80,0,0
41496,-106.791018875313,4,1,0,80,0,0
41668,-108.198761124185,4,1,0,80,0,0
42010,-111.111111111111,4,1,0,70,0,0
52982,-100,4,1,0,80,0,0
58471,-100,4,1,0,85,0,0
65328,-95.2380952380952,4,1,0,90,0,1
88471,-100,4,1,0,90,0,1
88642,-100,4,1,0,90,0,0

[HitObjects]
272,208,871,5,0,0:0:0:0:
432,160,2242,1,8,0:0:0:0:
432,160,2756,1,0,0:0:0:0:
458,165,3271,1,0,0:0:0:0:
368,160,3613,1,8,0:0:0:0:
448,192,3956,1,0,0:0:0:0:
432,192,4128,1,8,0:0:0:0:
458,165,4642,1,8,0:0:0:0:
432,224,4985,1,0,0:0:0:0:
432,208,6013,1,0,0:0:0:0:
416,192,6356,1,8,0:0:0:0:
416,192,6699,1,8,0:0:0:0:
416,192,6871,1,8,0:0:0:0:
432,192,7213,1,0,0:0:0:0:
400,176,7385,1,8,0:0:0:0:
416,224,7728,1,0,0:0:0:0:
384,176,7899,1,0,0:0:0:0:
384,144,7985,1,0,0:0:0:0:
400,176,8071,1,8,0:0:0:0:
400,176,8242,1,8,0:0:0:0:
458,171,8328,1,8,0:0:0:0:
496,176,8413,1,0,0:0:0:0:
458,171,8585,1,8,0:0:0:0:
368,176,8671,1,0,0:0:0:0:
448,176,8756,1,8,0:0:0:0:
414,180,8842,1,8,0:0:0:0:
416,288,8928,1,8,0:0:0:0:
448,176,9099,1,4,0:0:0:0:
416,176,9442,1,8,0:0:0:0:
480,176,9613,1,8,0:0:0:0:
480,176,9699,1,8,0:0:0:0:
432,176,9785,1,0,0:0:0:0:
416,176,9956,1,0,0:0:0:0:
464,176,10128,1,8,0:0:0:0:
416,176,10299,1,8,0:0:0:0:
432,176,10471,1,0,0:0:0:0:
448,176,10642,1,0,0:0:0:0:
472,191,10813,1,8,0:0:0:0:
416,192,10985,1,8,0:0:0:0:
432,192,11071,1,0,0:0:0:0:
468,169,11156,1,0,0:0:0:0:
459,178,11328,1,0,0:0:0:0:
480,176,11499,1,8,0:0:0:0:
368,192,11842,1,4,0:0:0:0:
432,208,12013,1,0,0:0:0:0:
480,176,12185,1,8,0:0:0:0:
448,176,12356,1,0,0:0:0:0:
448,176,12442,1,0,0:0:0:0:
464,144,12528,1,8,0:0:0:0:
416,176,12699,1,8,0:0:0:0:
464,192,12785,1,8,0:0:0:0:
432,176,12871,1,0,0:0:0:0:
448,176,13042,1,8,0:0:0:0:
432,208,13213,1,0,0:0:0:0:
448,176,13385,1,8,0:0:0:0:
384,160,13556,1,8,0:0:0:0:
432,176,13728,1,8,0:0:0:0:
464,176,13813,1,0,0:0:0:0:
432,176,13899,1,8,0:0:0:0:
432,176,13985,1,8,0:0:0:0:
432,272,14071,1,0,0:0:0:0:
464,240,14242,1,0,0:0:0:0:
432,176,14585,1,12,0:0:0:0:
464,192,14756,1,0,0:0:0:0:
480,192,14928,1,8,0:0:0:0:
464,176,15099,1,8,0:0:0:0:
448,176,15185,1,8,0:0:0:0:
448,176,15271,1,0,0:0:0:0:
448,176,15442,1,0,0:0:0:0:
448,176,15528,1,0,0:0:0:0:
448,176,15613,1,8,0:0:0:0:
432,192,15785,1,8,0:0:0:0:
464,176,15956,1,0,0:0:0:0:
400,208,16128,1,8,0:0:0:0:
448,192,16299,1,8,0:0:0:0:
416,176,16471,1,0,0:0:0:0:
448,240,16556,1,0,0:0:0:0:
480,176,16642,1,8,0:0:0:0:
480,176,16728,1,8,0:0:0:0:
416,160,16813,1,0,0:0:0:0:
416,160,16985,1,8,0:0:0:0:
416,160,17156,1,8,0:0:0:0:
448,208,17328,1,4,0:0:0:0:
416,208,17671,1,8,0:0:0:0:
447,174,17842,1,0,0:0:0:0:
448,192,17928,1,8,0:0:0:0:
432,176,18013,1,0,0:0:0:0:
480,176,18185,1,0,0:0:0:0:
416,192,18356,1,8,0:0:0:0:
416,192,18528,1,8,0:0:0:0:
464,192,18699,1,4,0:0:0:0:
464,176,18871,1,8,0:0:0:0:
464,176,19042,1,8,0:0:0:0:
432,160,19213,1,0,0:0:0:0:
432,160,19299,1,0,0:0:0:0:
464,160,19385,1,8,0:0:0:0:
416,176,19556,1,0,0:0:0:0:
496,192,19728,1,8,0:0:0:0:
336,176,19899,1,8,0:0:0:0:
448,192,20071,1,4,0:0:0:0:
400,192,20413,1,0,0:0:0:0:
464,176,20585,1,8,0:0:0:0:
448,176,20756,1,0,0:0:0:0:
448,176,20928,1,0,0:0:0:0:
432,176,21099,1,8,0:0:0:0:
480,192,21442,1,0,0:0:0:0:
448,192,21785,1,8,0:0:0:0:
448,192,21956,1,8,0:0:0:0:
464,176,22128,1,0,0:0:0:0:
464,176,22299,1,0,0:0:0:0:
448,192,22471,1,8,0:0:0:0:
448,192,22813,1,8,0:0:0:0:
432,192,22985,1,0,0:0:0:0:
432,192,23156,1,8,0:0:0:0:
416,208,23328,1,8,0:0:0:0:
416,192,23499,1,0,0:0:0:0:
416,192,23671,1,0,0:0:0:0:
416,192,23842,1,8,0:0:0:0:
432,176,24013,1,0,0:0:0:0:
432,176,24356,1,0,0:0:0:0:
448,176,24528,1,8,0:0:0:0:
448,192,24871,1,0,0:0:0:0:
400,192,25042,1,8,0:0:0:0:
416,176,25213,1,0,0:0:0:0:
432,192,25385,1,8,0:0:0:0:
384,192,25556,1,4,0:0:0:0:
416,176,25899,1,0,0:0:0:0:
416,160,26071,1,8,0:0:0:0:
416,160,26242,1,8,0:0:0:0:
416,160,26413,1,8,0:0:0:0:
448,176,26585,1,0,0:0:0:0:
448,176,26928,1,0,0:0:0:0:
448,176,27271,1,8,0:0:0:0:
448,176,27442,1,8,0:0:0:0:
384,192,27613,1,0,0:0:0:0:
384,192,27785,1,0,0:0:0:0:
432,176,27956,1,8,0:0:0:0:
416,176,28299,1,4,0:0:0:0:
448,192,28642,1,0,0:0:0:0:
432,192,28813,1,8,0:0:0:0:
368,192,28985,1,8,0:0:0:0:
464,288,29156,1,0,0:0:0:0:
368,192,29328,1,0,0:0:0:0:
400,192,29499,1,8,0:0:0:0:
416,192,29671,1,0,0:0:0:0:
432,176,30013,1,0,0:0:0:0:
400,192,30185,1,8,0:0:0:0:
384,224,30356,1,0,0:0:0:0:
352,192,30528,1,0,0:0:0:0:
432,208,30699,1,8,0:0:0:0:
400,192,31042,1,4,0:0:0:0:
415,186,31385,1,0,0:0:0:0:
432,192,31556,1,8,0:0:0:0:
464,176,31728,1,0,0:0:0:0:
464,176,31899,1,0,0:0:0:0:
416,176,32071,1,8,0:0:0:0:
416,176,32242,1,8,0:0:0:0:
416,176,32328,1,8,0:0:0:0:
400,160,32413,1,0,0:0:0:0:
416,176,32756,1,8,0:0:0:0:
416,176,32928,1,8,0:0:0:0:
432,176,33099,1,0,0:0:0:0:
432,176,33271,1,0,0:0:0:0:
432,192,33442,1,8,0:0:0:0:
416,192,33785,1,0,0:0:0:0:
446,212,34128,1,0,0:0:0:0:
448,176,34299,1,0,0:0:0:0:
448,176,34471,1,8,0:0:0:0:
400,176,34642,1,8,0:0:0:0:
432,192,34813,1,0,0:0:0:0:
384,176,34985,1,8,0:0:0:0:
432,192,35156,1,0,0:0:0:0:
480,192,35499,1,8,0:0:0:0:
473,273,35842,1,0,0:0:0:0:
448,176,36013,1,8,0:0:0:0:
400,160,36185,1,0,0:0:0:0:
432,176,36356,1,8,0:0:0:0:
400,192,36528,1,4,0:0:0:0:
400,192,36871,1,8,0:0:0:0:
448,192,37042,1,8,0:0:0:0:
432,192,37213,1,0,0:0:0:0:
448,192,37385,1,8,0:0:0:0:
432,176,37556,1,0,0:0:0:0:
448,176,37728,1,8,0:0:0:0:
432,192,37813,1,8,0:0:0:0:
400,176,37899,1,8,0:0:0:0:
432,192,38242,1,8,0:0:0:0:
432,176,38413,1,8,0:0:0:0:
464,176,38585,1,0,0:0:0:0:
464,176,38756,1,0,0:0:0:0:
416,192,38928,1,8,0:0:0:0:
451,195,39271,1,4,0:0:0:0:
460,159,39613,1,0,0:0:0:0:
467,177,39785,1,8,0:0:0:0:
447,188,39956,1,0,0:0:0:0:
461,198,40128,1,8,0:0:0:0:
466,194,40299,1,0,0:0:0:0:
435,178,40471,1,8,0:0:0:0:
434,178,40556,1,8,0:0:0:0:
434,178,40642,1,8,0:0:0:0:
368,208,40985,1,0,0:0:0:0:
450,164,41156,1,8,0:0:0:0:
452,168,41328,1,0,0:0:0:0:
447,169,41499,1,0,0:0:0:0:
432,175,41671,1,8,0:0:0:0:
383,207,42013,1,4,0:0:0:0:
432,208,42528,1,0,0:0:0:0:
432,224,42699,1,8,0:0:0:0:
464,186,43042,1,0,0:0:0:0:
400,160,43213,1,0,0:0:0:0:
444,209,43556,1,8,0:0:0:0:
452,194,43728,1,0,0:0:0:0:
446,187,43899,1,0,0:0:0:0:
411,193,44071,1,8,0:0:0:0:
431,265,44242,1,0,0:0:0:0:
447,187,44413,1,8,0:0:0:0:
446,188,44585,1,8,0:0:0:0:
502,186,44756,1,0,0:0:0:0:
465,194,45099,1,0,0:0:0:0:
473,163,45271,1,0,0:0:0:0:
372,183,45442,1,8,0:0:0:0:
446,186,45785,1,8,0:0:0:0:
416,256,45956,1,0,0:0:0:0:
426,186,46299,1,8,0:0:0:0:
478,168,46471,1,0,0:0:0:0:
461,170,46642,1,0,0:0:0:0:
433,177,46813,1,8,0:0:0:0:
421,180,47156,1,8,0:0:0:0:
474,196,47328,1,8,0:0:0:0:
444,203,47499,1,4,0:0:0:0:
446,178,48013,1,0,0:0:0:0:
432,176,48185,1,8,0:0:0:0:
432,176,48528,1,8,0:0:0:0:
464,160,48699,1,0,0:0:0:0:
404,185,49042,1,8,0:0:0:0:
462,176,49213,1,0,0:0:0:0:
462,176,49385,1,0,0:0:0:0:
412,180,49556,1,8,0:0:0:0:
451,187,49728,1,0,0:0:0:0:
412,180,49899,1,8,0:0:0:0:
390,182,50242,1,0,0:0:0:0:
416,191,50585,1,8,0:0:0:0:
448,192,50756,1,8,0:0:0:0:
419,196,50928,1,0,0:0:0:0:
469,193,51099,1,8,0:0:0:0:
444,199,51271,1,0,0:0:0:0:
444,199,51442,1,8,0:0:0:0:
448,208,51785,1,0,0:0:0:0:
440,187,51956,1,8,0:0:0:0:
445,184,52128,1,0,0:0:0:0:
421,182,52299,1,8,0:0:0:0:
448,176,52471,1,8,0:0:0:0:
448,176,52556,1,8,0:0:0:0:
448,176,52642,1,0,0:0:0:0:
459,169,52985,1,4,0:0:0:0:
432,183,53328,1,8,0:0:0:0:
412,188,53499,1,8,0:0:0:0:
419,195,53671,1,0,0:0:0:0:
419,195,53842,1,0,0:0:0:0:
448,176,54013,1,8,0:0:0:0:
397,195,54185,1,8,0:0:0:0:
423,183,54271,1,8,0:0:0:0:
445,170,54356,1,0,0:0:0:0:
418,178,54528,1,0,0:0:0:0:
449,194,54699,1,8,0:0:0:0:
438,239,55042,1,0,0:0:0:0:
368,160,55213,1,0,0:0:0:0:
384,176,55385,1,8,0:0:0:0:
502,198,55556,1,8,0:0:0:0:
416,192,55642,1,8,0:0:0:0:
502,198,55728,1,8,0:0:0:0:
440,226,55899,1,0,0:0:0:0:
467,176,56071,1,8,0:0:0:0:
450,184,56242,1,8,0:0:0:0:
472,184,56413,1,0,0:0:0:0:
416,192,56585,1,0,0:0:0:0:
398,161,56756,1,8,0:0:0:0:
484,190,56928,1,8,0:0:0:0:
471,180,57013,1,8,0:0:0:0:
451,174,57099,1,0,0:0:0:0:
434,168,57442,1,8,0:0:0:0:
424,167,57613,1,0,0:0:0:0:
424,167,57785,1,0,0:0:0:0:
443,181,57956,1,8,0:0:0:0:
382,215,58042,1,8,0:0:0:0:
443,181,58128,1,8,0:0:0:0:
433,191,58299,1,8,0:0:0:0:
462,178,58471,1,4,0:0:0:0:
410,179,58813,1,0,0:0:0:0:
417,183,58985,1,8,0:0:0:0:
430,190,59156,1,0,0:0:0:0:
425,191,59328,1,0,0:0:0:0:
427,186,59499,1,8,0:0:0:0:
426,186,59671,1,8,0:0:0:0:
415,188,59842,1,0,0:0:0:0:
416,200,60013,1,8,0:0:0:0:
451,186,60185,1,8,0:0:0:0:
451,186,60356,1,8,0:0:0:0:
405,202,60699,1,8,0:0:0:0:
383,203,60871,1,0,0:0:0:0:
405,202,61042,1,8,0:0:0:0:
441,211,61213,1,4,0:0:0:0:
442,195,61385,1,8,0:0:0:0:
442,195,61471,1,8,0:0:0:0:
419,191,61556,1,8,0:0:0:0:
418,192,61728,1,8,0:0:0:0:
419,191,61813,1,8,0:0:0:0:
445,198,61899,1,0,0:0:0:0:
468,182,62071,1,0,0:0:0:0:
468,182,62156,1,0,0:0:0:0:
419,197,62242,1,8,0:0:0:0:
416,198,62413,1,8,0:0:0:0:
405,179,62585,1,4,0:0:0:0:
427,183,62756,1,0,0:0:0:0:
422,185,62928,1,0,0:0:0:0:
424,199,63099,1,12,0:0:0:0:
424,179,63271,1,0,0:0:0:0:
415,179,63442,1,0,0:0:0:0:
428,216,63613,1,12,0:0:0:0:
443,175,63956,1,8,0:0:0:0:
426,185,64128,1,0,0:0:0:0:
418,185,64299,1,0,0:0:0:0:
371,179,64471,1,8,0:0:0:0:
409,172,65328,1,4,0:0:0:0:
416,192,65671,1,8,0:0:0:0:
422,259,65842,1,0,0:0:0:0:
464,192,65928,1,0,0:0:0:0:
448,160,66013,1,8,0:0:0:0:
464,160,66185,1,0,0:0:0:0:
448,176,66356,1,8,0:0:0:0:
512,176,66442,1,8,0:0:0:0:
448,176,66528,1,0,0:0:0:0:
464,192,66699,1,8,0:0:0:0:
448,176,66871,1,0,0:0:0:0:
488,178,66956,1,8,0:0:0:0:
444,178,67042,1,0,0:0:0:0:
432,176,67213,1,8,0:0:0:0:
432,208,67385,1,0,0:0:0:0:
432,208,67556,1,0,0:0:0:0:
416,192,67728,1,8,0:0:0:0:
443,245,67899,1,0,0:0:0:0:
416,208,68071,1,12,0:0:0:0:
366,175,68242,1,0,0:0:0:0:
476,197,68328,1,8,0:0:0:0:
432,176,68413,1,8,0:0:0:0:
432,160,68585,1,0,0:0:0:0:
416,176,68756,1,8,0:0:0:0:
471,186,68842,1,0,0:0:0:0:
438,191,68928,1,8,0:0:0:0:
432,192,69099,1,0,0:0:0:0:
448,176,69271,1,8,0:0:0:0:
442,179,69356,1,8,0:0:0:0:
444,182,69442,1,0,0:0:0:0:
448,208,69613,1,0,0:0:0:0:
410,191,69785,1,8,0:0:0:0:
480,192,69956,1,8,0:0:0:0:
469,194,70042,1,8,0:0:0:0:
458,157,70128,1,0,0:0:0:0:
471,183,70213,1,8,0:0:0:0:
464,176,70299,1,0,0:0:0:0:
416,176,70471,1,8,0:0:0:0:
416,176,70642,1,8,0:0:0:0:
416,176,70813,1,4,0:0:0:0:
448,176,71156,1,8,0:0:0:0:
464,176,71328,1,8,0:0:0:0:
368,208,71499,1,0,0:0:0:0:
352,144,71671,1,0,0:0:0:0:
416,192,71756,1,0,0:0:0:0:
416,192,71842,1,8,0:0:0:0:
443,210,72013,1,8,0:0:0:0:
423,173,72185,1,0,0:0:0:0:
396,182,72356,1,8,0:0:0:0:
464,176,72442,1,8,0:0:0:0:
400,192,72528,1,0,0:0:0:0:
471,177,72699,1,8,0:0:0:0:
431,180,72871,1,0,0:0:0:0:
451,183,72956,1,8,0:0:0:0:
469,178,73042,1,0,0:0:0:0:
402,161,73213,1,8,0:0:0:0:
432,176,73385,1,8,0:0:0:0:
384,176,73556,1,4,0:0:0:0:
423,185,73728,1,0,0:0:0:0:
400,176,73899,1,8,0:0:0:0:
428,168,74071,1,8,0:0:0:0:
432,176,74156,1,0,0:0:0:0:
456,176,74242,1,8,0:0:0:0:
428,155,74328,1,8,0:0:0:0:
455,164,74413,1,0,0:0:0:0:
416,176,74585,1,0,0:0:0:0:
448,160,74756,1,8,0:0:0:0:
416,176,74928,1,0,0:0:0:0:
395,205,75099,1,8,0:0:0:0:
395,205,75271,1,8,0:0:0:0:
443,201,75442,1,0,0:0:0:0:
443,201,75528,1,0,0:0:0:0:
460,194,75613,1,0,0:0:0:0:
400,208,75785,1,8,0:0:0:0:
453,218,75871,1,0,0:0:0:0:
495,194,75956,1,8,0:0:0:0:
453,218,76042,1,0,0:0:0:0:
416,160,76128,1,8,0:0:0:0:
464,176,76299,1,4,0:0:0:0:
402,174,76642,1,8,0:0:0:0:
432,177,76813,1,0,0:0:0:0:
471,265,76899,1,8,0:0:0:0:
421,189,76985,1,8,0:0:0:0:
376,169,77156,1,0,0:0:0:0:
440,175,77328,1,8,0:0:0:0:
425,190,77413,1,8,0:0:0:0:
454,182,77499,1,0,0:0:0:0:
450,178,77671,1,8,0:0:0:0:
435,203,77842,1,0,0:0:0:0:
383,179,77928,1,8,0:0:0:0:
373,181,78013,1,0,0:0:0:0:
398,176,78185,1,8,0:0:0:0:
432,228,78356,1,0,0:0:0:0:
422,171,78528,1,0,0:0:0:0:
460,201,78613,1,0,0:0:0:0:
460,201,78699,1,0,0:0:0:0:
431,181,78871,1,0,0:0:0:0:
406,183,79042,1,12,0:0:0:0:
478,178,79213,1,0,0:0:0:0:
443,171,79299,1,8,0:0:0:0:
443,171,79385,1,8,0:0:0:0:
398,175,79556,1,0,0:0:0:0:
450,163,79728,1,8,0:0:0:0:
410,180,79813,1,8,0:0:0:0:
476,184,79899,1,0,0:0:0:0:
441,176,80071,1,8,0:0:0:0:
487,167,80156,1,0,0:0:0:0:
432,179,80242,1,8,0:0:0:0:
432,179,80328,1,8,0:0:0:0:
498,173,80413,1,0,0:0:0:0:
487,181,80585,1,0,0:0:0:0:
465,164,80756,1,8,0:0:0:0:
421,285,80928,1,0,0:0:0:0:
447,168,81013,1,8,0:0:0:0:
397,161,81099,1,0,0:0:0:0:
451,173,81271,1,8,0:0:0:0:
441,173,81356,1,8,0:0:0:0:
438,147,81442,1,0,0:0:0:0:
448,167,81613,1,8,0:0:0:0:
436,183,81785,1,4,0:0:0:0:
436,191,82128,1,0,0:0:0:0:
479,174,82299,1,8,0:0:0:0:
450,181,82471,1,0,0:0:0:0:
449,182,82642,1,0,0:0:0:0:
475,164,82813,1,8,0:0:0:0:
475,164,82985,1,8,0:0:0:0:
468,170,83156,1,0,0:0:0:0:
468,170,83328,1,0,0:0:0:0:
468,170,83499,1,0,0:0:0:0:
430,182,83671,1,8,0:0:0:0:
451,195,84013,1,0,0:0:0:0:
417,185,84185,1,0,0:0:0:0:
416,185,84356,1,0,0:0:0:0:
455,199,84528,1,8,0:0:0:0:
432,181,84699,1,0,0:0:0:0:
432,181,84785,1,0,0:0:0:0:
459,179,84871,1,8,0:0:0:0:
459,179,85042,1,8,0:0:0:0:
453,211,85128,1,0,0:0:0:0:
428,195,85213,1,0,0:0:0:0:
439,188,85385,1,8,0:0:0:0:
439,184,85471,1,0,0:0:0:0:
480,177,85556,1,8,0:0:0:0:
425,179,85642,1,8,0:0:0:0:
478,178,85728,1,8,0:0:0:0:
443,182,85899,1,4,0:0:0:0:
337,176,87271,5,4,0:0:0:0:
256,192,87442,12,0,88299,0:0:0:0:
407,168,88471,5,0,0:0:0:0:
407,168,88556,1,0,0:0:0:0:
407,168,88642,1,0,0:0:0:0:
