osu file format v14

[General]
AudioFilename: audio.mp3
AudioLeadIn: 0
PreviewTime: 64765
Countdown: 0
SampleSet: Normal
StackLeniency: 0.7
Mode: 1
LetterboxInBreaks: 0
WidescreenStoryboard: 1

[Editor]
DistanceSpacing: 1.3
BeatDivisor: 4
GridSize: 16
TimelineZoom: 2.1

[Metadata]
Title:Nanairo no Enogu de (TV Size)
TitleUnicode:七色の絵の具で (TV Size)
Artist:7LAND
ArtistUnicode:ナナランド
Creator:iloveyou4ever
Version:Futsuu
Source:転生貴族の異世界冒険録〜自重を知らない神々の使徒〜
Tags:The Aristocrat's aristocrats Otherworldly Adventure: Serving Gods Who Go Too Far Chronicles of an Aristocrat Reborn in Another World: The Apostle of the Gods Who Know No Self-Restraint With the Seven Color Paints 7-land nanaland 三好麗奈 REINA MIYOSHI 百瀬ひより HIYORI MOMOSE 瀬戸みなみ MINAMI SETO 大場はるか Oba Haruka 峰島こまき Mineshima Komaki 西嶋菜々子 NANAKO NISHIJIMA 竹内月音 TSUKINE TAKEUCHI Tensei Kizoku no Isekai Boukenroku: Jichou o wo Shiranai Kamigami no Shito anime japanese j-rock jrock rock j-pop jpop pop ending theme ed female vocal vocalist short version
BeatmapID:4180059
BeatmapSetID:1997795

[Difficulty]
HPDrainRate:7
CircleSize:5
OverallDifficulty:4
ApproachRate:5
SliderMultiplier:1.4
SliderTickRate:1

[Events]
//Background and Video events
Video,0,"output.mp4"
0,0,"BG.jpg",0,0
//Break Periods
//Storyboard Layer 0 (Background)
//Storyboard Layer 1 (Fail)
//Storyboard Layer 2 (Pass)
//Storyboard Layer 3 (Foreground)
//Storyboard Layer 4 (Overlay)
//Storyboard Sound Samples

[TimingPoints]
871,342.857142857143,4,1,0,60,1,0
871,-100,4,1,0,60,0,0
7728,-100,4,1,0,90,0,0
19728,-100,4,1,0,90,0,0
19899,-100,4,1,0,90,0,0
20071,-100,4,1,0,80,0,0
31042,-100,4,1,0,80,0,0
40810,-100,4,1,0,80,0,0
40982,-100,4,1,0,80,0,0
41153,-100,4,1,0,80,0,0
41325,-100,4,1,0,80,0,0
41496,-100,4,1,0,80,0,0
41668,-100,4,1,0,80,0,0
42010,-100,4,1,0,70,0,0
52468,-100,4,1,0,70,0,0
52553,-100,4,1,0,70,0,0
52639,-100,4,1,0,70,0,0
52725,-100,4,1,0,70,0,0
52810,-100,4,1,0,70,0,0
52982,-100,4,1,0,80,0,0
58471,-100,4,1,0,85,0,0
65328,-100,4,1,0,90,0,1
88471,-100,4,1,0,90,0,1
88642,-100,4,1,0,90,0,0

[HitObjects]
272,208,871,5,0,0:0:0:0:
432,160,2242,1,8,0:0:0:0:
415,244,3271,1,0,0:0:0:0:
368,160,3613,1,8,0:0:0:0:
458,165,4642,1,8,0:0:0:0:
432,224,4985,1,0,0:0:0:0:
432,208,6013,1,0,0:0:0:0:
416,192,6356,1,8,0:0:0:0:
416,224,7728,1,0,0:0:0:0:
358,183,8071,1,0,0:0:0:0:
400,176,8242,1,8,0:0:0:0:
496,176,8413,1,0,0:0:0:0:
409,214,8585,1,0,0:0:0:0:
448,176,8756,1,8,0:0:0:0:
448,176,9099,1,4,0:0:0:0:
466,176,9442,1,0,0:0:0:0:
475,193,9613,1,8,0:0:0:0:
471,194,9956,1,8,0:0:0:0:
452,192,10128,1,0,0:0:0:0:
459,178,10471,1,8,0:0:0:0:
472,191,10813,1,8,0:0:0:0:
466,195,10985,1,8,0:0:0:0:
440,186,11156,1,0,0:0:0:0:
368,192,11842,1,4,0:0:0:0:
480,176,12185,1,8,0:0:0:0:
464,144,12528,1,8,0:0:0:0:
416,176,12699,1,8,0:0:0:0:
432,176,12871,1,0,0:0:0:0:
405,163,13042,1,0,0:0:0:0:
416,176,13385,1,8,0:0:0:0:
416,176,13728,1,0,0:0:0:0:
432,176,13899,1,8,0:0:0:0:
391,176,14071,1,8,0:0:0:0:
464,240,14242,1,0,0:0:0:0:
432,176,14585,1,12,0:0:0:0:
480,192,14928,1,8,0:0:0:0:
400,192,15099,1,0,0:0:0:0:
431,243,15442,1,0,0:0:0:0:
448,176,15613,1,8,0:0:0:0:
371,177,15785,1,0,0:0:0:0:
404,186,16128,1,8,0:0:0:0:
448,192,16299,1,8,0:0:0:0:
387,218,16471,1,0,0:0:0:0:
448,208,17328,1,4,0:0:0:0:
432,192,17671,1,8,0:0:0:0:
448,160,17842,1,0,0:0:0:0:
448,208,18013,1,0,0:0:0:0:
426,176,18356,1,8,0:0:0:0:
464,192,18699,1,4,0:0:0:0:
464,176,19042,1,8,0:0:0:0:
461,178,19213,1,8,0:0:0:0:
415,185,19385,1,0,0:0:0:0:
464,192,19556,1,8,0:0:0:0:
464,160,19728,1,0,0:0:0:0:
448,192,20071,1,4,0:0:0:0:
448,208,20585,1,8,0:0:0:0:
414,210,20928,1,8,0:0:0:0:
416,224,21099,1,0,0:0:0:0:
448,211,21785,1,0,0:0:0:0:
463,206,22128,1,8,0:0:0:0:
448,192,22471,1,8,0:0:0:0:
448,192,22813,1,8,0:0:0:0:
448,192,22985,1,8,0:0:0:0:
464,176,23156,1,0,0:0:0:0:
432,176,23499,1,8,0:0:0:0:
512,192,23842,1,0,0:0:0:0:
432,176,24013,1,0,0:0:0:0:
448,192,24871,1,0,0:0:0:0:
448,192,25213,1,8,0:0:0:0:
384,192,25556,1,4,0:0:0:0:
416,160,26071,1,8,0:0:0:0:
384,208,26413,1,0,0:0:0:0:
438,178,26585,1,8,0:0:0:0:
368,160,27271,1,0,0:0:0:0:
428,195,27613,1,8,0:0:0:0:
423,163,27956,1,0,0:0:0:0:
416,176,28299,1,4,0:0:0:0:
432,192,28813,1,8,0:0:0:0:
402,180,29328,1,8,0:0:0:0:
384,224,29499,1,0,0:0:0:0:
384,224,30356,1,0,0:0:0:0:
432,208,30699,1,8,0:0:0:0:
400,192,31042,1,4,0:0:0:0:
415,186,31385,1,0,0:0:0:0:
432,192,31556,1,8,0:0:0:0:
416,176,32071,1,8,0:0:0:0:
400,160,32242,1,8,0:0:0:0:
400,160,32413,1,0,0:0:0:0:
416,176,32756,1,8,0:0:0:0:
432,176,33099,1,0,0:0:0:0:
432,192,33442,1,8,0:0:0:0:
416,192,33785,1,0,0:0:0:0:
416,192,34642,1,0,0:0:0:0:
460,192,34813,1,8,0:0:0:0:
400,160,34985,1,8,0:0:0:0:
432,192,35156,1,0,0:0:0:0:
432,192,35842,1,0,0:0:0:0:
402,174,36185,1,8,0:0:0:0:
400,192,36528,1,4,0:0:0:0:
449,183,36871,1,0,0:0:0:0:
445,199,37042,1,8,0:0:0:0:
368,128,37385,1,0,0:0:0:0:
448,176,37728,1,8,0:0:0:0:
400,176,37899,1,8,0:0:0:0:
432,192,38242,1,8,0:0:0:0:
464,176,38585,1,0,0:0:0:0:
416,192,38928,1,8,0:0:0:0:
400,192,39099,1,8,0:0:0:0:
451,195,39271,1,4,0:0:0:0:
464,240,40299,1,0,0:0:0:0:
435,178,40471,1,8,0:0:0:0:
434,178,40642,1,8,0:0:0:0:
403,243,41156,1,0,0:0:0:0:
459,250,41499,1,0,0:0:0:0:
432,175,41671,1,8,0:0:0:0:
383,207,42013,1,4,0:0:0:0:
432,224,42699,1,8,0:0:0:0:
400,160,43213,1,0,0:0:0:0:
467,293,43556,1,0,0:0:0:0:
353,150,43899,1,0,0:0:0:0:
448,176,44071,1,8,0:0:0:0:
447,187,44413,1,8,0:0:0:0:
464,192,44585,1,8,0:0:0:0:
502,186,44756,1,0,0:0:0:0:
456,263,45099,1,0,0:0:0:0:
372,183,45442,1,8,0:0:0:0:
480,192,45785,1,8,0:0:0:0:
416,256,45956,1,0,0:0:0:0:
454,194,46299,1,0,0:0:0:0:
416,256,46642,1,0,0:0:0:0:
433,177,46813,1,8,0:0:0:0:
444,203,47499,1,4,0:0:0:0:
432,176,48185,1,8,0:0:0:0:
464,160,48699,1,0,0:0:0:0:
378,171,49042,1,0,0:0:0:0:
225,71,49385,1,0,0:0:0:0:
412,180,49556,1,8,0:0:0:0:
412,180,49899,1,8,0:0:0:0:
390,182,50242,1,0,0:0:0:0:
418,218,50585,1,0,0:0:0:0:
489,180,50928,1,8,0:0:0:0:
444,199,51271,1,0,0:0:0:0:
436,194,51442,1,0,0:0:0:0:
394,178,51785,1,8,0:0:0:0:
493,330,52128,1,0,0:0:0:0:
426,203,52299,1,8,0:0:0:0:
512,176,52471,1,8,0:0:0:0:
459,169,52642,1,0,0:0:0:0:
459,169,52985,1,4,0:0:0:0:
432,183,53328,1,8,0:0:0:0:
383,230,54013,1,0,0:0:0:0:
397,195,54185,1,8,0:0:0:0:
445,170,54356,1,0,0:0:0:0:
449,194,54699,1,8,0:0:0:0:
438,239,55042,1,0,0:0:0:0:
384,176,55385,1,8,0:0:0:0:
444,180,55556,1,0,0:0:0:0:
458,225,55728,1,8,0:0:0:0:
467,176,56071,1,8,0:0:0:0:
429,201,56413,1,0,0:0:0:0:
389,208,56756,1,8,0:0:0:0:
423,218,56928,1,8,0:0:0:0:
409,251,57099,1,0,0:0:0:0:
429,201,57442,1,8,0:0:0:0:
424,167,57785,1,0,0:0:0:0:
442,235,57956,1,8,0:0:0:0:
443,181,58128,1,8,0:0:0:0:
462,178,58471,1,4,0:0:0:0:
441,188,59156,1,8,0:0:0:0:
427,186,59499,1,8,0:0:0:0:
393,203,59671,1,0,0:0:0:0:
456,179,60013,1,8,0:0:0:0:
451,186,60185,1,8,0:0:0:0:
447,240,60356,1,0,0:0:0:0:
405,202,60699,1,8,0:0:0:0:
383,203,60871,1,0,0:0:0:0:
429,203,61042,1,8,0:0:0:0:
441,211,61213,1,4,0:0:0:0:
396,184,61556,1,8,0:0:0:0:
418,192,61728,1,8,0:0:0:0:
445,198,61899,1,0,0:0:0:0:
468,182,62071,1,0,0:0:0:0:
419,197,62242,1,8,0:0:0:0:
405,179,62585,1,4,0:0:0:0:
418,246,62928,1,0,0:0:0:0:
424,199,63099,1,12,0:0:0:0:
418,246,63442,1,0,0:0:0:0:
428,216,63613,1,12,0:0:0:0:
443,175,63956,1,8,0:0:0:0:
426,185,64128,1,0,0:0:0:0:
418,185,64299,1,0,0:0:0:0:
371,179,64471,1,8,0:0:0:0:
409,172,65328,1,4,0:0:0:0:
485,283,65671,1,0,0:0:0:0:
448,160,66013,1,8,0:0:0:0:
464,160,66185,1,0,0:0:0:0:
448,176,66356,1,8,0:0:0:0:
464,192,66699,1,8,0:0:0:0:
448,176,66871,1,0,0:0:0:0:
421,174,67042,1,8,0:0:0:0:
432,176,67213,1,8,0:0:0:0:
432,208,67556,1,0,0:0:0:0:
426,198,67728,1,0,0:0:0:0:
416,160,68071,1,12,0:0:0:0:
419,187,68413,1,0,0:0:0:0:
416,176,68756,1,8,0:0:0:0:
436,303,68928,1,0,0:0:0:0:
432,192,69099,1,0,0:0:0:0:
448,176,69271,1,8,0:0:0:0:
490,183,69613,1,8,0:0:0:0:
396,164,69785,1,8,0:0:0:0:
493,174,69956,1,0,0:0:0:0:
447,210,70471,1,8,0:0:0:0:
416,176,70813,1,4,0:0:0:0:
448,176,71156,1,8,0:0:0:0:
368,208,71499,1,0,0:0:0:0:
410,180,71671,1,0,0:0:0:0:
416,192,71842,1,8,0:0:0:0:
443,210,72013,1,8,0:0:0:0:
396,182,72356,1,8,0:0:0:0:
400,192,72528,1,0,0:0:0:0:
463,174,72699,1,0,0:0:0:0:
425,241,73042,1,8,0:0:0:0:
490,170,73213,1,8,0:0:0:0:
464,192,73556,1,4,0:0:0:0:
385,198,73899,1,8,0:0:0:0:
384,187,74242,1,0,0:0:0:0:
455,164,74413,1,0,0:0:0:0:
350,188,74585,1,8,0:0:0:0:
419,190,74756,1,8,0:0:0:0:
416,176,74928,1,0,0:0:0:0:
395,205,75271,1,8,0:0:0:0:
488,188,75442,1,0,0:0:0:0:
464,176,76299,1,4,0:0:0:0:
392,198,76642,1,8,0:0:0:0:
396,181,76985,1,0,0:0:0:0:
376,169,77156,1,0,0:0:0:0:
440,175,77328,1,8,0:0:0:0:
450,178,77671,1,8,0:0:0:0:
406,181,77842,1,8,0:0:0:0:
373,181,78013,1,0,0:0:0:0:
398,176,78185,1,8,0:0:0:0:
422,171,78528,1,0,0:0:0:0:
460,201,78699,1,0,0:0:0:0:
416,192,79042,1,12,0:0:0:0:
457,263,79385,1,0,0:0:0:0:
369,205,79556,1,0,0:0:0:0:
450,163,79728,1,8,0:0:0:0:
441,176,80071,1,8,0:0:0:0:
432,160,80242,1,0,0:0:0:0:
487,181,80585,1,0,0:0:0:0:
441,176,80928,1,8,0:0:0:0:
448,192,81271,1,8,0:0:0:0:
445,167,81442,1,0,0:0:0:0:
381,182,81613,1,8,0:0:0:0:
436,183,81785,1,4,0:0:0:0:
423,315,82128,1,0,0:0:0:0:
450,173,82471,1,8,0:0:0:0:
427,179,82813,1,0,0:0:0:0:
427,179,82985,1,0,0:0:0:0:
433,179,83156,1,8,0:0:0:0:
468,170,83499,1,0,0:0:0:0:
430,182,83671,1,8,0:0:0:0:
451,195,84013,1,0,0:0:0:0:
417,185,84185,1,0,0:0:0:0:
416,185,84356,1,0,0:0:0:0:
455,199,84528,1,8,0:0:0:0:
446,170,84871,1,0,0:0:0:0:
459,179,85042,1,8,0:0:0:0:
428,195,85213,1,0,0:0:0:0:
448,176,85385,1,0,0:0:0:0:
480,177,85556,1,8,0:0:0:0:
443,182,85899,1,4,0:0:0:0:
337,176,87271,5,4,0:0:0:0:
256,192,87442,12,0,88642,0:0:0:0:
