osu file format v14

[General]
AudioFilename: audio.mp3
AudioLeadIn: 0
PreviewTime: 54757
Countdown: 0
SampleSet: Normal
StackLeniency: 0.3
Mode: 0
LetterboxInBreaks: 1
WidescreenStoryboard: 1

[Editor]
DistanceSpacing: 1.2
BeatDivisor: 4
GridSize: 4
TimelineZoom: 2.799999

[Metadata]
Title:FUNBARE RUNNER
TitleUnicode:FUNBARE☆RUNNER
Artist:777 SISTERS
ArtistUnicode:777☆SISTERS
Creator:xierbaliti
Version:Hard
Source:Tokyo 7th シスターズ
Tags:ナナスタ TOKYO-7TH
BeatmapID:4410851
BeatmapSetID:349598

[Difficulty]
HPDrainRate:3
CircleSize:3
OverallDifficulty:5
ApproachRate:8
SliderMultiplier:1.2
SliderTickRate:1

[Events]
//Background and Video events
0,0,"bg.jpg",0,0
//Break Periods
//Storyboard Layer 0 (Background)
//Storyboard Layer 1 (Fail)
//Storyboard Layer 2 (Pass)
//Storyboard Layer 3 (Foreground)
//Storyboard Layer 4 (Overlay)
//Storyboard Sound Samples

[TimingPoints]
1327,335.195530726257,4,1,1,50,1,0
12388,-100,4,2,1,60,0,0
20097,-100,4,2,1,70,0,0
25461,-100,4,1,1,40,0,0
25628,-100,4,2,1,70,0,0
32835,-100,4,1,1,35,0,0
33505,-133.333333333333,4,1,1,40,0,0
33589,-133.333333333333,4,2,1,40,0,0
42556,-100,4,1,1,20,0,0
43226,-100,4,1,1,25,0,0
43896,-100,4,1,1,30,0,0
44902,-100,4,1,0,40,0,0
46745,-100,4,1,0,50,0,0
52276,-100,4,1,1,50,0,0
57639,-100,4,1,1,50,0,1
77751,-100,4,1,1,50,0,0
79092,-100,4,1,1,50,0,1
105908,-100,4,1,1,50,0,0
116634,-100,4,2,1,60,0,0

[Colours]
Combo1 : 128,0,255
Combo2 : 255,128,255
Combo3 : 128,64,64
Combo4 : 0,128,128

[HitObjects]
128,160,1327,6,0,P|160:92|208:120,3,120,4|0|0|8,0:0|0:0|0:0|0:0,0:0:0:0:
322,285,2667,2,0,P|377:279|384:224,3,120,0|0|0|8,0:0|0:0|0:0|0:0,0:0:0:0:
128,160,4008,6,0,P|160:92|208:120,3,120,4|0|0|8,0:0|0:0|0:0|0:0,0:0:0:0:
220,128,5181,2,0,P|240:212|328:228,1,180,4|8,0:0|0:0,0:0:0:0:
360,156,6019,6,0,P|392:96|388:56,3,80,8|0|0|4,0:0|0:0|0:0|0:0,0:0:0:0:
308,76,7025,1,0,0:0:0:0:
268,148,7360,6,0,L|212:184,1,60
176,188,7695,2,0,L|120:156,1,60
88,136,8030,5,0,0:0:0:0:
120,216,8366,1,0,0:0:0:0:
152,292,8701,2,0,L|208:272,1,60
244,296,9036,2,0,L|280:232,1,60
296,208,9371,5,4,0:0:0:0:
372,308,9874,1,4,0:0:0:0:
440,200,10377,1,4,0:0:0:0:
440,200,10544,6,0,L|400:124,1,60
380,88,10880,2,0,L|364:52,2,30
440,116,11215,2,0,L|484:140,2,30
388,160,11550,2,0,L|372:200,2,30
372,96,11885,2,0,L|340:64,2,30,0|0|4,0:0|0:0|0:0,0:0:0:0:
256,192,12388,5,0,0:0:0:0:
256,192,12556,1,0,0:0:0:0:
256,192,12723,1,0,0:0:0:0:
160,100,13058,1,8,0:0:0:0:
104,220,13394,1,0,0:0:0:0:
104,220,13561,1,0,0:0:0:0:
104,220,13729,1,8,0:0:0:0:
196,316,14064,2,0,L|284:304,1,60
244,244,14399,2,0,L|292:300,1,60,8|0,0:0|0:0,0:0:0:0:
328,240,14734,2,0,L|316:320,1,60
319,299,15070,5,8,0:0:0:0:
319,299,15237,1,0,0:0:0:0:
319,299,15405,1,0,0:0:0:0:
440,248,15740,1,8,0:0:0:0:
392,124,16075,1,0,0:0:0:0:
392,124,16243,1,0,0:0:0:0:
392,124,16410,1,8,0:0:0:0:
272,176,16745,1,0,0:0:0:0:
304,200,16913,1,0,0:0:0:0:
292,240,17081,1,8,0:0:0:0:
252,240,17248,1,0,0:0:0:0:
240,200,17416,1,0,0:0:0:0:
328,84,17751,5,8,0:0:0:0:
192,40,18086,1,0,0:0:0:0:
100,148,18421,1,8,0:0:0:0:
228,212,18757,2,0,P|292:152|384:160,1,180
324,228,19427,2,0,P|272:288|156:268,1,180
236,216,20097,5,0,0:0:0:0:
236,216,20265,1,0,0:0:0:0:
236,216,20433,2,0,L|208:172,2,30,4|0|0,0:0|0:0|0:0,0:0:0:0:
260,304,20768,5,0,0:0:0:0:
260,304,20935,1,0,0:0:0:0:
260,304,21103,2,0,L|288:344,2,30,4|0|0,0:0|0:0|0:0,0:0:0:0:
236,216,21438,5,0,0:0:0:0:
236,216,21606,1,0,0:0:0:0:
236,216,21773,2,0,L|204:136,1,60,4|0,0:0|0:0,0:0:0:0:
188,72,22109,2,0,L|128:108,1,60
60,52,22444,2,0,L|48:116,1,60,4|0,0:0|0:0,0:0:0:0:
100,188,22779,1,4,0:0:0:0:
196,340,23114,5,8,0:0:0:0:
372,312,23449,2,0,P|428:268|424:196,1,120,0|8,0:0|0:0,0:0:0:0:
384,48,24120,2,0,P|344:92|348:152,1,120,0|8,0:0|0:0,0:0:0:0:
200,252,24790,1,0,0:0:0:0:
180,212,24958,1,0,0:0:0:0:
208,176,25125,1,8,0:0:0:0:
180,140,25293,1,0,0:0:0:0:
204,100,25461,5,0,0:0:0:0:
36,36,25796,1,8,0:0:0:0:
44,216,26131,2,0,P|68:280|128:296,1,120,0|8,0:0|0:0,0:0:0:0:
160,124,26801,6,0,P|228:112|276:156,1,120,0|8,0:0|0:0,0:0:0:0:
204,204,27304,2,0,P|256:236|320:212,1,120
268,140,27807,2,0,P|328:128|384:168,2,120,8|0|8,0:0|0:0|0:0,0:0:0:0:
300,224,28645,2,0,P|232:260|176:232,1,120
194,248,29148,1,8,0:0:0:0:
256,80,29483,5,0,0:0:0:0:
256,80,29651,2,0,P|192:56|128:76,1,120
188,144,30153,2,0,P|132:172|72:140,2,120,0|4|4,0:0|0:0|0:0,0:0:0:0:
348,64,31159,1,0,0:0:0:0:
348,64,31327,1,0,0:0:0:0:
444,216,31662,1,0,0:0:0:0:
444,216,31829,1,4,0:0:0:0:
272,264,32164,1,0,0:0:0:0:
272,264,32332,1,0,0:0:0:0:
204,96,32667,1,0,0:0:0:0:
204,96,32835,1,0,0:0:0:0:
204,96,33170,1,0,0:0:0:0:
204,96,33505,6,0,P|160:116|112:100,2,90.0000034332277,4|0|8,0:0|0:0|0:0,0:0:0:0:
156,32,34511,1,0,0:0:0:0:
156,32,34846,2,0,P|136:72|152:120,1,90.0000034332277
147,113,35516,2,0,P|168:160|152:192,1,90.0000034332277,8|0,0:0|0:0,0:0:0:0:
152,191,36187,2,0,P|136:240|168:280,2,90.0000034332277,0|0|8,0:0|0:0|0:0,0:0:0:0:
152,191,37025,1,0,0:0:0:0:
152,191,37192,1,0,0:0:0:0:
152,191,37528,2,0,P|200:160|248:164,1,90.0000034332277
231,159,38198,2,0,P|292:176|328:168,1,90.0000034332277,8|0,0:0|0:0,0:0:0:0:
284,96,38868,5,4,0:0:0:0:
284,96,39204,1,0,0:0:0:0:
284,96,39539,2,0,P|340:124|348:160,1,90.0000034332277,8|0,0:0|0:0,0:0:0:0:
347,146,40209,2,0,P|344:208|316:216,1,90.0000034332277
325,215,40880,2,0,P|292:240|288:292,1,90.0000034332277,8|0,0:0|0:0,0:0:0:0:
285,285,41550,2,0,P|324:320|372:304,2,90.0000034332277,0|0|8,0:0|0:0|0:0,0:0:0:0:
285,285,42556,5,4,0:0:0:0:
108,308,42891,1,0,0:0:0:0:
148,132,43226,1,0,0:0:0:0:
212,300,43561,1,0,0:0:0:0:
48,228,43896,1,0,0:0:0:0:
188,112,44232,1,0,0:0:0:0:
140,284,44567,1,4,0:0:0:0:
140,284,44902,6,0,L|216:256,1,60
196,263,45237,2,0,L|272:235,1,60
252,242,45572,2,0,L|328:214,1,60
308,221,45908,2,0,L|384:193,1,60
364,200,46243,2,0,L|440:172,2,60
364,200,46913,6,0,L|292:224,1,60,8|0,0:0|0:0,0:0:0:0:
307,218,47248,2,0,L|235:242,1,60
250,236,47583,2,0,L|178:260,1,60,8|0,0:0|0:0,0:0:0:0:
193,254,47919,2,0,L|121:278,1,60
136,272,48254,2,0,L|64:296,2,60,8|0|0,0:0|0:0|0:0,0:0:0:0:
192,248,48757,1,0,0:0:0:0:
248,224,48924,1,8,0:0:0:0:
300,196,49092,1,0,0:0:0:0:
352,168,49259,1,0,0:0:0:0:
272,80,49595,6,0,P|328:48|392:56,1,120,0|4,0:0|0:0,0:0:0:0:
364,172,50265,2,0,B|344:244|276:248,1,120,0|4,0:0|0:0,0:0:0:0:
252,132,50935,2,0,P|212:92|132:84,1,120,0|4,0:0|0:0,0:0:0:0:
136,200,51606,2,0,P|80:168|80:112,1,120,0|4,0:0|0:0,0:0:0:0:
196,100,52276,1,0,0:0:0:0:
196,100,52444,1,0,0:0:0:0:
192,284,52779,1,4,0:0:0:0:
192,284,52947,1,0,0:0:0:0:
348,192,53282,1,0,0:0:0:0:
348,192,53449,1,0,0:0:0:0:
228,68,53785,1,0,0:0:0:0:
228,68,53952,1,0,0:0:0:0:
200,244,54287,2,0,B|152:272|96:268,2,90,0|4|4,0:0|0:0|0:0,0:0:0:0:
256,192,54958,12,4,56969,0:0:0:0:
416,112,57639,6,0,P|352:80|280:84,1,120,4|8,0:0|0:0,0:0:0:0:
328,164,58142,2,0,P|244:164|220:128,1,120
76,44,58813,2,0,P|64:124|100:172,1,120
152,100,59315,2,0,P|188:152|160:208,1,120,8|0,0:0|0:0,0:0:0:0:
80,184,59818,2,0,P|44:240|76:296,1,120
62,285,60321,1,0,0:0:0:0:
236,324,60656,1,8,0:0:0:0:
236,324,60824,1,0,0:0:0:0:
236,324,60991,6,0,B|252:296|268:264|252:204,1,120
176,252,61494,2,0,L|168:112,1,120
256,116,61997,2,0,L|388:80,1,120,8|0,0:0|0:0,0:0:0:0:
371,84,62667,1,0,0:0:0:0:
372,264,63002,6,0,L|244:300,1,120,4|8,0:0|0:0,0:0:0:0:
292,212,63505,2,0,L|164:204,1,120
240,144,64008,2,0,L|136:84,1,120,8|0,0:0|0:0,0:0:0:0:
136,84,64511,1,0,0:0:0:0:
136,84,64678,1,8,0:0:0:0:
96,260,65014,2,0,L|56:316,3,60,0|0|8|0,0:0|0:0|0:0|0:0,0:0:0:0:
61,308,65684,2,0,P|120:344|176:328,1,120,0|8,0:0|0:0,0:0:0:0:
144,248,66187,2,0,P|180:196|240:200,1,120
220,284,66690,2,0,P|276:272|312:208,1,120,8|0,0:0|0:0,0:0:0:0:
310,222,67192,1,0,0:0:0:0:
310,222,67360,1,8,0:0:0:0:
180,100,67695,1,0,0:0:0:0:
180,100,67863,1,0,0:0:0:0:
180,100,68030,1,8,0:0:0:0:
96,260,68366,6,0,L|152:308,1,60
212,312,68701,1,8,0:0:0:0:
280,292,68868,2,0,L|360:276,1,60
396,236,69204,1,0,0:0:0:0:
396,236,69371,1,8,0:0:0:0:
396,236,69539,2,0,P|416:180|404:112,1,120
356,72,70042,1,8,0:0:0:0:
212,72,70377,5,0,0:0:0:0:
148,40,70544,1,0,0:0:0:0:
112,104,70712,1,8,0:0:0:0:
148,164,70880,1,0,0:0:0:0:
216,140,71047,2,0,P|272:120|348:136,1,120,0|8,0:0|0:0,0:0:0:0:
280,180,71550,2,0,P|336:220|384:180,1,120
340,136,72053,2,0,L|367:73,2,60,8|0|0,0:0|0:0|0:0,0:0:0:0:
308,200,72556,5,0,0:0:0:0:
332,268,72723,1,8,0:0:0:0:
276,312,72891,1,0,0:0:0:0:
216,276,73058,1,0,0:0:0:0:
232,204,73226,2,0,P|172:144|120:152,1,120
152,216,73729,2,0,P|92:208|52:156,1,120,0|8,0:0|0:0,0:0:0:0:
164,80,74399,5,0,0:0:0:0:
308,104,74734,1,8,0:0:0:0:
304,104,74902,2,0,L|376:88,1,60
348,236,75405,1,8,0:0:0:0:
348,236,75572,2,0,L|268:268,1,60
220,272,75908,1,0,0:0:0:0:
148,264,76075,1,8,0:0:0:0:
100,208,76243,1,0,0:0:0:0:
100,136,76410,6,4,L|76:76,2,60,4|0|8,0:0|0:0|0:0,0:0:0:0:
188,248,77081,2,0,L|196:328,2,60,0|0|8,0:0|0:0|0:0,0:0:0:0:
144,192,77583,2,0,L|196:132,1,60
120,112,77919,2,0,L|148:44,1,60,0|8,0:0|0:0,0:0:0:0:
192,112,78254,2,0,L|256:104,1,60
284,40,78589,2,0,L|324:92,1,60,8|8,0:0|0:0,0:0:0:0:
444,216,79092,6,0,B|392:260|324:240,1,120,4|8,0:0|0:0,0:0:0:0:
376,164,79595,2,0,P|324:124|256:140,1,120
224,204,80097,1,8,0:0:0:0:
148,252,80265,1,0,0:0:0:0:
140,164,80433,2,0,L|84:104,3,60,0|0|8|0,0:0|0:0|0:0|0:0,0:0:0:0:
80,32,81103,2,0,L|208:60,1,120,0|8,0:0|0:0,0:0:0:0:
212,148,81606,1,0,0:0:0:0:
268,76,81773,6,0,L|396:104,1,120,0|8,0:0|0:0,0:0:0:0:
460,48,82276,1,0,0:0:0:0:
452,140,82444,2,0,L|428:260,1,120,0|8,0:0|0:0,0:0:0:0:
452,344,82947,1,0,0:0:0:0:
364,320,83114,2,0,L|244:304,1,120,0|8,0:0|0:0,0:0:0:0:
196,228,83617,1,0,0:0:0:0:
176,316,83785,2,0,L|56:300,1,120,0|8,0:0|0:0,0:0:0:0:
88,124,84455,6,0,L|116:192,1,60
184,128,84790,2,0,L|208:184,1,60,8|0,0:0|0:0,0:0:0:0:
296,200,85125,1,0,0:0:0:0:
296,200,85293,1,0,0:0:0:0:
296,200,85461,1,8,0:0:0:0:
424,124,85796,6,0,L|396:192,1,60
328,128,86131,2,0,L|304:184,1,60,8|0,0:0|0:0,0:0:0:0:
216,200,86466,1,0,0:0:0:0:
216,200,86634,1,0,0:0:0:0:
216,200,86802,1,8,0:0:0:0:
48,260,87137,6,0,L|104:144,1,120,0|8,0:0|0:0,0:0:0:0:
156,224,87639,2,0,L|216:92,1,120
252,36,88142,1,8,0:0:0:0:
280,124,88310,1,0,0:0:0:0:
340,56,88477,2,0,L|408:36,2,60,0|0|8,0:0|0:0|0:0,0:0:0:0:
256,84,88980,2,0,L|128:116,1,120,0|8,0:0|0:0,0:0:0:0:
56,144,89483,1,8,0:0:0:0:
68,232,89651,1,0,0:0:0:0:
124,187,89818,1,4,0:0:0:0:
304,100,90153,5,8,0:0:0:0:
392,116,90321,1,0,0:0:0:0:
348,196,90489,1,0,0:0:0:0:
436,204,90656,1,0,0:0:0:0:
388,280,90824,2,0,P|300:320|252:312,1,120,8|0,0:0|0:0,0:0:0:0:
300,232,91327,2,0,P|236:200|176:212,1,120
192,296,91829,1,0,0:0:0:0:
104,308,91997,1,0,0:0:0:0:
128,220,92164,1,8,0:0:0:0:
40,232,92332,1,0,0:0:0:0:
68,148,92500,2,0,P|104:72|144:60,1,120,0|8,0:0|0:0,0:0:0:0:
148,148,93002,2,0,P|216:160|272:132,1,120
212,64,93505,1,8,0:0:0:0:
232,244,93840,5,0,0:0:0:0:
384,148,94176,1,8,0:0:0:0:
388,328,94511,1,0,0:0:0:0:
232,244,94846,5,8,0:0:0:0:
240,64,95181,2,0,L|120:44,1,120,0|8,0:0|0:0,0:0:0:0:
168,124,95684,2,0,L|48:148,1,120
50,147,96187,1,8,0:0:0:0:
50,147,96354,1,0,0:0:0:0:
60,236,96522,2,0,L|92:296,1,60
152,224,96857,2,0,L|208:256,1,60,8|0,0:0|0:0,0:0:0:0:
240,172,97192,2,0,L|320:172,1,60
260,92,97528,2,0,L|316:56,1,60,8|0,0:0|0:0,0:0:0:0:
400,40,97863,6,0,P|440:112|420:228,1,180,4|0,0:0|0:0,0:0:0:0:
356,256,98533,2,0,L|392:296,2,30
280,208,98868,1,8,0:0:0:0:
280,208,99036,2,0,P|188:256|108:236,1,180,0|8,0:0|0:0,0:0:0:0:
68,164,99706,2,0,L|28:192,2,30,0|0|4,0:0|0:0|0:0,0:0:0:0:
108,84,100042,2,0,L|59:44,2,60,0|8|8,0:0|0:0|0:0,0:0:0:0:
176,144,100544,6,0,P|228:184|304:184,1,120,4|0,0:0|0:0,0:0:0:0:
260,100,101047,2,0,P|320:76|372:88,1,120
392,176,101550,5,0,0:0:0:0:
456,112,101718,1,4,0:0:0:0:
304,208,102053,5,0,0:0:0:0:
252,280,102220,1,0,0:0:0:0:
104,176,102556,5,0,0:0:0:0:
64,96,102723,1,0,0:0:0:0:
104,176,102891,1,0,0:0:0:0:
148,252,103058,1,0,0:0:0:0:
192,332,103226,2,0,L|332:284,1,120,4|0,0:0|0:0,0:0:0:0:
248,224,103729,2,0,L|340:136,1,120,4|0,0:0|0:0,0:0:0:0:
248,116,104232,2,0,L|144:20,2,120,4|4|0,0:0|0:0|0:0,0:0:0:0:
312,180,105070,2,0,L|308:264,1,60
220,232,105405,2,0,L|240:304,1,60
144,288,105740,2,0,L|180:344,1,60,0|4,0:0|0:0,0:0:0:0:
96,176,106243,5,4,0:0:0:0:
108,104,106410,1,0,0:0:0:0:
180,104,106578,1,0,0:0:0:0:
212,168,106745,1,0,0:0:0:0:
160,220,106913,1,8,0:0:0:0:
160,220,107248,5,0,0:0:0:0:
168,148,107415,1,0,0:0:0:0:
224,196,107583,1,8,0:0:0:0:
240,126,107751,1,0,0:0:0:0:
292,176,107919,1,0,0:0:0:0:
276,248,108086,1,0,0:0:0:0:
208,268,108254,1,8,0:0:0:0:
240,126,108589,6,0,P|296:86|352:86,1,120,0|8,0:0|0:0,0:0:0:0:
344,158,109092,2,0,P|400:186|452:166,1,120
412,106,109595,1,8,0:0:0:0:
356,154,109762,2,0,P|304:234|200:234,1,180,4|8,0:0|0:0,0:0:0:0:
88,290,110600,2,0,P|56:230|60:190,3,80,0|4|4|4,0:0|0:0|0:0|0:0,0:0:0:0:
164,126,111606,5,0,0:0:0:0:
292,62,111941,2,0,L|324:126,1,60
384,86,112276,2,0,L|380:158,1,60
332,198,112611,2,0,L|284:254,3,60
228,278,113282,2,0,L|164:310,1,60
136,242,113617,2,0,L|48:242,1,60
72,170,113952,5,4,0:0:0:0:
72,170,114120,1,0,0:0:0:0:
184,78,114455,1,0,0:0:0:0:
184,78,114623,1,0,0:0:0:0:
316,138,114958,1,0,0:0:0:0:
316,138,115125,1,4,0:0:0:0:
308,282,115461,1,0,0:0:0:0:
308,282,115628,1,0,0:0:0:0:
168,310,115963,1,0,0:0:0:0:
168,310,116131,1,0,0:0:0:0:
168,310,116299,1,0,0:0:0:0:
168,310,116466,1,0,0:0:0:0:
256,192,116634,12,4,119483,0:0:0:0:
