osu file format v14

[General]
AudioFilename: audio.mp3
AudioLeadIn: 0
PreviewTime: -1
Countdown: 1
SampleSet: None
StackLeniency: 0.7
Mode: 0
LetterboxInBreaks: 0
WidescreenStoryboard: 0

[Editor]
Bookmarks: 6499,16099,25699,35299,44899,68899,78499,88099,97699,121699,131299,140899,152899,155299,162499,176899,184099
DistanceSpacing: 0.5
BeatDivisor: 4
GridSize: 16
TimelineZoom: 2.599999

[Metadata]
Title:Zettai Tokken Shuchou Shimasu! Hoshi Syoko
TitleUnicode:絶対特権主張しますっ! (オリジナル・カラオケ)
Artist:765PRO ALLSTARS
ArtistUnicode:765PRO ALLSTARS
Creator:blueloniess
Version:copy
Source:
Tags:
BeatmapID:1763789
BeatmapSetID:842958

[Difficulty]
HPDrainRate:2
CircleSize:4
OverallDifficulty:9
ApproachRate:9.6
SliderMultiplier:1.8
SliderTickRate:1

[Events]
//Background and Video events
//Break Periods
//Storyboard Layer 0 (Background)
//Storyboard Layer 1 (Fail)
//Storyboard Layer 2 (Pass)
//Storyboard Layer 3 (Foreground)
//Storyboard Sound Samples

[TimingPoints]
1699,300,4,2,0,60,1,0
1786,-133.333333333333,4,3,1,50,0,0
6499,-111.111111111111,4,3,1,50,0,0
6586,-111.111111111111,4,1,1,65,0,0
11386,-111.111111111111,4,3,1,55,0,0
14986,-111.111111111111,4,1,1,65,0,0
16186,-100,4,1,1,70,0,0
25786,-111.111111111111,4,1,1,55,0,0
34186,-100,4,1,1,55,0,0
35386,-111.111111111111,4,1,1,65,0,0
44986,-100,4,1,1,75,0,1
68986,-100,4,1,1,70,0,0
78586,-111.111111111111,4,1,1,55,0,0
86986,-100,4,1,1,55,0,0
88186,-111.111111111111,4,1,1,65,0,0
97786,-100,4,1,1,75,0,1
121786,-100,4,1,1,70,0,0
130999,-83.3333333333333,4,1,1,70,0,0
131086,-83.3333333333333,4,1,1,70,0,0
131386,-100,4,1,1,65,0,0
140986,-133.333333333333,4,1,1,50,0,0
146986,-100,4,1,1,50,0,0
148186,-100,4,1,1,70,0,0
152986,-133.333333333333,4,3,1,55,0,0
154186,-100,4,1,1,70,0,0
155386,-100,4,1,1,70,0,1
176986,-100,4,1,1,70,0,0

[Colours]
Combo1 : 242,136,208
Combo2 : 253,155,66
Combo3 : 28,193,249
Combo4 : 232,215,0

[HitObjects]
228,233,1099,6,0,L|200:333,1,90,8|0,0:0|3:0,0:0:0:0:
194,354,1324,1,0,0:0:0:0:
194,354,1399,1,2,0:3:0:0:
143,169,1549,1,2,0:3:0:0:
329,258,1699,6,0,P|385:262|447:160,1,180,4|2,0:2|0:2,0:0:0:0:
274,66,2299,1,0,0:0:0:0:
202,140,2449,1,0,0:0:0:0:
300,158,2599,1,2,0:2:0:0:
274,66,2749,1,0,0:0:0:0:
228,232,2899,6,0,L|207:309,1,67.5000025749208,0|0,0:0|0:0,0:0:0:0:
105,122,3199,1,2,3:2:0:0:
242,252,3499,6,0,L|221:329,1,67.5000025749208,0|0,3:0|0:0,0:0:0:0:
119,142,3799,1,2,3:2:0:0:
256,272,4099,6,0,L|235:349,1,67.5000025749208,0|0,3:0|0:0,0:0:0:0:
133,162,4399,1,2,3:2:0:0:
270,292,4699,6,0,L|249:369,1,67.5000025749208,0|0,3:0|0:0,0:0:0:0:
147,182,4999,1,2,3:2:0:0:
284,312,5299,6,0,L|263:389,1,67.5000025749208,0|0,3:0|0:0,0:0:0:0:
161,202,5599,1,2,3:2:0:0:
298,332,5899,5,2,3:2:0:0:
342,212,6049,1,0,0:0:0:0:
79,313,6199,1,8,0:1:0:0:
79,313,6499,6,0,L|43:124,1,161.999995056153,6|8,0:3|0:0,0:0:0:0:
192,301,6949,2,0,P|187:344|176:384,1,80.9999975280763,2|0,0:3|0:0,0:0:0:0:
273,220,7249,2,0,P|290:259|300:299,1,80.9999975280763,2|0,0:3|0:0,0:0:0:0:
169,195,7549,1,8,0:0:0:0:
300,297,7699,6,0,P|388:305|440:247,1,161.999995056153,6|8,0:3|0:0,0:0:0:0:
323,113,8149,2,0,L|228:127,1,80.9999975280763,2|0,0:3|0:0,0:0:0:0:
428,150,8449,2,0,L|523:136,1,80.9999975280763,2|0,0:3|0:0,0:0:0:0:
412,45,8749,1,8,0:0:0:0:
343,214,8899,6,0,B|327:272|327:272|340:318|340:318|321:379,1,161.999995056153,6|8,0:3|0:0,0:0:0:0:
153,220,9349,2,0,P|141:175|138:121,1,80.9999975280763,2|0,0:3|0:0,0:0:0:0:
228,304,9649,2,0,P|215:348|191:397,1,80.9999975280763,2|0,0:3|0:0,0:0:0:0:
105,325,9949,1,8,0:0:0:0:
252,204,10099,6,0,P|325:191|395:260,1,161.999995056153,6|8,0:3|0:0,0:0:0:0:
489,88,10549,2,0,L|473:186,1,80.9999975280763,2|0,0:3|0:0,0:0:0:0:
365,15,10849,2,0,L|381:113,1,80.9999975280763,2|0,0:3|0:0,0:0:0:0:
475,167,11149,1,8,0:0:0:0:
275,155,11299,5,6,1:3:0:0:
195,363,11599,2,0,L|93:346,1,80.9999975280763,2|0,0:2|0:0,0:0:0:0:
310,175,11899,5,6,1:3:0:0:
150,330,12199,2,0,L|64:272,1,80.9999975280763,2|0,0:2|0:0,0:0:0:0:
334,208,12499,5,6,1:3:0:0:
122,281,12799,2,0,L|69:193,1,80.9999975280763,2|0,0:2|0:0,0:0:0:0:
340,248,13099,5,6,1:3:0:0:
118,224,13399,2,0,L|107:121,1,80.9999975280763,2|0,0:2|0:0,0:0:0:0:
328,286,13699,5,6,1:3:0:0:
137,171,13999,2,0,L|170:72,1,80.9999975280763,2|0,0:2|0:0,0:0:0:0:
301,314,14299,5,6,1:3:0:0:
224,246,14449,1,0,0:0:0:0:
435,164,14599,1,8,0:1:0:0:
435,164,14899,5,8,0:0:0:0:
301,314,15049,1,2,0:3:0:0:
218,76,15199,5,8,0:0:0:0:
352,226,15349,1,2,0:3:0:0:
458,28,15499,5,8,0:0:0:0:
444,255,15649,1,2,0:3:0:0:
343,135,15799,5,8,0:0:0:0:
343,135,16099,6,0,L|261:159,1,80.9999975280763,4|0,0:0|0:0,0:0:0:0:
120,284,16399,2,0,P|160:304|215:309,1,90,8|0,0:0|0:0,0:0:0:0:
437,248,16699,1,2,0:3:0:0:
297,369,16849,1,2,0:3:0:0:
345,219,16999,1,8,0:0:0:0:
461,334,17149,1,0,0:0:0:0:
487,129,17299,6,0,L|460:35,1,90,2|0,0:3|0:0,0:0:0:0:
437,248,17599,2,0,L|463:341,1,90,8|0,0:0|0:0,0:0:0:0:
345,219,17899,1,2,0:3:0:0:
345,219,18049,1,2,0:3:0:0:
204,309,18199,2,0,P|160:304|120:284,1,90,8|0,0:0|0:0,0:0:0:0:
234,62,18499,6,0,L|249:157,1,90,2|0,0:3|0:0,0:0:0:0:
359,307,18799,2,0,L|344:218,1,90,8|0,0:0|0:0,0:0:0:0:
398,74,19099,1,2,0:3:0:0:
398,74,19249,1,2,0:3:0:0:
262,237,19399,2,0,P|218:232|178:212,1,90,8|0,0:0|0:0,0:0:0:0:
234,62,19699,5,2,0:3:0:0:
416,159,19849,1,0,0:0:0:0:
275,320,19999,5,8,0:0:0:0:
314,114,20149,1,0,0:0:0:0:
449,335,20299,5,2,0:3:0:0:
485,99,20449,1,2,0:3:0:0:
260,213,20599,5,8,0:0:0:0:
509,193,20749,1,0,0:0:0:0:
275,320,20899,6,0,L|180:295,1,90,2|0,0:3|0:0,0:0:0:0:
314,114,21199,2,0,L|409:89,1,90,8|0,0:0|0:0,0:0:0:0:
440,242,21499,1,2,0:3:0:0:
485,99,21649,1,2,0:3:0:0:
351,228,21799,1,8,0:0:0:0:
482,321,21949,1,0,0:0:0:0:
351,228,22099,6,0,P|308:207|256:203,1,90,2|0,0:3|0:0,0:0:0:0:
190,345,22399,2,0,P|234:339|274:319,1,90,8|0,0:0|0:0,0:0:0:0:
169,195,22699,1,2,0:3:0:0:
169,195,22849,1,2,0:3:0:0:
100,377,22999,2,0,L|76:290,1,90,8|0,0:0|0:0,0:0:0:0:
59,57,23299,6,0,L|82:143,1,90,4|0,0:0|0:0,0:0:0:0:
266,202,23599,2,0,P|310:190|346:157,1,90,8|0,0:0|0:0,0:0:0:0:
372,57,23899,1,2,0:3:0:0:
169,195,24049,1,2,0:3:0:0:
385,311,24199,1,8,0:0:0:0:
265,105,24349,6,0,L|76:78,1,180,4|8,0:0|0:0,0:0:0:0:
123,346,24799,1,2,0:3:0:0:
159,320,24874,1,2,0:3:0:0:
181,281,24949,1,2,0:3:0:0:
185,237,25024,1,2,0:3:0:0:
169,195,25099,1,8,0:0:0:0:
39,312,25249,1,0,0:0:0:0:
244,355,25399,5,8,0:0:0:0:
266,359,25474,1,8,0:0:0:0:
288,363,25549,1,8,0:0:0:0:
310,367,25624,1,8,0:0:0:0:
332,368,25699,6,0,L|357:249,1,90,4|0,3:1|3:0,0:0:0:0:
271,142,25999,2,0,P|276:182|298:216,1,80.9999975280763,8|0,0:0|3:0,0:0:0:0:
443,106,26299,1,2,3:0:0:0:
354,64,26449,1,2,3:0:0:0:
425,209,26599,2,0,L|527:185,1,80.9999975280763,8|0,0:0|3:0,0:0:0:0:
354,64,26899,6,0,L|252:40,1,80.9999975280763,2|0,3:0|3:0,0:0:0:0:
271,142,27199,2,0,L|169:118,1,80.9999975280763,8|0,0:0|3:0,0:0:0:0:
109,238,27499,2,0,L|211:214,1,80.9999975280763,2|2,3:0|3:0,0:0:0:0:
192,316,27799,2,0,L|294:292,1,80.9999975280763,8|0,0:0|3:0,0:0:0:0:
503,190,28099,6,0,P|419:195|377:257,1,161.999995056153,2|8,3:0|0:0,0:0:0:0:
357,363,28549,1,0,3:0:0:0:
275,198,28699,1,2,3:0:0:0:
377,254,28849,1,2,3:0:0:0:
192,316,28999,2,0,L|90:292,1,80.9999975280763,8|0,0:0|3:0,0:0:0:0:
192,123,29299,5,2,3:0:0:0:
101,187,29449,1,0,3:0:0:0:
287,291,29599,1,8,0:0:0:0:
205,222,29749,1,0,0:0:0:0:
205,222,29824,1,0,0:0:0:0:
205,222,29899,1,2,3:0:0:0:
382,266,30049,1,2,3:0:0:0:
192,316,30199,1,8,0:0:0:0:
303,191,30349,1,0,3:0:0:0:
362,371,30499,6,0,L|464:347,1,80.9999975280763,2|0,3:0|3:0,0:0:0:0:
382,266,30799,2,0,L|484:242,1,80.9999975280763,8|0,0:0|3:0,0:0:0:0:
319,91,31099,1,2,3:0:0:0:
303,191,31249,1,2,3:0:0:0:
414,66,31399,1,8,0:0:0:0:
240,16,31549,1,0,3:0:0:0:
208,216,31699,6,0,P|167:215|129:197,1,80.9999975280763,2|0,3:0|3:0,0:0:0:0:
65,372,31999,2,0,P|101:355|142:354,1,80.9999975280763,8|0,0:0|3:0,0:0:0:0:
303,191,32299,2,0,L|327:293,1,80.9999975280763,2|2,3:0|3:0,0:0:0:0:
220,383,32599,2,0,L|244:281,1,80.9999975280763,8|0,0:0|3:0,0:0:0:0:
359,112,32899,6,0,B|437:90|437:90|516:123,1,161.999995056153,2|8,3:0|0:0,0:0:0:0:
416,274,33349,1,0,3:0:0:0:
224,316,33499,1,2,3:0:0:0:
267,116,33649,1,2,3:0:0:0:
325,309,33799,2,0,P|321:349|302:384,1,80.9999975280763,4|2,0:0|3:0,0:0:0:0:
55,273,34099,5,8,0:0:0:0:
80,236,34174,1,8,0:0:0:0:
117,211,34249,1,8,0:0:0:0:
160,202,34324,1,8,0:0:0:0:
203,209,34399,1,2,0:3:0:0:
247,217,34474,1,2,0:3:0:0:
290,208,34549,1,2,0:3:0:0:
327,183,34624,1,2,0:3:0:0:
352,146,34699,1,2,0:3:0:0:
356,102,34774,1,2,0:3:0:0:
341,60,34849,1,2,0:3:0:0:
308,31,34924,1,2,0:3:0:0:
265,20,34999,2,0,L|163:44,1,90,12|0,0:0|3:0,0:0:0:0:
91,219,35299,6,0,P|148:205|183:178,1,90,4|0,0:0|3:0,0:0:0:0:
263,116,35599,1,8,0:0:0:0:
262,305,35749,2,0,L|183:286,1,80.9999975280763,2|0,0:3|3:0,0:0:0:0:
366,192,36049,2,0,L|287:210,1,80.9999975280763,2|0,0:3|3:0,0:0:0:0:
391,97,36349,1,8,0:0:0:0:
354,365,36499,5,2,1:3:0:0:
354,365,37099,1,8,0:0:0:0:
354,365,37399,2,0,L|275:346,1,80.9999975280763,12|0,0:0|3:0,0:0:0:0:
169,109,37699,6,0,P|192:141|204:180,1,80.9999975280763,4|0,0:0|3:0,0:0:0:0:
179,275,37999,1,8,0:0:0:0:
284,120,38149,2,0,L|362:101,1,80.9999975280763,2|0,0:3|3:0,0:0:0:0:
180,6,38449,2,0,L|259:25,1,80.9999975280763,2|0,0:3|3:0,0:0:0:0:
74,134,38749,1,8,0:0:0:0:
299,155,38899,5,2,0:3:0:0:
299,155,39499,1,8,0:0:0:0:
299,155,39799,2,0,L|377:136,1,80.9999975280763,12|0,0:0|3:0,0:0:0:0:
377,326,40099,6,0,L|298:344,1,80.9999975280763,4|0,0:0|3:0,0:0:0:0:
179,275,40399,1,8,0:0:0:0:
299,155,40549,2,0,P|296:110|280:76,1,80.9999975280763,2|0,0:3|3:0,0:0:0:0:
367,226,40849,2,0,P|386:186|390:148,1,80.9999975280763,2|0,0:3|3:0,0:0:0:0:
366,55,41149,1,8,0:0:0:0:
274,250,41299,5,2,1:3:0:0:
463,251,41449,1,2,3:0:0:0:
391,150,41599,1,0,3:0:0:0:
345,318,41749,1,2,3:0:0:0:
179,275,41899,1,8,0:0:0:0:
179,275,42199,2,0,L|160:196,1,80.9999975280763,8|0,0:0|3:0,0:0:0:0:
366,55,42499,5,4,0:0:0:0:
185,101,42649,1,0,3:0:0:0:
366,245,42799,1,0,3:1:0:0:
366,245,43099,5,4,0:0:0:0:
276,77,43249,1,0,3:0:0:0:
165,279,43399,1,0,3:1:0:0:
165,279,43699,6,0,P|147:242|141:202,1,80.9999975280763,4|0,0:0|3:0,0:0:0:0:
158,164,43924,1,8,3:1:0:0:
158,164,43999,1,2,0:3:0:0:
366,245,44149,1,8,3:1:0:0:
193,374,44299,2,0,L|115:355,1,80.9999975280763,2|0,0:3|3:0,0:0:0:0:
46,120,44599,5,12,0:0:0:0:
56,126,44899,6,0,P|88:140|133:142,1,80.9999975280763,4|0,0:0|0:0,0:0:0:0:
346,3,45199,2,0,P|301:5|261:25,1,90,8|0,0:0|0:0,0:0:0:0:
229,254,45499,1,2,0:3:0:0:
360,121,45649,1,2,0:3:0:0:
306,331,45799,1,8,0:0:0:0:
256,149,45949,1,0,0:0:0:0:
436,198,46099,5,2,0:3:0:0:
229,254,46249,1,0,0:0:0:0:
369,31,46399,2,0,L|359:124,1,90,8|0,0:0|0:0,0:0:0:0:
124,283,46699,5,2,0:3:0:0:
334,225,46849,1,2,0:3:0:0:
141,88,46999,2,0,L|151:181,1,90,8|0,0:0|0:0,0:0:0:0:
277,44,47299,5,2,0:3:0:0:
229,254,47449,1,0,0:0:0:0:
448,130,47599,2,0,L|355:120,1,90,8|0,0:0|0:0,0:0:0:0:
257,358,47899,5,2,0:3:0:0:
150,177,48049,1,2,0:3:0:0:
62,337,48199,2,0,L|152:328,1,90,8|0,0:0|0:0,0:0:0:0:
432,303,48499,5,2,0:3:0:0:
278,135,48649,1,0,0:0:0:0:
506,177,48799,1,8,0:0:0:0:
332,334,48949,1,0,0:0:0:0:
419,62,49099,5,2,0:3:0:0:
509,304,49249,1,2,0:3:0:0:
255,257,49399,1,8,0:0:0:0:
506,177,49549,1,0,0:0:0:0:
186,185,49699,6,0,L|98:162,1,90,2|0,0:3|0:0,0:0:0:0:
336,280,49999,2,0,P|380:276|419:255,1,90,8|0,0:0|0:0,0:0:0:0:
294,75,50299,1,2,0:3:0:0:
477,170,50449,1,2,0:3:0:0:
359,370,50599,1,8,0:0:0:0:
354,184,50749,1,0,0:0:0:0:
200,338,50899,5,2,0:3:0:0:
419,254,51049,1,0,0:0:0:0:
200,338,51199,2,0,L|112:315,1,90,8|0,0:0|0:0,0:0:0:0:
266,206,51499,5,2,0:3:0:0:
47,122,51649,1,0,0:0:0:0:
266,206,51799,2,0,L|354:183,1,90,8|0,0:0|0:0,0:0:0:0:
199,39,52099,5,4,0:0:0:0:
201,257,52249,1,0,0:0:0:0:
377,102,52399,1,8,0:0:0:0:
294,295,52549,1,0,0:0:0:0:
104,71,52699,5,2,0:3:0:0:
105,289,52849,1,2,0:3:0:0:
282,134,52999,1,8,0:0:0:0:
200,343,53149,1,0,0:0:0:0:
28,147,53299,5,12,0:0:0:0:
294,295,53449,1,8,0:0:0:0:
314,9,53599,1,8,0:0:0:0:
399,322,53749,1,12,0:0:0:0:
399,322,54049,5,12,0:0:0:0:
197,239,54199,1,2,0:3:0:0:
314,45,54349,1,2,0:3:0:0:
294,295,54499,6,0,P|296:342|314:380,1,90,12|0,0:0|0:0,0:0:0:0:
489,218,54799,2,0,P|487:171|469:133,1,90,8|0,0:0|0:0,0:0:0:0:
267,136,55099,1,8,0:0:0:0:
407,264,55249,1,2,0:3:0:0:
343,59,55399,1,8,0:0:0:0:
190,213,55549,1,2,0:3:0:0:
369,164,55699,5,8,0:0:0:0:
163,108,55849,1,2,0:3:0:0:
311,293,55999,5,8,0:0:0:0:
448,87,56149,1,2,0:3:0:0:
190,213,56299,5,8,0:0:0:0:
407,264,56449,1,2,0:3:0:0:
248,60,56599,5,8,0:0:0:0:
216,318,56749,1,2,0:3:0:0:
38,61,56899,5,8,0:0:0:0:
275,165,57049,1,2,0:3:0:0:
49,234,57199,5,8,0:0:0:0:
248,60,57349,1,2,0:3:0:0:
0,147,57499,5,8,0:0:0:0:
222,260,57649,1,2,0:3:0:0:
0,324,57799,5,8,0:0:0:0:
190,135,57949,1,2,0:3:0:0:
283,384,58099,5,8,0:0:0:0:
275,165,58249,1,2,0:3:0:0:
97,323,58399,1,8,0:0:0:0:
320,253,58549,1,2,0:3:0:0:
105,105,58699,5,8,0:0:0:0:
194,322,58849,1,2,0:3:0:0:
259,77,58999,1,8,0:0:0:0:
49,234,59149,1,2,0:3:0:0:
310,281,59299,6,0,P|397:291|458:216,1,180,4|8,0:0|0:0,0:0:0:0:
259,77,59749,2,0,L|164:52,1,90,2|0,0:3|0:0,0:0:0:0:
321,161,60049,2,0,L|409:138,1,90,2|0,0:3|0:0,0:0:0:0:
259,77,60349,1,8,0:0:0:0:
456,228,60499,6,0,B|423:355|423:355|364:375,1,180,4|8,0:0|0:0,0:0:0:0:
226,262,60949,2,0,P|271:264|311:284,1,90,2|0,0:3|0:0,0:0:0:0:
160,350,61249,2,0,P|115:348|75:328,1,90,2|0,0:3|0:0,0:0:0:0:
16,242,61549,1,8,0:0:0:0:
186,159,61699,6,0,P|280:144|347:201,1,180,4|8,0:0|0:0,0:0:0:0:
249,349,62149,2,0,L|224:254,1,90,2|0,0:3|0:0,0:0:0:0:
88,172,62449,2,0,L|110:85,1,90,2|0,0:3|0:0,0:0:0:0:
188,12,62749,1,8,0:0:0:0:
343,193,62899,6,0,P|429:210|500:158,1,180,4|8,0:0|0:0,0:0:0:0:
369,43,63349,2,0,L|274:68,1,90,2|0,0:3|0:0,0:0:0:0:
186,211,63649,2,0,L|99:188,1,90,2|0,0:3|0:0,0:0:0:0:
18,117,63949,1,8,0:0:0:0:
69,315,64099,5,6,0:3:0:0:
300,296,64399,2,0,P|318:254|317:210,1,90,0|0,0:0|0:0,0:0:0:0:
148,361,64699,5,6,0:3:0:0:
349,246,64999,2,0,P|348:201|328:161,1,90,0|0,0:0|0:0,0:0:0:0:
239,369,65299,5,6,0:3:0:0:
372,181,65599,2,0,P|352:141|317:113,1,90,0|0,0:0|0:0,0:0:0:0:
326,339,65899,5,6,0:3:0:0:
367,111,66199,2,0,P|332:83|289:73,1,90,0|0,0:0|0:0,0:0:0:0:
393,275,66499,5,6,0:3:0:0:
333,51,66799,2,0,P|290:41|246:50,1,90,0|0,0:0|0:0,0:0:0:0:
110,290,67099,5,6,0:3:0:0:
165,160,67249,1,0,0:0:0:0:
313,364,67399,1,8,0:0:0:0:
313,364,67699,5,8,0:0:0:0:
403,161,67849,1,2,0:3:0:0:
216,297,67999,5,8,0:0:0:0:
117,85,68149,1,2,0:3:0:0:
323,247,68299,5,8,0:0:0:0:
363,12,68449,1,2,0:3:0:0:
93,213,68599,1,8,0:0:0:0:
93,213,68899,6,0,L|188:188,1,90,4|0,0:0|0:0,0:0:0:0:
334,344,69199,2,0,L|239:319,1,90,8|0,0:0|0:0,0:0:0:0:
298,158,69499,1,2,0:3:0:0:
415,276,69649,1,2,0:3:0:0:
464,88,69799,1,8,0:0:0:0:
509,251,69949,1,0,0:0:0:0:
373,97,70099,6,0,L|343:-16,1,90,2|0,0:3|0:0,0:0:0:0:
226,213,70399,2,0,L|251:308,1,90,8|0,0:0|0:0,0:0:0:0:
384,240,70699,1,2,0:3:0:0:
384,240,70849,1,2,0:3:0:0:
237,117,70999,2,0,P|179:129|145:157,1,90,8|0,0:0|0:0,0:0:0:0:
105,329,71299,6,0,L|82:241,1,90,2|0,0:3|0:0,0:0:0:0:
132,60,71599,2,0,L|154:147,1,90,8|0,0:0|0:0,0:0:0:0:
323,131,71899,1,2,0:3:0:0:
323,131,72049,1,2,0:3:0:0:
248,300,72199,2,0,P|190:287|156:259,1,90,8|0,0:0|0:0,0:0:0:0:
240,79,72499,5,2,0:3:0:0:
357,241,72649,1,0,0:0:0:0:
386,48,72799,5,8,0:0:0:0:
435,260,72949,1,0,0:0:0:0:
238,160,73099,5,2,0:3:0:0:
464,70,73249,1,2,0:3:0:0:
182,22,73399,5,8,0:0:0:0:
405,126,73549,1,0,0:0:0:0:
218,239,73699,6,0,L|130:216,1,90,2|0,0:3|0:0,0:0:0:0:
272,383,73999,2,0,P|315:379|360:360,1,90,8|0,0:0|0:0,0:0:0:0:
305,202,74299,1,2,0:3:0:0:
197,327,74449,1,2,0:3:0:0:
231,147,74599,1,8,0:0:0:0:
367,276,74749,1,0,0:0:0:0:
401,96,74899,6,0,P|397:53|378:8,1,90,2|0,0:3|0:0,0:0:0:0:
231,147,75199,2,0,P|213:188|209:232,1,90,8|0,0:0|0:0,0:0:0:0:
357,361,75499,1,2,0:3:0:0:
357,361,75649,1,2,0:3:0:0:
197,327,75799,2,0,L|109:304,1,90,8|0,0:0|0:0,0:0:0:0:
231,147,76099,6,0,L|319:124,1,90,4|0,0:0|0:0,0:0:0:0:
433,252,76399,2,0,L|345:229,1,90,8|0,0:0|0:0,0:0:0:0:
139,174,76699,1,2,0:3:0:0:
340,32,76849,1,2,0:3:0:0:
241,256,76999,1,8,0:0:0:0:
37,92,77149,6,0,P|96:41|199:58,1,180,4|8,0:0|0:0,0:0:0:0:
317,295,77599,1,2,0:3:0:0:
326,251,77674,1,2,0:3:0:0:
336,207,77749,1,2,0:3:0:0:
345,163,77824,1,2,0:3:0:0:
355,119,77899,5,2,0:3:0:0:
374,107,77974,1,0,0:0:0:0:
396,101,78049,1,2,0:3:0:0:
418,100,78124,1,0,0:0:0:0:
440,105,78199,1,8,0:0:0:0:
460,115,78274,1,8,0:0:0:0:
478,129,78349,1,8,0:0:0:0:
491,147,78424,1,8,0:0:0:0:
498,163,78499,6,0,L|476:270,1,90,4|0,3:1|3:0,0:0:0:0:
410,366,78799,2,0,L|392:288,1,80.9999975280763,8|0,0:0|3:0,0:0:0:0:
185,251,79099,1,2,3:0:0:0:
143,340,79249,1,2,3:0:0:0:
288,269,79399,2,0,P|286:224|261:180,1,80.9999975280763,8|0,0:0|3:0,0:0:0:0:
197,72,79699,6,0,L|178:150,1,80.9999975280763,2|0,3:0|3:0,0:0:0:0:
92,105,79999,2,0,L|73:183,1,80.9999975280763,8|0,0:0|3:0,0:0:0:0:
185,251,80299,2,0,L|106:269,1,80.9999975280763,2|2,3:0|3:0,0:0:0:0:
152,356,80599,2,0,L|73:374,1,80.9999975280763,8|0,0:0|3:0,0:0:0:0:
1,219,80899,6,0,P|56:160|139:161,1,161.999995056153,2|8,3:0|0:0,0:0:0:0:
185,251,81349,1,0,3:0:0:0:
215,95,81499,1,2,3:0:0:0:
276,177,81649,1,2,3:0:0:0:
306,21,81799,2,0,L|384:2,1,80.9999975280763,8|0,0:0|3:0,0:0:0:0:
440,203,82099,5,2,3:0:0:0:
466,105,82249,1,0,3:0:0:0:
342,229,82399,1,8,0:0:0:0:
414,301,82549,1,0,0:0:0:0:
414,301,82624,1,0,0:0:0:0:
414,301,82699,1,2,3:0:0:0:
368,131,82849,1,2,3:0:0:0:
316,327,82999,1,8,0:0:0:0:
512,275,83149,1,0,3:0:0:0:
342,229,83299,6,0,L|240:205,1,80.9999975280763,2|0,3:0|3:0,0:0:0:0:
191,138,83599,2,0,L|89:162,1,80.9999975280763,8|0,0:0|3:0,0:0:0:0:
66,326,83899,1,2,3:0:0:0:
138,254,84049,1,2,3:0:0:0:
14,130,84199,1,8,0:0:0:0:
39,227,84349,1,0,3:0:0:0:
112,156,84499,6,0,L|136:54,1,80.9999975280763,2|0,3:0|3:0,0:0:0:0:
228,260,84799,2,0,L|209:181,1,80.9999975280763,8|0,0:0|3:0,0:0:0:0:
300,384,85099,2,0,L|198:360,1,80.9999975280763,2|2,3:0|3:0,0:0:0:0:
404,268,85399,2,0,L|325:286,1,80.9999975280763,8|0,0:0|3:0,0:0:0:0:
378,88,85699,6,0,P|464:80|518:134,1,161.999995056153,2|8,3:0|0:0,0:0:0:0:
502,242,86149,1,0,3:0:0:0:
323,174,86299,1,2,3:0:0:0:
430,366,86449,1,2,3:0:0:0:
235,270,86599,2,0,P|199:250|159:246,1,80.9999975280763,4|2,0:0|3:0,0:0:0:0:
303,358,86899,5,8,0:0:0:0:
333,325,86974,1,8,0:0:0:0:
347,282,87049,1,8,0:0:0:0:
343,238,87124,1,8,0:0:0:0:
322,199,87199,1,2,0:3:0:0:
300,159,87274,1,2,0:3:0:0:
296,115,87349,1,2,0:3:0:0:
310,73,87424,1,2,0:3:0:0:
341,40,87499,1,2,0:3:0:0:
382,23,87574,1,2,0:3:0:0:
426,28,87649,1,2,0:3:0:0:
462,54,87724,1,2,0:3:0:0:
482,94,87799,2,0,L|460:181,1,90,12|0,0:0|3:0,0:0:0:0:
241,269,88099,6,0,P|194:256|159:229,1,90,4|0,0:0|3:0,0:0:0:0:
132,136,88399,1,8,0:0:0:0:
307,198,88549,2,0,L|326:277,1,80.9999975280763,2|0,0:3|3:0,0:0:0:0:
422,93,88849,2,0,L|404:172,1,80.9999975280763,2|0,0:3|3:0,0:0:0:0:
397,348,89149,1,8,0:0:0:0:
237,103,89299,5,2,1:3:0:0:
237,103,89899,1,8,0:0:0:0:
237,103,90199,2,0,L|316:84,1,80.9999975280763,12|0,0:0|3:0,0:0:0:0:
424,282,90499,6,0,L|345:301,1,80.9999975280763,4|0,0:0|3:0,0:0:0:0:
238,285,90799,1,8,0:0:0:0:
402,147,90949,2,0,P|418:109|419:65,1,80.9999975280763,2|0,0:3|3:0,0:0:0:0:
315,84,91249,2,0,P|309:43|288:4,1,80.9999975280763,2|0,0:3|3:0,0:0:0:0:
150,52,91549,1,8,0:0:0:0:
58,306,91699,5,2,0:3:0:0:
58,306,92299,1,8,0:0:0:0:
58,306,92599,2,0,L|77:384,1,80.9999975280763,12|0,0:0|3:0,0:0:0:0:
248,356,92899,6,0,P|289:345|319:321,1,80.9999975280763,4|0,0:0|3:0,0:0:0:0:
319,215,93199,1,8,0:0:0:0:
476,306,93349,2,0,L|457:385,1,80.9999975280763,2|0,0:3|3:0,0:0:0:0:
419,215,93649,2,0,L|438:136,1,80.9999975280763,2|0,0:3|3:0,0:0:0:0:
467,33,93949,1,8,0:0:0:0:
262,124,94099,5,2,1:3:0:0:
332,311,94249,1,2,3:0:0:0:
419,215,94399,1,0,3:0:0:0:
241,273,94549,1,2,3:0:0:0:
170,74,94699,1,8,0:0:0:0:
170,74,94999,2,0,L|151:153,1,80.9999975280763,8|0,0:0|3:0,0:0:0:0:
107,352,95299,5,4,0:0:0:0:
50,181,95449,1,0,3:0:0:0:
289,220,95599,1,0,3:1:0:0:
289,220,95899,5,4,0:0:0:0:
289,18,96049,1,0,3:0:0:0:
136,251,96199,1,0,3:1:0:0:
136,251,96499,5,4,0:0:0:0:
318,119,96649,1,0,3:0:0:0:
318,119,96724,1,8,3:1:0:0:
318,119,96799,1,2,0:3:0:0:
170,74,96949,1,8,3:1:0:0:
289,220,97099,2,0,L|367:201,1,80.9999975280763,2|0,0:3|3:0,0:0:0:0:
512,51,97399,5,12,0:0:0:0:
512,51,97699,6,0,P|471:70|435:70,1,80.9999975280763,4|0,0:0|0:0,0:0:0:0:
289,220,97999,2,0,L|267:133,1,90,8|0,0:0|0:0,0:0:0:0:
90,83,98299,1,2,0:3:0:0:
42,261,98449,1,2,0:3:0:0:
250,319,98599,1,8,0:0:0:0:
117,186,98749,1,0,0:0:0:0:
162,382,98899,5,2,0:3:0:0:
117,186,99049,1,0,0:0:0:0:
351,307,99199,2,0,L|438:285,1,90,8|0,0:0|0:0,0:0:0:0:
399,44,99499,5,2,0:3:0:0:
289,220,99649,1,2,0:3:0:0:
90,83,99799,2,0,L|3:61,1,90,8|0,0:0|0:0,0:0:0:0:
148,285,100099,5,2,0:3:0:0:
247,105,100249,1,0,0:0:0:0:
438,284,100399,2,0,L|462:370,1,90,8|0,0:0|0:0,0:0:0:0:
512,186,100699,5,2,0:3:0:0:
370,35,100849,1,2,0:3:0:0:
270,232,100999,2,0,L|245:318,1,90,8|0,0:0|0:0,0:0:0:0:
265,35,101299,5,2,0:3:0:0:
120,198,101449,1,0,0:0:0:0:
334,152,101599,1,8,0:0:0:0:
133,63,101749,1,0,0:0:0:0:
245,319,101899,5,2,0:3:0:0:
424,130,102049,1,2,0:3:0:0:
133,63,102199,1,8,0:0:0:0:
245,319,102349,1,0,0:0:0:0:
424,130,102499,6,0,P|449:93|454:48,1,90,2|0,0:3|0:0,0:0:0:0:
182,254,102799,2,0,P|156:290|150:334,1,90,8|0,0:0|0:0,0:0:0:0:
361,364,103099,1,2,0:3:0:0:
313,192,103249,1,2,0:3:0:0:
257,384,103399,1,8,0:0:0:0:
209,172,103549,1,0,0:0:0:0:
463,270,103699,5,2,0:3:0:0:
257,384,103849,1,0,0:0:0:0:
463,270,103999,2,0,L|482:182,1,90,8|0,0:0|0:0,0:0:0:0:
272,119,104299,5,2,0:3:0:0:
463,270,104449,1,0,0:0:0:0:
272,119,104599,2,0,L|253:31,1,90,8|0,0:0|0:0,0:0:0:0:
94,198,104899,5,4,0:0:0:0:
312,192,105049,1,0,0:0:0:0:
154,360,105199,1,8,0:0:0:0:
360,274,105349,1,0,0:0:0:0:
135,112,105499,5,2,0:3:0:0:
353,106,105649,1,2,0:3:0:0:
195,274,105799,1,8,0:0:0:0:
401,188,105949,1,0,0:0:0:0:
184,21,106099,5,12,0:0:0:0:
276,320,106249,1,8,0:0:0:0:
442,102,106399,1,8,0:0:0:0:
122,239,106549,1,12,0:0:0:0:
122,239,106849,5,12,0:0:0:0:
296,104,106999,1,2,0:3:0:0:
94,21,107149,1,0,0:3:0:0:
230,208,107299,6,0,L|325:183,1,90,12|2,0:0|0:3,0:0:0:0:
413,3,107599,2,0,L|318:28,1,90,8|2,0:0|0:3,0:0:0:0:
150,130,107899,1,8,0:0:0:0:
202,317,108049,1,2,0:3:0:0:
317,185,108199,1,8,0:0:0:0:
122,239,108349,1,2,0:3:0:0:
398,263,108499,5,8,0:0:0:0:
255,104,108649,1,2,0:3:0:0:
312,343,108799,5,8,0:0:0:0:
498,178,108949,1,2,0:3:0:0:
224,265,109099,5,8,0:0:0:0:
422,369,109249,1,2,0:3:0:0:
380,105,109399,5,8,0:0:0:0:
136,187,109549,1,2,0:3:0:0:
398,263,109699,5,8,0:0:0:0:
316,26,109849,1,2,0:3:0:0:
224,265,109999,5,8,0:0:0:0:
409,86,110149,1,2,0:3:0:0:
312,342,110299,5,8,0:0:0:0:
171,134,110449,1,2,0:3:0:0:
120,384,110599,5,8,0:0:0:0:
276,168,110749,1,2,0:3:0:0:
422,369,110899,5,8,0:0:0:0:
224,265,111049,1,2,0:3:0:0:
460,177,111199,1,8,0:0:0:0:
312,342,111349,1,2,0:3:0:0:
409,86,111499,5,8,0:0:0:0:
512,309,111649,1,2,0:3:0:0:
276,168,111799,1,8,0:0:0:0:
512,87,111949,1,2,0:3:0:0:
330,248,112099,6,0,P|243:258|184:194,1,180,4|8,0:0|0:0,0:0:0:0:
310,3,112549,2,0,L|335:98,1,90,2|0,0:3|0:0,0:0:0:0:
403,180,112849,2,0,L|426:268,1,90,2|0,0:3|0:0,0:0:0:0:
473,60,113149,1,8,0:0:0:0:
276,168,113299,6,0,L|86:118,1,180,4|8,0:0|0:0,0:0:0:0:
33,282,113749,2,0,P|77:276|115:252,1,90,2|0,0:3|0:0,0:0:0:0:
163,352,114049,2,0,P|198:325|219:286,1,90,2|0,0:3|0:0,0:0:0:0:
198,113,114349,1,8,0:0:0:0:
322,263,114499,6,0,L|372:73,1,180,4|8,0:0|0:0,0:0:0:0:
425,249,114949,2,0,L|512:226,1,90,2|0,0:3|0:0,0:0:0:0:
355,371,115249,2,0,L|268:349,1,90,2|0,0:3|0:0,0:0:0:0:
106,306,115549,1,8,0:0:0:0:
209,117,115699,6,0,P|296:107|355:171,1,180,4|8,0:0|0:0,0:0:0:0:
267,348,116149,2,0,L|244:260,1,90,2|0,0:3|0:0,0:0:0:0:
113,162,116449,2,0,L|90:249,1,90,2|0,0:3|0:0,0:0:0:0:
58,377,116749,1,8,0:0:0:0:
267,348,116899,5,6,0:3:0:0:
146,145,117199,2,0,L|51:120,1,90,0|0,0:0|0:0,0:0:0:0:
324,283,117499,5,6,0:3:0:0:
117,167,117799,2,0,L|22:192,1,90,0|0,0:0|0:0,0:0:0:0:
340,198,118099,5,6,0:3:0:0:
103,201,118399,2,0,L|33:270,1,90,0|0,0:0|0:0,0:0:0:0:
312,116,118699,5,6,0:3:0:0:
108,237,118999,2,0,L|82:332,1,90,0|0,0:0|0:0,0:0:0:0:
246,58,119299,5,6,0:3:0:0:
130,265,119599,2,0,L|155:359,1,90,0|0,0:0|0:0,0:0:0:0:
402,255,119899,5,6,0:3:0:0:
318,350,120049,1,0,0:0:0:0:
209,148,120199,1,8,0:0:0:0:
209,148,120499,5,8,0:0:0:0:
397,29,120649,1,2,0:3:0:0:
196,246,120799,5,8,0:0:0:0:
427,196,120949,1,2,0:3:0:0:
154,337,121099,5,8,0:0:0:0:
405,371,121249,5,2,0:3:0:0:
302,89,121399,1,8,0:0:0:0:
302,89,121699,6,0,L|324:176,1,90,4|0,0:0|0:0,0:0:0:0:
236,367,121999,2,0,P|178:354|144:326,1,90,8|0,0:0|0:0,0:0:0:0:
202,155,122299,1,2,0:3:0:0:
153,336,122449,1,2,0:3:0:0:
97,128,122599,1,8,0:0:0:0:
125,232,122749,1,0,0:0:0:0:
185,53,122899,6,0,L|298:23,1,90,2|0,0:3|0:0,0:0:0:0:
384,198,123199,2,0,L|297:174,1,90,8|0,0:0|0:0,0:0:0:0:
125,232,123499,1,2,0:3:0:0:
297,279,123649,1,2,0:3:0:0:
99,336,123799,1,8,0:0:0:0:
324,384,123949,1,0,0:0:0:0:
99,336,124099,6,0,P|58:318|27:285,1,90,2|0,0:3|0:0,0:0:0:0:
180,66,124399,2,0,L|202:153,1,90,8|0,0:0|0:0,0:0:0:0:
297,279,124699,1,2,0:3:0:0:
126,231,124849,1,2,0:3:0:0:
297,279,124999,2,0,L|384:257,1,90,8|0,0:0|0:0,0:0:0:0:
341,84,125299,6,0,P|256:83|201:154,2,180,2|8|2,0:3|0:0|0:3,0:0:0:0:
488,228,126049,1,2,0:3:0:0:
297,172,126199,1,8,0:0:0:0:
429,40,126349,1,0,0:0:0:0:
392,230,126499,6,0,L|369:318,1,90,2|0,0:3|0:0,0:0:0:0:
201,152,126799,2,0,L|178:64,1,90,0|0,0:0|0:0,0:0:0:0:
101,141,127099,1,2,0:3:0:0:
297,172,127249,1,2,0:3:0:0:
128,246,127399,1,8,0:0:0:0:
178,64,127549,1,0,0:0:0:0:
233,273,127699,6,0,L|346:243,1,90,2|0,0:3|0:0,0:0:0:0:
101,141,127999,2,0,L|14:117,1,90,8|0,0:0|0:0,0:0:0:0:
128,246,128299,1,2,0:3:0:0:
178,64,128449,1,2,0:3:0:0:
128,246,128599,2,0,L|98:359,1,90,8|0,0:0|0:0,0:0:0:0:
286,382,128899,5,4,0:0:0:0:
245,231,129049,1,0,0:0:0:0:
427,281,129199,1,8,0:0:0:0:
184,369,129349,2,0,P|140:358|104:332,1,90,0|2,0:0|0:3,0:0:0:0:
350,204,129649,2,0,P|386:177|429:167,1,90,2|8,0:3|0:0,0:0:0:0:
479,349,129949,1,0,0:0:0:0:
256,282,130099,5,12,0:0:0:0:
429,167,130249,1,8,0:0:0:0:
278,378,130399,1,2,0:3:0:0:
235,366,130474,1,2,0:3:0:0:
191,355,130549,1,2,0:3:0:0:
148,343,130624,1,2,0:3:0:0:
104,332,130699,6,0,P|78:290|74:250,1,90,8|0,0:0|0:0,0:0:0:0:
301,115,130999,2,0,P|302:183|219:172,1,161.999995056153,12|0,0:0|3:0,0:0:0:0:
205,82,131299,5,4,0:0:0:0:
205,82,132199,2,0,L|118:60,1,90,8|0,0:0|3:0,0:0:0:0:
67,241,132499,5,2,0:3:0:0:
249,191,132649,2,0,P|293:197|331:221,1,90,8|0,0:0|3:0,0:0:0:0:
188,338,132949,2,0,L|143:163,1,180,4|2,0:0|0:3,0:0:0:0:
353,133,133399,2,0,L|331:220,1,90,8|0,0:0|3:0,0:0:0:0:
205,82,133699,6,0,P|242:58|287:51,1,90,4|0,0:0|3:0,0:0:0:0:
413,189,133999,2,0,P|375:212|330:219,1,90,8|0,0:0|3:0,0:0:0:0:
149,214,134299,2,0,P|186:190|231:183,1,90,2|0,3:0|3:0,0:0:0:0:
357,321,134599,2,0,P|319:344|274:351,1,90,8|0,0:0|3:0,0:0:0:0:
122,319,134899,5,2,3:0:0:0:
149,214,135049,1,0,3:0:0:0:
45,242,135199,1,8,0:0:0:0:
72,137,135349,1,0,3:0:0:0:
254,187,135499,5,2,3:0:0:0:
45,242,135649,1,2,3:0:0:0:
199,32,135799,1,8,0:0:0:0:
149,214,135949,1,2,3:0:0:0:
331,110,136099,5,0,1:0:0:0:
331,110,136849,1,2,3:3:0:0:
254,187,136999,2,0,L|276:274,1,90,8|0,0:0|3:0,0:0:0:0:
462,330,137299,5,2,0:3:0:0:
280,380,137449,2,0,P|236:374|198:350,1,90,8|0,0:0|3:0,0:0:0:0:
254,187,137749,2,0,L|429:142,1,180,4|2,0:0|0:3,0:0:0:0:
363,296,138199,2,0,L|275:273,1,90,8|0,0:0|3:0,0:0:0:0:
134,107,138499,6,0,P|110:144|103:189,1,90,4|0,0:0|3:0,0:0:0:0:
275,273,138799,2,0,P|298:235|305:190,1,90,8|0,0:0|3:0,0:0:0:0:
179,264,139099,2,0,P|185:308|209:346,1,90,2|0,3:0|3:0,0:0:0:0:
401,201,139399,2,0,P|394:156|370:118,1,90,8|0,1:0|3:0,0:0:0:0:
211,30,139699,5,2,3:0:0:0:
134,107,139849,1,0,3:0:0:0:
239,134,139999,1,8,1:0:0:0:
162,211,140149,1,0,3:0:0:0:
29,80,140299,5,2,3:0:0:0:
0,245,140449,1,2,3:0:0:0:
106,3,140599,1,8,1:0:0:0:
162,211,140749,1,2,3:0:0:0:
316,57,140899,6,0,L|447:23,1,135.000005149842,4|2,0:0|0:3,0:0:0:0:
292,244,141499,2,0,L|160:210,1,135.000005149842,8|2,0:0|0:3,0:0:0:0:
344,161,142099,1,2,0:3:0:0:
390,248,142249,2,0,L|373:313,1,67.5000025749208,8|2,0:0|0:3,0:0:0:0:
288,368,142549,1,0,0:0:0:0:
99,297,142699,2,0,P|66:302|38:319,1,67.5000025749208,8|0,0:0|0:0,0:0:0:0:
209,282,142999,2,0,P|226:253|231:220,1,67.5000025749208,2|0,0:3|0:0,0:0:0:0:
77,65,143299,6,0,L|43:197,1,135.000005149842,4|2,0:0|0:3,0:0:0:0:
198,350,143899,2,0,L|231:219,1,135.000005149842,8|2,0:0|0:3,0:0:0:0:
364,87,144499,1,2,0:3:0:0:
441,164,144649,2,0,P|485:155|510:134,1,67.5000025749208,8|0,0:0|0:0,0:0:0:0:
413,268,144949,1,0,0:0:0:0:
248,153,145099,2,0,L|231:218,1,67.5000025749208,8|0,0:0|0:0,0:0:0:0:
128,263,145399,2,0,L|145:328,1,67.5000025749208,2|0,0:3|0:0,0:0:0:0:
390,360,145699,5,2,0:3:0:0:
390,360,146599,2,0,P|339:353|316:337,1,67.5000025749208,8|0,0:0|3:0,0:0:0:0:
284,233,146899,5,2,0:3:0:0:
222,384,147049,1,8,0:0:0:0:
372,268,147199,1,0,0:0:0:0:
187,296,147349,2,0,P|138:251|148:143,1,180,4|0,0:0|0:0,0:0:0:0:
333,52,147799,1,8,0:0:0:0:
284,233,147949,1,2,0:3:0:0:
219,45,148099,5,8,0:0:0:0:
416,118,148249,1,2,0:3:0:0:
184,124,148399,5,8,0:0:0:0:
357,256,148549,1,2,0:3:0:0:
120,177,148699,5,8,0:0:0:0:
248,361,148849,1,2,0:3:0:0:
41,193,148999,5,8,0:0:0:0:
117,384,149149,1,2,0:3:0:0:
184,124,149299,5,8,0:0:0:0:
175,335,149449,1,2,0:3:0:0:
326,113,149599,5,8,0:0:0:0:
250,318,149749,1,2,0:3:0:0:
483,148,149899,5,8,0:0:0:0:
329,316,150049,1,2,0:3:0:0:
253,62,150199,6,0,L|166:40,1,90,8|0,0:0|0:0,0:0:0:0:
124,246,150499,5,4,0:0:0:0:
124,246,151099,5,4,0:0:0:0:
124,246,151699,6,0,L|37:224,1,90,4|0,0:0|3:0,0:0:0:0:
5,219,151924,1,2,0:3:0:0:
5,219,151999,1,2,0:3:0:0:
179,338,152149,1,8,0:0:0:0:
200,169,152299,2,0,P|255:98|354:99,1,180,2|12,0:3|0:0,0:0:0:0:
351,307,152899,6,0,P|304:262|304:196,2,135.000005149842,0|0|0,0:0|0:0|0:0,0:0:0:0:
455,279,153649,1,0,0:0:0:0:
428,384,153799,1,0,0:0:0:0:
455,279,153949,1,0,0:0:0:0:
304,195,154099,5,2,0:3:0:0:
259,189,154174,1,2,0:3:0:0:
219,208,154249,1,2,0:3:0:0:
194,245,154324,1,2,0:3:0:0:
170,283,154399,1,2,0:3:0:0:
130,302,154474,1,2,0:3:0:0:
85,296,154549,1,2,0:3:0:0:
50,268,154624,1,2,0:3:0:0:
47,246,154699,5,2,0:3:0:0:
43,223,154774,1,2,0:3:0:0:
41,201,154849,1,2,0:3:0:0:
37,179,154924,1,2,0:3:0:0:
33,157,154999,1,8,0:0:0:0:
30,134,155074,1,8,0:0:0:0:
27,112,155149,1,8,0:0:0:0:
23,89,155224,1,8,0:0:0:0:
19,67,155299,5,4,0:0:0:0:
163,215,155449,1,0,0:0:0:0:
307,54,155599,2,0,L|396:29,1,90,8|0,0:0|0:0,0:0:0:0:
376,253,155899,5,2,0:3:0:0:
232,105,156049,1,2,0:3:0:0:
88,266,156199,2,0,L|-1:290,1,90,8|0,0:0|0:0,0:0:0:0:
127,80,156499,5,2,0:3:0:0:
340,163,156649,1,0,0:0:0:0:
197,326,156799,1,8,0:0:0:0:
264,85,156949,1,0,0:0:0:0:
503,244,157099,5,2,0:3:0:0:
236,191,157249,1,2,0:3:0:0:
491,63,157399,1,8,0:0:0:0:
469,347,157549,1,0,0:0:0:0:
351,105,157699,6,0,L|250:83,1,90,2|0,0:3|0:0,0:0:0:0:
199,326,157999,2,0,L|300:304,1,90,8|0,0:0|0:0,0:0:0:0:
160,114,158299,1,2,0:3:0:0:
111,294,158449,1,2,0:3:0:0:
331,209,158599,1,8,0:0:0:0:
160,114,158749,1,0,0:0:0:0:
199,326,158899,5,2,0:3:0:0:
24,146,159049,1,0,0:0:0:0:
231,189,159199,2,0,L|143:208,1,90,8|0,0:0|0:0,0:0:0:0:
276,364,159499,5,2,0:3:0:0:
254,96,159649,1,2,0:3:0:0:
23,275,159799,2,0,L|111:294,1,90,8|0,0:0|0:0,0:0:0:0:
353,313,160099,5,4,0:0:0:0:
409,102,160249,1,0,0:0:0:0:
173,264,160399,1,8,0:0:0:0:
117,53,160549,1,0,0:0:0:0:
261,288,160699,5,2,0:3:0:0:
317,77,160849,1,2,0:3:0:0:
82,237,160999,1,8,0:0:0:0:
25,28,161149,1,0,0:0:0:0:
300,170,161299,5,12,0:0:0:0:
5,313,161449,1,8,0:0:0:0:
117,53,161599,1,8,0:0:0:0:
410,238,161749,1,12,0:0:0:0:
410,238,162049,5,12,0:0:0:0:
322,82,162199,1,2,0:3:0:0:
316,103,162274,1,2,0:3:0:0:
310,125,162349,1,2,0:3:0:0:
305,147,162424,1,2,0:3:0:0:
300,170,162499,6,0,L|213:147,1,90,12|2,0:0|0:3,0:0:0:0:
350,352,162799,2,0,L|437:329,1,90,8|2,0:0|0:3,0:0:0:0:
474,137,163099,1,8,0:0:0:0:
322,260,163249,1,2,0:3:0:0:
378,52,163399,1,8,0:0:0:0:
410,238,163549,1,2,0:3:0:0:
185,85,163699,5,8,0:0:0:0:
392,142,163849,1,2,0:3:0:0:
155,212,163999,5,8,0:0:0:0:
378,52,164149,1,2,0:3:0:0:
104,1,164299,5,8,0:0:0:0:
302,115,164449,1,2,0:3:0:0:
74,128,164599,5,8,0:0:0:0:
288,25,164749,1,2,0:3:0:0:
236,292,164899,5,8,0:0:0:0:
193,49,165049,1,2,0:3:0:0:
98,293,165199,5,8,0:0:0:0:
302,115,165349,1,2,0:3:0:0:
317,376,165499,5,8,0:0:0:0:
209,136,165649,1,2,0:3:0:0:
179,377,165799,5,8,0:0:0:0:
411,210,165949,1,2,0:3:0:0:
155,212,166099,5,8,0:0:0:0:
364,293,166249,1,2,0:3:0:0:
378,52,166399,1,8,0:0:0:0:
248,221,166549,1,2,0:3:0:0:
458,127,166699,5,8,0:0:0:0:
209,136,166849,1,2,0:3:0:0:
387,323,166999,1,8,0:0:0:0:
378,52,167149,1,2,0:3:0:0:
304,296,167299,6,0,P|219:311|158:245,1,180,4|8,0:0|0:0,0:0:0:0:
98,29,167749,2,0,L|75:116,1,90,2|0,0:3|0:0,0:0:0:0:
247,220,168049,2,0,L|225:133,1,90,2|0,0:3|0:0,0:0:0:0:
272,18,168349,1,8,0:0:0:0:
338,211,168499,6,0,B|452:241|452:241|513:215,1,180,4|8,0:0|0:0,0:0:0:0:
378,31,168949,2,0,P|354:68|348:112,1,90,2|0,0:3|0:0,0:0:0:0:
181,163,169249,2,0,P|208:198|247:219,1,90,2|0,0:3|0:0,0:0:0:0:
205,49,169549,1,8,0:0:0:0:
93,203,169699,6,0,L|47:377,1,180,4|8,0:0|0:0,0:0:0:0:
278,344,170149,2,0,L|255:257,1,90,2|0,0:3|0:0,0:0:0:0:
203,75,170449,2,0,L|181:162,1,90,2|0,0:3|0:0,0:0:0:0:
147,295,170749,1,8,0:0:0:0:
320,119,170899,6,0,P|407:109|466:173,1,180,4|8,0:0|0:0,0:0:0:0:
365,366,171349,2,0,L|277:343,1,90,2|0,0:3|0:0,0:0:0:0:
93,203,171649,2,0,L|181:180,1,90,2|0,0:3|0:0,0:0:0:0:
374,199,171949,1,8,0:0:0:0:
189,326,172099,5,6,0:3:0:0:
411,290,172399,2,0,L|488:243,1,90,0|0,0:0|0:0,0:0:0:0:
189,326,172699,5,6,0:3:0:0:
374,199,172999,2,0,L|424:123,1,90,0|0,0:0|0:0,0:0:0:0:
189,326,173299,5,6,0:3:0:0:
304,131,173599,2,0,L|318:41,1,90,0|0,0:0|0:0,0:0:0:0:
189,326,173899,5,6,0:3:0:0:
210,100,174199,2,0,L|185:12,1,90,0|0,0:0|0:0,0:0:0:0:
189,326,174499,5,6,0:3:0:0:
114,112,174799,2,0,L|54:43,1,90,0|0,0:0|0:0,0:0:0:0:
35,252,175099,5,6,0:3:0:0:
150,213,175249,1,0,0:0:0:0:
276,384,175399,1,8,0:0:0:0:
276,384,175699,5,8,0:0:0:0:
503,272,175849,1,2,0:3:0:0:
242,232,175999,5,8,0:0:0:0:
506,178,176149,1,2,0:3:0:0:
199,67,176299,5,8,0:0:0:0:
509,84,176449,1,2,0:3:0:0:
276,384,176599,1,8,0:0:0:0:
276,384,176899,6,0,L|301:289,1,90,4|0,0:0|0:0,0:0:0:0:
135,156,177199,2,0,P|140:200|160:240,1,90,8|0,0:0|0:0,0:0:0:0:
328,191,177499,1,2,0:3:0:0:
328,191,177649,1,2,0:3:0:0:
189,337,177799,2,0,L|94:312,1,90,8|0,0:0|0:0,0:0:0:0:
135,156,178099,6,0,L|221:131,1,90,2|0,0:3|0:0,0:0:0:0:
384,320,178399,2,0,L|297:295,1,90,8|0,0:0|0:0,0:0:0:0:
358,86,178699,1,2,0:3:0:0:
358,86,178849,1,2,0:3:0:0:
455,255,178999,2,0,P|475:294|477:339,1,90,8|0,0:0|0:0,0:0:0:0:
198,215,179299,6,0,P|200:170|220:130,1,90,2|0,0:3|0:0,0:0:0:0:
297,295,179599,2,0,P|294:339|274:379,1,90,8|0,0:0|0:0,0:0:0:0:
114,305,179899,1,2,0:3:0:0:
114,305,180049,1,2,0:3:0:0:
299,197,180199,2,0,L|385:172,1,90,8|0,0:0|0:0,0:0:0:0:
189,39,180499,6,0,P|104:38|49:109,2,180,2|8|2,0:3|0:0|0:3,0:0:0:0:
299,197,181249,1,2,0:3:0:0:
402,8,181399,1,8,0:0:0:0:
220,130,181549,1,0,0:0:0:0:
370,274,181699,6,0,L|465:249,1,90,2|0,0:3|0:0,0:0:0:0:
201,231,181999,2,0,L|113:253,1,90,8|0,0:0|0:0,0:0:0:0:
305,368,182299,1,2,0:3:0:0:
305,368,182449,1,2,0:3:0:0:
397,172,182599,2,0,P|391:127|371:87,1,90,8|0,0:0|0:0,0:0:0:0:
149,39,182899,6,0,L|171:126,1,90,2|0,0:3|0:0,0:0:0:0:
305,368,183199,2,0,L|282:280,1,90,8|0,0:0|0:0,0:0:0:0:
273,107,183499,1,2,0:3:0:0:
273,107,183649,1,2,0:3:0:0:
113,253,183799,2,0,P|68:247|28:227,1,90,8|0,0:0|0:0,0:0:0:0:
149,39,184099,5,12,0:0:0:0:
237,199,184249,1,2,0:3:0:0:
251,21,184399,5,8,0:0:0:0:
315,208,184549,1,2,0:3:0:0:
363,21,184699,5,8,0:0:0:0:
396,232,184849,1,2,0:3:0:0:
482,42,184999,5,8,0:0:0:0:
477,272,185149,1,2,0:3:0:0:
273,117,185299,5,8,0:0:0:0:
509,126,185449,1,2,0:3:0:0:
237,199,185599,5,8,0:0:0:0:
477,272,185749,1,2,0:3:0:0:
148,202,185899,5,8,0:0:0:0:
331,383,186049,1,2,0:3:0:0:
70,138,186199,5,8,0:0:0:0:
172,384,186349,1,2,0:3:0:0:
172,57,186499,5,8,0:0:0:0:
79,315,186649,1,2,0:3:0:0:
313,106,186799,5,8,0:0:0:0:
371,372,186949,1,2,0:3:0:0:
246,217,187099,5,8,0:0:0:0:
199,198,187174,1,0,0:0:0:0:
149,200,187249,1,2,0:3:0:0:
105,224,187324,1,2,0:3:0:0:
75,264,187399,2,0,L|64:321,1,45,8|0,0:0|0:0,0:0:0:0:
255,375,187549,2,0,L|246:330,1,45,2|0,0:3|0:0,0:0:0:0:
34,99,187699,5,8,0:0:0:0:
156,358,187849,1,2,0:3:0:0:
391,166,187999,5,8,0:0:0:0:
75,264,188149,1,2,0:3:0:0:
427,313,188299,5,8,0:0:0:0:
292,20,188449,1,2,0:3:0:0:
5,191,188599,1,12,0:0:0:0:
