osu file format v14

[General]
AudioFilename: Ready!!!.mp3
AudioLeadIn: 2000
PreviewTime: 58035
Countdown: 0
SampleSet: Soft
StackLeniency: 0.7
Mode: 0
LetterboxInBreaks: 0
WidescreenStoryboard: 0

[Editor]
Bookmarks: 8289,16220,33979,57082,58634,79841
DistanceSpacing: 1
BeatDivisor: 4
GridSize: 4
TimelineZoom: 2.4

[Metadata]
Title:READY!!(TV SIZE)
TitleUnicode:READY!!(TV SIZE)
Artist:765PRO ALLSTARS
ArtistUnicode:765PRO ALLSTARS
Creator:pinataman
Version:Normal
Source:アイドルマスター
Tags:opening op iDOLM@STER idolmaster Amami Haruka Hoshii Miki Kisaragi Chihaya Hagiwara Yukiho Kikuchi Makoto Futami Ami Mami Minase Iori Takatsuki Yayoi Ganaha Hibiki Miura Azusa Shijou Takane Yabuki Kana Mochizuki Anna Hakozaki Serika Satake Minako Kitazawa Shiho Nanao Yuriko Yokoyama Nao Nakamura Eriko Hasegawa Akiko Imai Asami Asakura Azumi Hirata Hiromi Shimoda Kugimiya Rie Nigo Mayako Numakura Manami Takahashi Chiaki Hara Yumi HeyItsSins
BeatmapID:1257285
BeatmapSetID:573160

[Difficulty]
HPDrainRate:4
CircleSize:3.2
OverallDifficulty:4
ApproachRate:4.8
SliderMultiplier:1.1
SliderTickRate:1

[Events]
//Background and Video events
Video,0,"imop.avi"
0,0,"bg1.jpg",0,0
//Break Periods
//Storyboard Layer 0 (Background)
//Storyboard Layer 1 (Fail)
//Storyboard Layer 2 (Pass)
//Storyboard Layer 3 (Foreground)
//Storyboard Sound Samples

[TimingPoints]
186,344.827586206897,4,2,1,50,1,0
9841,-100,4,2,1,60,0,0
11220,-100,4,2,1,80,0,0
22599,-100,4,2,1,60,0,0
30530,-100,4,2,1,80,0,0
33289,-100,4,2,1,70,0,0
44323,-100,4,2,1,60,0,0
49841,-100,4,2,1,80,0,0
58117,-100,4,2,1,90,0,1
78806,-100,4,2,1,80,0,0
88634,-100,4,2,1,20,0,0

[Colours]
Combo1 : 255,255,98
Combo2 : 109,152,252
Combo3 : 255,94,174

[HitObjects]
112,66,186,6,0,P|148:139|216:182,1,165,2|0,0:0|0:0,0:0:0:0:
271,192,875,1,2,0:0:0:0:
435,183,1392,2,0,P|434:238|407:285,1,110,2|0,0:0|0:0,0:0:0:0:
357,308,1910,1,2,0:0:0:0:
246,299,2254,1,2,0:0:0:0:
141,105,2944,6,0,P|114:152|114:206,1,110,2|0,0:0|0:0,0:0:0:0:
146,252,3462,1,2,0:0:0:0:
65,326,3806,1,2,0:0:0:0:
25,223,4151,2,0,P|24:139|72:49,1,165,2|0,0:0|0:0,0:0:0:0:
154,14,5013,1,2,0:0:0:0:
220,101,5358,1,2,0:0:0:0:
316,48,5703,6,0,B|349:91|349:91|316:321,1,275,2|2,0:0|0:0,0:0:0:0:
231,378,6910,2,0,B|198:335|198:335|229:116|229:116|189:64,1,330,2|2,0:0|0:0,0:0:0:0:
97,23,8289,5,2,0:0:0:0:
84,241,8979,2,0,L|380:198,1,275,2|0,0:0|0:0,0:0:0:0:
441,133,10186,1,2,0:0:0:0:
374,46,10530,1,2,0:0:0:0:
288,114,10875,1,2,0:0:0:0:
356,201,11220,6,0,P|355:255|328:302,1,110,4|10,0:0|0:0,0:0:0:0:
221,328,11910,2,0,P|221:273|248:226,1,110,2|8,0:0|0:0,0:0:0:0:
274,177,12427,2,0,L|226:49,1,110,2|0,0:0|0:0,0:0:0:0:
191,41,12944,1,8,0:0:0:0:
96,98,13289,2,0,L|76:46,2,55,2|0|8,0:0|0:0|0:0,0:0:0:0:
137,134,13806,6,0,B|176:237|176:237|164:302,1,165,2|8,0:0|0:0,0:0:0:0:
200,332,14496,2,0,B|252:346|252:346|304:326|304:326|334:280,1,165,2|8,0:0|0:0,0:0:0:0:
332,227,15186,2,0,B|288:193|288:193|248:90,1,165,2|8,0:0|0:0,0:0:0:0:
229,39,15875,1,2,0:0:0:0:
160,124,16220,2,0,L|58:85,1,110,2|2,0:0|0:0,0:0:0:0:
13,117,16737,6,0,P|13:171|40:218,1,110,4|10,0:0|0:0,0:0:0:0:
121,294,17427,2,0,P|172:312|225:303,1,110,2|8,0:0|0:0,0:0:0:0:
276,280,17944,2,0,P|330:281|377:308,1,110,2|0,0:0|0:0,0:0:0:0:
418,345,18461,1,8,0:0:0:0:
487,259,18806,2,0,L|506:206,2,55,2|0|8,0:0|0:0|0:0,0:0:0:0:
437,234,19323,6,0,P|366:191|285:180,1,165,2|8,0:0|0:0,0:0:0:0:
275,126,20014,2,0,P|346:86|396:21,1,165,2|8,0:0|0:0,0:0:0:0:
447,38,20703,2,0,P|445:119|476:195,1,165,2|8,0:0|0:0,0:0:0:0:
491,249,21392,1,2,0:0:0:0:
452,352,21737,1,2,0:0:0:0:
384,266,22082,6,0,P|305:243|224:253,1,165,4|8,0:0|0:0,0:0:0:0:
139,324,22944,1,0,0:0:0:0:
242,361,23289,1,8,0:0:0:0:
352,366,23634,2,0,P|408:364|462:344,1,110,0|8,0:0|0:0,0:0:0:0:
492,241,24323,2,0,L|498:186,2,55,0|0|8,0:0|0:0|0:0,0:0:0:0:
390,283,25013,6,0,P|334:281|280:261,1,110,0|8,0:0|0:0,0:0:0:0:
204,186,25703,2,0,L|198:131,2,55,0|0|8,0:0|0:0|0:0,0:0:0:0:
178,293,26392,1,2,0:0:0:0:
98,216,26737,1,10,0:0:0:0:
110,106,27082,2,0,L|116:51,1,55
158,16,27427,2,0,P|209:32|264:32,1,110,8|0,0:0|0:0,0:0:0:0:
374,48,28117,6,0,P|409:90|430:140,1,110,8|0,0:0|0:0,0:0:0:0:
421,250,28806,1,8,0:0:0:0:
331,186,29151,2,0,L|221:174,1,110,0|8,0:0|0:0,0:0:0:0:
140,99,29841,2,0,L|250:87,1,110,0|8,0:0|0:0,0:0:0:0:
328,10,30530,6,0,P|352:66|383:110,1,110,4|2,0:0|0:0,0:0:0:0:
490,108,31220,2,0,P|466:158|433:202,1,110,4|2,0:0|0:0,0:0:0:0:
321,205,31910,1,4,0:0:0:0:
380,107,32254,1,0,0:0:0:0:
380,107,32427,2,0,P|350:61|301:37,2,110,4|4|0,0:0|0:0|0:0,0:0:0:0:
399,158,33289,5,4,0:0:0:0:
352,257,33634,1,8,0:0:0:0:
269,185,33979,2,0,L|287:132,2,55,0|0|8,0:0|0:0|0:0,0:0:0:0:
187,257,34668,1,0,0:0:0:0:
94,202,35013,1,8,0:0:0:0:
104,93,35358,2,0,L|139:51,2,55,0|0|8,0:0|0:0|0:0,0:0:0:0:
18,163,36048,6,0,P|10:216|36:264,1,110,0|8,0:0|0:0,0:0:0:0:
141,229,36737,2,0,L|94:202,2,55,0|0|8,0:0|0:0|0:0,0:0:0:0:
238,283,37427,1,0,0:0:0:0:
339,239,37772,1,8,0:0:0:0:
436,292,38117,2,0,L|483:319,2,55,0|0|8,0:0|0:0|0:0,0:0:0:0:
335,336,38806,6,0,L|238:282,1,110,0|8,0:0|0:0,0:0:0:0:
137,239,39496,1,0,0:0:0:0:
225,173,39840,1,8,0:0:0:0:
124,129,40186,2,0,L|212:63,1,110,0|8,0:0|0:0,0:0:0:0:
319,38,40875,1,0,0:0:0:0:
393,119,41220,1,8,0:0:0:0:
350,220,41565,6,0,P|403:228|454:209,1,110,0|8,0:0|0:0,0:0:0:0:
512,116,42254,1,0,0:0:0:0:
435,45,42599,1,8,0:0:0:0:
435,45,42772,2,0,P|392:79|338:87,1,110
289,63,43289,2,0,L|301:7,2,55,8|0|0,0:0|0:0|0:0,0:0:0:0:
221,150,43979,1,8,0:0:0:0:
282,238,44323,6,0,B|294:292|294:292|263:337,1,110,4|0,0:0|0:0,0:0:0:0:
209,350,44841,2,0,B|159:333|159:333|137:224,1,165,2|8,0:0|0:0,0:0:0:0:
170,120,45703,2,0,B|63:142,1,110,2|0,0:0|0:0,0:0:0:0:
34,189,46220,2,0,B|66:350,1,165,2|8,0:0|0:0,0:0:0:0:
176,340,47082,6,0,B|229:326|229:326|267:253,1,110,2|0,0:0|0:0,0:0:0:0:
307,262,47599,2,0,B|349:295|349:295|458:276,1,165,2|8,0:0|0:0,0:0:0:0:
495,172,48461,2,0,B|387:193,1,110,2|0,0:0|0:0,0:0:0:0:
340,163,48979,2,0,B|286:149|286:149|241:181,1,110,2|0,0:0|0:0,0:0:0:0:
205,223,49496,1,8,0:0:0:0:
307,262,49841,5,4,0:0:0:0:
216,324,50186,1,8,0:0:0:0:
113,286,50530,2,0,P|98:257|95:221,1,55
110,182,50875,2,0,P|104:155|91:131,1,55,8|0,0:0|0:0,0:0:0:0:
52,91,51220,1,4,0:0:0:0:
128,12,51565,1,8,0:0:0:0:
230,54,51910,2,0,P|256:48|280:35,1,55
328,62,52254,2,0,P|341:85|346:112,1,55,8|0,0:0|0:0,0:0:0:0:
343,168,52600,5,4,0:0:0:0:
267,247,52944,2,0,P|315:274|369:274,1,110,10|2,0:0|0:0,0:0:0:0:
465,220,53634,1,10,0:0:0:0:
465,331,53979,2,0,L|338:374,1,110,2|8,0:0|0:0,0:0:0:0:
305,371,54496,1,2,0:0:0:0:
204,327,54841,1,2,0:0:0:0:
195,221,55186,1,2,0:0:0:0:
195,221,55358,6,2,P|49:128|139:52,1,330,2|0,0:0|0:0,0:0:0:0:
229,40,56737,1,2,0:0:0:0:
276,146,57082,1,2,0:0:0:0:
276,146,57254,2,0,P|332:137|373:97,1,110,2|2,0:0|0:0,0:0:0:0:
410,64,57771,1,8,0:0:0:0:
421,175,58117,6,0,P|416:223|395:293,1,110,4|8,0:0|0:0,0:0:0:0:
362,322,58634,1,0,0:0:0:0:
362,322,58806,2,0,P|310:302|256:291,1,110,2|8,0:0|0:0,0:0:0:0:
235,238,59323,2,0,P|266:192|289:143,1,110,2|0,0:0|0:0,0:0:0:0:
272,90,59841,2,0,P|250:76|221:68,1,55,10|0,0:0|0:0,0:0:0:0:
170,88,60186,2,0,P|148:138|136:192,1,110,2|8,0:0|0:0,0:0:0:0:
43,252,60875,6,0,P|36:197|20:144,1,110,2|8,0:0|0:0,0:0:0:0:
4,92,61392,1,2,0:0:0:0:
102,42,61737,1,2,0:0:0:0:
152,141,62082,2,0,P|207:184|302:222,1,165,2|8,0:0|0:0,0:0:0:0:
381,287,62944,2,0,L|328:306,1,55,2|0,0:0|0:0,0:0:0:0:
274,311,63289,2,0,L|221:291,1,55,10|0,0:0|0:0,0:0:0:0:
170,269,63634,6,0,P|119:252|67:266,1,110,2|8,0:0|0:0,0:0:0:0:
6,353,64323,1,2,0:0:0:0:
116,358,64668,1,10,0:0:0:0:
225,362,65013,2,0,P|264:323|277:270,1,110,2|8,0:0|0:0,0:0:0:0:
171,270,65703,1,2,0:0:0:0:
167,160,66048,2,0,P|177:137|196:113,1,55,8|0,0:0|0:0,0:0:0:0:
238,80,66392,5,2,0:0:0:0:
339,32,66737,1,8,0:0:0:0:
431,95,67082,1,2,0:0:0:0:
421,207,67427,1,8,0:0:0:0:
329,144,67772,2,0,L|270:173,1,55,2|0,0:0|0:0,0:0:0:0:
227,187,68117,2,0,L|175:171,1,55,10|0,0:0|0:0,0:0:0:0:
121,156,68461,1,2,0:0:0:0:
134,46,68806,1,10,0:0:0:0:
242,62,69151,6,0,P|297:60|351:49,1,110,4|8,0:0|0:0,0:0:0:0:
390,95,69668,1,0,0:0:0:0:
390,95,69841,2,0,P|365:145|351:197,1,110,2|8,0:0|0:0,0:0:0:0:
350,252,70358,2,0,P|294:259|243:276,1,110,2|0,0:0|0:0,0:0:0:0:
197,306,70875,2,0,P|172:308|141:304,1,55,10|0,0:0|0:0,0:0:0:0:
91,283,71220,2,0,P|114:232|128:180,1,110,2|8,0:0|0:0,0:0:0:0:
112,70,71910,6,0,P|164:86|218:95,1,110,2|8,0:0|0:0,0:0:0:0:
273,85,72427,1,2,0:0:0:0:
372,133,72772,1,2,0:0:0:0:
473,87,73117,2,0,P|416:29|335:28,1,165,2|8,0:0|0:0,0:0:0:0:
262,110,73979,2,0,L|246:162,1,55,2|0,0:0|0:0,0:0:0:0:
273,210,74323,2,0,L|257:262,1,55,10|0,0:0|0:0,0:0:0:0:
212,293,74668,6,0,P|155:270|126:227,2,110,2|8|0,0:0|0:0|0:0,0:0:0:0:
259,319,75530,2,0,P|259:347|249:372,2,55,2|8|2,0:0|0:0|0:0,0:0:0:0:
273,210,76220,2,0,P|273:182|283:157,2,55,2|8|2,0:0|0:0|0:0,0:0:0:0:
361,275,76910,1,2,0:0:0:0:
393,169,77254,6,0,P|374:91|306:48,1,165,2|8,0:0|0:0,0:0:0:0:
251,49,77944,1,2,0:0:0:0:
148,89,78289,2,0,L|132:37,2,55,2|2|2,0:0|0:0|0:0,0:0:0:0:
165,141,78806,5,4,0:0:0:0:
480,38,79841,1,2,0:0:0:0:
488,148,80186,6,0,P|471:199|433:237,1,110,4|10,0:0|0:0,0:0:0:0:
324,230,80875,2,0,P|292:184|288:128,1,110,2|8,0:0|0:0,0:0:0:0:
252,89,81392,2,0,P|198:104|163:146,1,110,2|0,0:0|0:0,0:0:0:0:
157,199,81910,1,8,0:0:0:0:
245,265,82255,2,0,L|262:317,2,55,2|0|8,0:0|0:0|0:0,0:0:0:0:
267,214,82772,6,0,B|267:216|264:220|269:181|319:152|353:119|332:71,1,165,2|8,0:0|0:0,0:0:0:0:
298,30,83461,2,0,B|268:19|240:32|229:58|229:58|210:36|181:32|154:48,1,165,2|8,0:0|0:0,0:0:0:0:
134,101,84151,2,0,B|127:152|168:174|225:188|237:216,1,165,2|8,0:0|0:0,0:0:0:0:
259,269,84841,1,2,0:0:0:0:
188,353,85186,1,2,0:0:0:0:
295,373,85530,1,2,0:0:0:0:
256,192,86048,12,0,88634,0:0:0:0:
