osu file format v14

[General]
AudioFilename: Ready!!!.mp3
AudioLeadIn: 2000
PreviewTime: 58035
Countdown: 0
SampleSet: Soft
StackLeniency: 0.7
Mode: 0
LetterboxInBreaks: 0
WidescreenStoryboard: 0

[Editor]
Bookmarks: 4841,10013,27082,65703
DistanceSpacing: 1.4
BeatDivisor: 4
GridSize: 4
TimelineZoom: 2.4

[Metadata]
Title:READY!!(TV SIZE)
TitleUnicode:READY!!(TV SIZE)
Artist:765PRO ALLSTARS
ArtistUnicode:765PRO ALLSTARS
Creator:pinataman
Version:Insane
Source:アイドルマスター
Tags:opening op iDOLM@STER idolmaster Amami Haruka Hoshii Miki Kisaragi Chihaya Hagiwara Yukiho Kikuchi Makoto Futami Ami Mami Minase Iori Takatsuki Yayoi Ganaha Hibiki Miura Azusa Shijou Takane Yabuki Kana Mochizuki Anna Hakozaki Serika Satake Minako Kitazawa Shiho Nanao Yuriko Yokoyama Nao Nakamura Eriko Hasegawa Akiko Imai Asami Asakura Azumi Hirata Hiromi Shimoda Kugimiya Rie Nigo Mayako Numakura Manami Takahashi Chiaki Hara Yumi HeyItsSins
BeatmapID:1250396
BeatmapSetID:573160

[Difficulty]
HPDrainRate:6
CircleSize:4
OverallDifficulty:8
ApproachRate:9
SliderMultiplier:1.7
SliderTickRate:1

[Events]
//Background and Video events
Video,0,"imop.avi"
0,0,"bg1.jpg",0,0
//Break Periods
//Storyboard Layer 0 (Background)
//Storyboard Layer 1 (Fail)
//Storyboard Layer 2 (Pass)
//Storyboard Layer 3 (Foreground)
//Storyboard Sound Samples

[TimingPoints]
186,344.827586206897,4,2,1,50,1,0
186,-133.333333333333,4,2,1,50,0,0
9841,-133.333333333333,4,2,1,60,0,0
11220,-100,4,2,1,80,0,0
22599,-111.111111111111,4,2,1,60,0,0
30530,-83.3333333333333,4,2,1,80,0,0
30875,-133.333333333333,4,2,1,80,0,0
31220,-83.3333333333333,4,2,1,80,0,0
31565,-133.333333333333,4,2,1,80,0,0
31910,-90.9090909090909,4,2,1,80,0,0
32254,-100,4,2,1,80,0,0
33289,-100,4,2,1,70,0,0
44323,-111.111111111111,4,2,1,60,0,0
49841,-100,4,2,1,80,0,0
57772,-90.9090909090909,4,2,1,80,0,0
58117,-90.9090909090909,4,2,1,90,0,1
78806,-100,4,2,1,90,0,0
80186,-100,4,2,1,80,0,0
88634,-100,4,2,1,20,0,0

[Colours]
Combo1 : 255,255,98
Combo2 : 109,152,252
Combo3 : 255,94,174

[HitObjects]
489,80,186,6,0,P|446:126|384:135,1,127.500004863739,2|0,0:0|0:0,0:0:0:0:
312,74,703,1,2,0:0:0:0:
295,168,875,2,0,L|317:294,1,127.500004863739,2|0,0:0|0:0,0:0:0:0:
239,349,1392,6,0,L|216:222,1,127.500004863739,2|0,0:0|0:0,0:0:0:0:
208,127,1910,1,2,0:0:0:0:
129,181,2082,1,0,0:0:0:0:
119,86,2254,2,0,P|161:40|223:30,1,127.500004863739,2|0,0:0|0:0,0:0:0:0:
373,142,2944,6,0,P|311:156|272:204,1,127.500004863739,2|0,0:0|0:0,0:0:0:0:
354,296,3461,2,0,P|361:265|360:233,1,63.7500024318696,2|0,0:0|0:0,0:0:0:0:
189,164,3806,2,0,P|181:194|182:226,1,63.7500024318696,2|0,0:0|0:0,0:0:0:0:
258,292,4151,6,0,B|279:198|279:198|261:105,1,191.250007295609,2|0,0:0|0:0,0:0:0:0:
246,19,4841,1,0,0:0:0:0:
343,133,5013,1,2,0:0:0:0:
330,45,5186,1,0,0:0:0:0:
277,191,5359,1,2,0:0:0:0:
261,105,5531,1,0,0:0:0:0:
220,259,5703,6,0,B|190:334|223:381|223:381|275:359|291:279,1,255.000009727478,2|0,0:0|0:0,0:0:0:0:
276,191,6565,1,2,0:0:0:0:
363,217,6737,1,0,0:0:0:0:
344,128,6910,6,0,B|281:48|211:53|211:53|201:123|277:192,1,318.750012159348,2|0,0:0|0:0,0:0:0:0:
270,288,7944,1,2,0:0:0:0:
179,322,8117,1,0,0:0:0:0:
105,177,8289,6,0,P|193:149|276:191,1,191.250007295609,2|0,0:0|0:0,0:0:0:0:
179,322,8979,2,0,L|206:4,1,318.750012159348,2|0,0:0|0:0,0:0:0:0:
359,59,10013,5,2,0:0:0:0:
271,154,10186,1,2,0:0:0:0:
349,208,10358,1,0,0:0:0:0:
363,63,10530,1,2,0:0:0:0:
408,143,10703,1,0,0:0:0:0:
275,60,10875,1,2,0:0:0:0:
412,147,11048,1,0,0:0:0:0:
236,136,11220,6,0,L|151:129,1,85,4|0,0:0|0:0,0:0:0:0:
86,250,11565,2,0,L|170:243,1,85,10|0,0:0|0:0,0:0:0:0:
291,249,11910,1,2,0:0:0:0:
347,356,12082,1,2,0:0:0:0:
410,255,12254,1,8,0:0:0:0:
226,347,12427,6,0,P|147:319|91:256,1,170,2|0,0:0|0:0,0:0:0:0:
74,138,12944,2,0,P|98:103|133:79,1,85,8|0,0:0|0:0,0:0:0:0:
253,197,13289,1,2,0:0:0:0:
244,78,13461,1,2,0:0:0:0:
164,167,13634,1,8,0:0:0:0:
309,280,13806,6,0,P|393:259|443:187,1,170,2|0,0:0|0:0,0:0:0:0:
448,76,14323,1,8,0:0:0:0:
308,201,14496,2,0,P|224:196|162:141,1,170,2|0,0:0|0:0,0:0:0:0:
146,22,15013,1,8,0:0:0:0:
359,106,15186,6,0,B|389:213|389:213|350:283,1,170,2|0,0:0|0:0,0:0:0:0:
279,372,15703,1,8,0:0:0:0:
233,233,15875,2,0,L|209:151,1,85,2|0,0:0|0:0,0:0:0:0:
89,149,16220,2,0,L|65:67,1,85,2|8,0:0|0:0,0:0:0:0:
26,199,16565,1,2,0:0:0:0:
152,99,16737,6,0,L|175:17,1,85,4|0,0:0|0:0,0:0:0:0:
294,8,17082,2,0,L|271:88,1,85,10|0,0:0|0:0,0:0:0:0:
239,204,17427,1,2,0:0:0:0:
357,222,17599,1,2,0:0:0:0:
281,315,17771,1,8,0:0:0:0:
313,109,17944,6,0,P|396:108|461:163,1,170,2|0,0:0|0:0,0:0:0:0:
489,279,18461,2,0,L|405:286,1,85,10|0,0:0|0:0,0:0:0:0:
251,275,18806,1,2,0:0:0:0:
357,222,18978,1,2,0:0:0:0:
298,339,19151,1,8,0:0:0:0:
230,160,19323,6,0,P|157:117|75:130,1,170,2|0,0:0|0:0,0:0:0:0:
134,233,19841,1,8,0:0:0:0:
258,42,20013,2,0,P|325:89|345:170,1,170,2|0,0:0|0:0,0:0:0:0:
230,160,20531,1,8,0:0:0:0:
448,228,20703,6,0,P|466:309|428:383,1,170,2|0,0:0|0:0,0:0:0:0:
348,294,21220,1,8,0:0:0:0:
364,141,21393,2,0,L|371:56,1,85,2|0,0:0|0:0,0:0:0:0:
259,17,21737,2,0,L|266:101,1,85,2|8,0:0|0:0,0:0:0:0:
203,254,22082,2,0,L|159:89,1,170,4|0,0:0|0:0,0:0:0:0:
83,35,22599,6,0,P|68:71|68:109,1,76.4999976654053,8|0,0:0|0:0,0:0:0:0:
97,220,22944,1,0,0:0:0:0:
2,179,23117,1,0,0:0:0:0:
98,231,23289,1,8,0:0:0:0:
158,144,23461,1,0,0:0:0:0:
149,299,23634,6,0,P|113:313|75:313,1,76.4999976654053,0|0,0:0|0:0,0:0:0:0:
24,245,23979,2,0,P|59:230|97:230,1,76.4999976654053,8|0,0:0|0:0,0:0:0:0:
188,225,24323,1,0,0:0:0:0:
251,291,24496,1,0,0:0:0:0:
342,281,24668,2,0,P|380:281|415:266,1,76.4999976654053,8|0,0:0|0:0,0:0:0:0:
413,129,25013,6,0,P|396:163|367:186,1,76.4999976654053,0|0,0:0|0:0,0:0:0:0:
274,218,25358,2,0,P|254:250|250:288,1,76.4999976654053,8|0,0:0|0:0,0:0:0:0:
302,364,25702,1,0,0:0:0:0:
342,281,25875,1,0,0:0:0:0:
274,218,26048,2,0,P|236:218|201:233,1,76.4999976654053,8|0,0:0|0:0,0:0:0:0:
54,164,26392,6,0,P|92:164|127:179,1,76.4999976654053,2|0,0:0|0:0,0:0:0:0:
201,232,26737,1,10,0:0:0:0:
213,140,26910,1,2,0:0:0:0:
141,83,27082,1,0,0:0:0:0:
225,48,27255,1,0,0:0:0:0:
317,115,27427,2,0,L|310:191,1,76.4999976654053,8|0,0:0|0:0,0:0:0:0:
344,276,27772,6,0,L|420:282,1,76.4999976654053,0|0,0:0|0:0,0:0:0:0:
503,162,28117,2,0,L|426:168,1,76.4999976654053,8|0,0:0|0:0,0:0:0:0:
344,276,28461,2,0,L|267:270,1,76.4999976654053,0|0,0:0|0:0,0:0:0:0:
177,168,28806,2,0,L|100:174,1,76.4999976654053,8|0,0:0|0:0,0:0:0:0:
261,346,29151,6,0,L|267:269,1,76.4999976654053,0|0,0:0|0:0,0:0:0:0:
177,168,29496,2,0,L|183:245,1,76.4999976654053,8|0,0:0|0:0,0:0:0:0:
350,149,29841,2,0,L|310:82,1,76.4999976654053,0|0,0:0|0:0,0:0:0:0:
181,44,30186,2,0,L|229:103,1,76.4999976654053,8|0,0:0|0:0,0:0:0:0:
447,11,30530,6,0,B|428:84|428:84|441:118|420:164,1,152.999995330811,4|0,0:0|0:0,0:0:0:0:
374,152,30875,2,0,L|339:98,1,63.7500024318696,2|0,0:0|0:0,0:0:0:0:
151,142,31220,6,0,B|169:215|169:215|156:249|177:295,1,152.999995330811,4|0,0:0|0:0,0:0:0:0:
224,283,31565,2,0,L|258:228,1,63.7500024318696,2|0,0:0|0:0,0:0:0:0:
64,60,31910,6,0,L|79:187,1,93.5000028533936,4|0,0:0|0:0,0:0:0:0:
165,230,32254,1,0,0:0:0:0:
319,182,32427,2,0,P|284:158|242:154,1,85,4|0,0:0|0:0,0:0:0:0:
86,234,32772,2,0,P|44:230|9:206,1,85,4|0,0:0|0:0,0:0:0:0:
64,60,33117,1,0,3:0:0:0:
64,60,33203,1,0,3:0:0:0:
64,60,33289,6,0,L|73:144,1,85,4|0,3:2|0:0,0:0:0:0:
158,310,33634,2,0,L|168:217,1,85,8|0,0:0|0:0,0:0:0:0:
182,110,33979,1,0,0:0:0:0:
76,150,34151,1,0,0:0:0:0:
96,33,34323,1,8,0:0:0:0:
186,114,34496,1,0,0:0:0:0:
322,96,34668,6,0,P|343:59|347:17,1,85
210,34,35013,2,0,P|189:71|185:113,1,85,8|0,0:0|0:0,0:0:0:0:
178,232,35358,1,0,0:0:0:0:
284,179,35530,1,0,0:0:0:0:
276,299,35703,2,0,P|271:341|251:377,1,85,8|0,0:0|0:0,0:0:0:0:
93,241,36048,6,0,L|185:230,1,85
258,143,36392,2,0,L|173:152,1,85,8|0,0:0|0:0,0:0:0:0:
55,132,36737,1,0,0:0:0:0:
163,78,36910,1,0,0:0:0:0:
177,230,37082,1,8,0:0:0:0:
163,78,37254,6,0,B|206:67|236:101|236:101|267:137|312:126,1,170
409,49,37772,2,0,P|438:80|455:119,1,85,8|0,0:0|0:0,0:0:0:0:
504,230,38117,1,0,0:0:0:0:
386,215,38289,1,0,0:0:0:0:
371,333,38461,1,8,0:0:0:0:
489,348,38633,1,0,0:0:0:0:
346,182,38806,6,0,L|323:268,1,85
257,362,39151,2,0,L|235:279,1,85,8|0,0:0|0:0,0:0:0:0:
235,165,39495,1,0,0:0:0:0:
235,165,39668,1,0,0:0:0:0:
324,264,39841,2,0,L|345:181,1,85,8|0,0:0|0:0,0:0:0:0:
334,67,40185,5,0,0:0:0:0:
334,67,40358,1,0,0:0:0:0:
208,142,40530,2,0,L|125:163,1,85,8|0,0:0|0:0,0:0:0:0:
11,158,40874,1,0,0:0:0:0:
11,158,41047,1,0,0:0:0:0:
110,257,41220,2,0,L|192:235,1,85,8|0,0:0|0:0,0:0:0:0:
351,220,41565,6,0,P|389:238|416:269,1,85,0|0,0:0|0:0,0:0:0:0:
345,365,41910,2,0,P|306:346|279:315,1,85,8|0,0:0|0:0,0:0:0:0:
232,206,42254,1,0,0:0:0:0:
351,220,42427,1,0,0:0:0:0:
265,90,42599,1,8,0:0:0:0:
149,196,42772,6,0,P|107:210|66:207,1,85
2,86,43117,1,2,0:0:0:0:
114,9,43289,1,10,0:0:0:0:
216,97,43461,1,2,0:0:0:0:
383,52,43634,2,0,P|425:60|459:83,1,85,2|0,0:0|0:0,0:0:0:0:
512,190,43979,1,8,0:0:0:0:
398,145,44151,1,0,3:0:0:0:
398,145,44237,1,0,3:0:0:0:
398,145,44323,6,0,L|372:297,1,152.999995330811,4|0,3:2|0:0,0:0:0:0:
266,222,44841,2,0,P|339:229|372:295,1,152.999995330811,2|0,0:0|0:0,0:0:0:0:
285,364,45358,2,0,L|298:288,1,76.4999976654053,8|0,0:0|0:0,0:0:0:0:
199,134,45703,6,0,L|225:286,1,152.999995330811,2|0,0:0|0:0,0:0:0:0:
372,294,46220,2,0,P|339:229|266:222,1,152.999995330811,2|0,0:0|0:0,0:0:0:0:
166,261,46737,1,8,0:0:0:0:
102,174,46910,1,0,0:0:0:0:
241,71,47082,6,0,L|267:223,1,152.999995330811,2|0,0:0|0:0,0:0:0:0:
143,85,47599,2,0,L|241:203,1,152.999995330811,2|0,0:0|0:0,0:0:0:0:
338,246,48116,1,8,0:0:0:0:
440,214,48289,1,0,0:0:0:0:
499,124,48461,6,0,P|427:105|361:140,1,152.999995330811,2|0,0:0|0:0,0:0:0:0:
248,220,48979,2,0,L|235:144,1,76.4999976654053,2|0,0:0|0:0,0:0:0:0:
267,42,49323,1,0,0:0:0:0:
361,140,49496,2,0,L|374:216,1,76.4999976654053,10|0,0:0|0:0,0:0:0:0:
408,352,49841,6,0,L|308:343,1,85,4|0,0:0|0:0,0:0:0:0:
250,286,50186,2,0,L|150:277,1,85,8|0,0:0|0:0,0:0:0:0:
52,257,50530,1,0,0:0:0:0:
86,350,50703,1,0,0:0:0:0:
159,284,50875,1,8,0:0:0:0:
207,367,51048,1,0,0:0:0:0:
312,256,51220,6,0,L|320:156,1,85,4|0,0:0|0:0,0:0:0:0:
377,98,51565,2,0,L|385:-1,1,85,8|0,0:0|0:0,0:0:0:0:
237,146,51910,1,0,0:0:0:0:
404,184,52082,1,0,0:0:0:0:
297,90,52254,1,8,0:0:0:0:
199,180,52427,1,0,0:0:0:0:
66,102,52599,6,0,L|179:85,1,85,4|0,0:0|0:0,0:0:0:0:
199,180,52944,2,0,L|86:197,1,85,10|0,0:0|0:0,0:0:0:0:
53,274,53289,1,2,0:0:0:0:
153,288,53461,1,0,0:0:0:0:
285,243,53634,2,0,P|294:285|285:326,1,85,10|0,0:0|0:0,0:0:0:0:
199,180,53979,6,0,P|229:151|269:136,1,85,2|0,0:0|0:0,0:0:0:0:
367,162,54323,1,10,0:0:0:0:
434,26,54496,2,0,L|454:109,1,85,2|0,0:0|0:0,0:0:0:0:
264,50,54841,2,0,L|268:135,1,85,2|8,0:0|0:0,0:0:0:0:
173,95,55186,1,2,0:0:0:0:
360,183,55358,6,0,P|381:296|251:319,1,255,2|0,0:0|0:0,0:0:0:0:
331,276,56048,1,0,3:0:0:0:
331,276,56134,1,0,3:0:0:0:
331,276,56220,1,0,3:0:0:0:
331,276,56306,1,0,3:0:0:0:
331,276,56392,1,0,3:0:0:0:
331,276,56479,1,0,3:0:0:0:
331,276,56565,1,0,3:0:0:0:
331,276,56651,1,0,3:0:0:0:
339,285,56737,5,2,3:2:0:0:
443,188,56910,1,2,0:0:0:0:
318,121,57082,1,2,0:0:0:0:
347,294,57254,1,2,0:0:0:0:
352,300,57599,5,0,0:0:0:0:
201,214,57772,2,0,P|209:157|253:194,1,140.25000428009,8|0,0:0|0:0,0:0:0:0:
238,258,58117,6,0,L|286:54,1,187.000005706787,4|8,0:0|0:0,0:0:0:0:
351,183,58634,1,2,0:0:0:0:
179,98,58806,2,0,L|203:8,1,93.5000028533936,2|0,0:0|0:0,0:0:0:0:
382,53,59151,1,8,0:0:0:0:
253,194,59323,6,0,P|244:240|259:288,1,93.5000028533936,2|0,0:0|0:0,0:0:0:0:
346,381,59668,1,0,0:0:0:0:
385,255,59841,1,10,0:0:0:0:
473,350,60013,1,0,0:0:0:0:
451,191,60186,2,0,P|411:168|361:166,1,93.5000028533936,2|0,0:0|0:0,0:0:0:0:
282,266,60530,1,10,0:0:0:0:
385,255,60703,1,0,0:0:0:0:
248,141,60875,6,0,P|208:118|158:116,1,93.5000028533936,2|0,0:0|0:0,0:0:0:0:
79,216,61220,1,8,0:0:0:0:
248,141,61392,2,0,L|367:130,1,93.5000028533936,2|0,0:0|0:0,0:0:0:0:
431,246,61737,2,0,L|311:236,1,93.5000028533936,2|8,0:0|0:0,0:0:0:0:
231,66,62082,1,2,3:2:0:0:
223,85,62168,1,0,3:2:0:0:
216,105,62254,6,0,B|201:130|201:130|178:154|178:154|163:180,1,93.5000028533936,0|0,3:2|0:0,0:0:0:0:
146,302,62599,1,8,0:0:0:0:
0,163,62772,1,2,0:0:0:0:
164,192,62945,1,2,0:0:0:0:
73,232,63117,1,0,0:0:0:0:
107,35,63289,1,10,0:0:0:0:
91,133,63461,1,0,0:0:0:0:
272,32,63634,6,0,P|363:26|437:81,1,187.000005706787,2|8,0:0|0:0,0:0:0:0:
491,200,64151,1,2,0:0:0:0:
360,189,64323,1,2,0:0:0:0:
416,307,64496,1,0,0:0:0:0:
364,193,64668,1,10,0:0:0:0:
285,298,64841,1,0,0:0:0:0:
209,118,65013,6,0,L|167:201,1,93.5000028533936,2|0,0:0|0:0,0:0:0:0:
175,310,65358,1,8,0:0:0:0:
244,227,65530,1,0,0:0:0:0:
243,381,65703,2,0,L|284:297,1,93.5000028533936,2|0,0:0|0:0,0:0:0:0:
338,177,66048,1,8,0:0:0:0:
244,227,66220,1,0,0:0:0:0:
408,221,66392,6,0,P|453:209|490:182,1,93.5000028533936,2|0,0:0|0:0,0:0:0:0:
348,85,66737,2,0,P|303:96|266:123,1,93.5000028533936,8|0,0:0|0:0,0:0:0:0:
284,297,67082,2,0,P|324:320|369:327,1,93.5000028533936,2|0,0:0|0:0,0:0:0:0:
216,222,67427,2,0,P|191:261|184:306,1,93.5000028533936,8|0,0:0|0:0,0:0:0:0:
362,118,67772,5,2,0:0:0:0:
284,297,67944,1,2,0:0:0:0:
237,94,68117,1,10,0:0:0:0:
351,244,68289,1,2,0:0:0:0:
128,177,68461,2,0,L|149:84,1,93.5000028533936,4|0,0:0|0:0,0:0:0:0:
258,3,68806,2,0,L|236:93,1,93.5000028533936,12|0,0:0|3:0,0:0:0:0:
239,122,69065,1,0,3:0:0:0:
242,150,69151,6,0,B|229:201|229:201|147:331,1,187.000005706787,4|8,3:2|0:0,0:0:0:0:
64,302,69668,1,2,0:0:0:0:
164,146,69841,2,0,B|157:171|157:171|121:228,1,93.5000028533936,2|0,0:0|0:0,0:0:0:0:
29,216,70185,1,8,0:0:0:0:
142,55,70358,6,0,L|163:145,1,93.5000028533936,2|0,0:0|0:0,0:0:0:0:
204,271,70703,1,0,0:0:0:0:
332,298,70875,1,10,0:0:0:0:
422,200,71048,1,0,0:0:0:0:
292,217,71220,2,0,P|304:262|332:297,1,93.5000028533936,2|0,0:0|0:0,0:0:0:0:
464,289,71565,1,8,0:0:0:0:
370,380,71737,1,0,0:0:0:0:
292,217,71910,6,0,P|246:204|201:211,1,93.5000028533936,2|0,0:0|0:0,0:0:0:0:
93,285,72254,1,8,0:0:0:0:
60,157,72427,2,0,L|38:64,1,93.5000028533936,2|0,0:0|0:0,0:0:0:0:
258,91,72772,2,0,P|212:103|167:96,1,93.5000028533936,2|8,0:0|0:0,0:0:0:0:
60,157,73117,6,0,P|139:198|253:197,1,187.000005706787,2|0,0:0|0:0,0:0:0:0:
345,129,73634,1,8,0:0:0:0:
307,311,73807,1,0,0:0:0:0:
250,104,73980,1,2,0:0:0:0:
375,235,74152,1,0,0:0:0:0:
214,280,74324,1,10,0:0:0:0:
311,315,74496,1,0,0:0:0:0:
207,178,74669,6,0,P|123:148|42:201,1,187.000005706787,2|8,0:0|0:0,0:0:0:0:
40,308,75186,1,0,0:0:0:0:
135,251,75358,1,0,0:0:0:0:
190,375,75531,1,2,0:0:0:0:
65,328,75703,1,8,0:0:0:0:
246,240,75875,6,0,L|290:342,1,93.5000028533936,2|0,0:0|0:0,0:0:0:0:
412,379,76220,1,2,0:0:0:0:
375,230,76393,1,8,0:0:0:0:
224,349,76565,2,0,L|311:383,1,93.5000028533936,2|0,0:0|0:0,0:0:0:0:
446,305,76910,1,0,0:0:0:0:
300,248,77082,1,8,0:0:0:0:
502,154,77254,6,0,P|512:244|446:305,1,187.000005706787,2|0,0:0|0:0,0:0:0:0:
339,357,77772,1,8,0:0:0:0:
307,195,77944,2,0,L|285:72,1,93.5000028533936,2|0,0:0|0:0,0:0:0:0:
181,9,78289,1,0,3:0:0:0:
176,36,78375,1,0,3:0:0:0:
171,64,78461,1,0,3:0:0:0:
166,91,78547,1,0,3:0:0:0:
161,119,78633,1,0,3:0:0:0:
156,147,78720,1,0,3:0:0:0:
151,174,78806,5,4,3:2:0:0:
370,210,79841,1,2,0:0:0:0:
155,255,80186,6,0,P|142:215|141:173,1,85,4|0,0:0|0:0,0:0:0:0:
48,84,80530,2,0,P|61:124|62:166,1,85,10|0,0:0|0:0,0:0:0:0:
81,284,80875,1,2,0:0:0:0:
215,203,81048,1,2,0:0:0:0:
195,320,81220,1,8,0:0:0:0:
140,172,81392,6,0,P|208:122|281:154,1,170,2|0,0:0|0:0,0:0:0:0:
357,245,81910,2,0,L|440:230,1,85,8|0,0:0|0:0,0:0:0:0:
490,106,82254,1,2,0:0:0:0:
386,163,82427,1,2,0:0:0:0:
330,58,82599,1,8,0:0:0:0:
265,242,82772,6,0,P|308:317|393:337,1,170,2|0,0:0|0:0,0:0:0:0:
440,230,83289,1,8,0:0:0:0:
255,137,83461,2,0,P|183:176|158:255,1,170,2|0,0:0|0:0,0:0:0:0:
224,357,83979,1,8,0:0:0:0:
413,177,84151,6,0,B|459:168|491:200|491:200|503:245|473:279,1,170,2|0,0:0|0:0,0:0:0:0:
405,356,84668,1,10,0:0:0:0:
386,364,84754,1,0,0:0:0:0:
364,369,84840,1,2,0:0:0:0:
343,369,84926,1,0,0:0:0:0:
324,362,85013,6,0,L|275:340,1,42.5,2|0,0:0|0:0,0:0:0:0:
269,278,85186,2,0,L|233:237,1,42.5,2|0,0:0|0:0,0:0:0:0:
257,177,85358,2,0,L|241:126,1,42.5,8|0,3:2|3:0,0:0:0:0:
288,80,85530,6,0,L|294:26,1,42.5,8|0,3:2|3:0,0:0:0:0:
335,239,86048,5,4,0:0:0:0:
256,192,86134,12,0,88634,0:0:0:0:
