osu file format v14

[General]
AudioFilename: Ready!!!.mp3
AudioLeadIn: 2000
PreviewTime: 58035
Countdown: 0
SampleSet: Soft
StackLeniency: 0.7
Mode: 0
LetterboxInBreaks: 0
WidescreenStoryboard: 0

[Editor]
Bookmarks: 16565,21392,30875,41220,53634,77254
DistanceSpacing: 1.3
BeatDivisor: 4
GridSize: 4
TimelineZoom: 2.699999

[Metadata]
Title:READY!!(TV SIZE)
TitleUnicode:READY!!(TV SIZE)
Artist:765PRO ALLSTARS
ArtistUnicode:765PRO ALLSTARS
Creator:pinataman
Version:Idol
Source:アイドルマスター
Tags:opening op iDOLM@STER idolmaster Amami Haruka Hoshii Miki Kisaragi Chihaya Hagiwara Yukiho Kikuchi Makoto Futami Ami Mami Minase Iori Takatsuki Yayoi Ganaha Hibiki Miura Azusa Shijou Takane Yabuki Kana Mochizuki Anna Hakozaki Serika Satake Minako Kitazawa Shiho Nanao Yuriko Yokoyama Nao Nakamura Eriko Hasegawa Akiko Imai Asami Asakura Azumi Hirata Hiromi Shimoda Kugimiya Rie Nigo Mayako Numakura Manami Takahashi Chiaki Hara Yumi HeyItsSins
BeatmapID:1356594
BeatmapSetID:573160

[Difficulty]
HPDrainRate:6
CircleSize:4.8
OverallDifficulty:8.4
ApproachRate:9
SliderMultiplier:2
SliderTickRate:1

[Events]
//Background and Video events
Video,0,"imop.avi"
0,0,"bg2.jpg",0,0
//Break Periods
//Storyboard Layer 0 (Background)
//Storyboard Layer 1 (Fail)
//Storyboard Layer 2 (Pass)
//Storyboard Layer 3 (Foreground)
//Storyboard Sound Samples

[TimingPoints]
186,344.827586206897,4,2,1,50,1,0
186,-133.333333333333,4,2,1,50,0,0
9841,-133.333333333333,4,2,1,60,0,0
11220,-100,4,2,1,80,0,0
22599,-111.111111111111,4,2,1,60,0,0
30530,-83.3333333333333,4,2,1,80,0,0
30875,-133.333333333333,4,2,1,80,0,0
31220,-83.3333333333333,4,2,1,80,0,0
31565,-133.333333333333,4,2,1,80,0,0
31910,-83.3333333333333,4,2,1,80,0,0
33289,-100,4,2,1,70,0,0
44323,-111.111111111111,4,2,1,60,0,0
49841,-100,4,2,1,80,0,0
57772,-76.9230769230769,4,2,1,80,0,0
58117,-76.9230769230769,4,2,1,90,0,1
80186,-90.9090909090909,4,2,1,80,0,0
88634,-90.9090909090909,4,2,1,20,0,0

[Colours]
Combo1 : 255,128,0
Combo2 : 255,0,0
Combo3 : 0,255,0
Combo4 : 0,0,255
Combo5 : 255,0,128
Combo6 : 255,255,128
Combo7 : 0,255,255

[HitObjects]
440,49,186,6,0,B|401:114|401:114|366:124|348:164,1,150.000005722046,2|0,0:0|0:0,0:0:0:0:
437,207,703,1,2,0:0:0:0:
301,70,875,2,0,P|258:131|246:205,1,150.000005722046,2|0,0:0|0:0,0:0:0:0:
147,365,1392,6,0,P|154:295|118:209,1,150.000005722046,2|0,0:0|0:0,0:0:0:0:
59,158,1910,1,2,0:0:0:0:
20,239,2082,1,0,0:0:0:0:
5,83,2254,2,0,P|76:67|141:117,1,150.000005722046,2|0,0:0|0:0,0:0:0:0:
240,375,2944,6,0,P|277:370|313:360,1,75.0000028610231,2|0,0:0|0:0,0:0:0:0:
385,300,3289,1,0,0:0:0:0:
260,284,3461,2,0,P|229:261|201:236,1,75.0000028610231,2|0,0:0|0:0,0:0:0:0:
477,130,3806,2,0,P|473:167|466:204,1,75.0000028610231,2|0,0:0|0:0,0:0:0:0:
385,300,4151,6,0,B|345:256|345:198|345:198|346:139|306:96,1,225.000008583069,2|0,0:0|0:0,0:0:0:0:
169,76,4841,1,0,0:0:0:0:
148,268,5014,1,2,0:0:0:0:
235,180,5186,1,0,0:0:0:0:
83,164,5359,1,2,0:0:0:0:
169,76,5530,1,0,0:0:0:0:
220,246,5703,6,0,P|141:344|82:231,1,300.000011444092,2|0,0:0|0:0,0:0:0:0:
156,182,6565,1,2,0:0:0:0:
148,268,6737,1,0,0:0:0:0:
221,142,6910,6,0,P|170:1|97:132,1,375.000014305115,2|0,0:0|0:0,0:0:0:0:
148,245,7944,1,2,0:0:0:0:
164,84,8117,1,0,0:0:0:0:
287,250,8289,6,0,B|304:280|350:288|350:288|368:197|434:173,1,225.000008583069,2|0,0:0|0:0,0:0:0:0:
358,366,8979,2,0,B|244:352|208:266|208:266|139:338|36:320,1,375.000014305115,2|0,0:0|0:0,0:0:0:0:
79,177,10013,5,2,0:0:0:0:
192,361,10186,1,2,0:0:0:0:
281,254,10358,1,0,0:0:0:0:
80,323,10530,1,2,0:0:0:0:
211,205,10703,1,0,0:0:0:0:
192,361,10875,1,2,0:0:0:0:
141,156,11048,1,0,0:0:0:0:
305,351,11220,6,0,P|352:368|400:359,1,100,4|0,0:0|0:0,0:0:0:0:
451,147,11565,2,0,P|404:164|373:203,1,100,10|0,0:0|0:0,0:0:0:0:
297,359,11910,1,2,0:0:0:0:
230,155,12082,1,2,0:0:0:0:
365,210,12254,1,8,0:0:0:0:
156,344,12427,6,0,L|355:326,1,200,2|0,0:0|0:0,0:0:0:0:
497,312,12944,2,0,L|412:364,1,100,10|0,0:0|0:0,0:0:0:0:
451,152,13289,1,2,0:0:0:0:
293,266,13461,1,2,0:0:0:0:
432,253,13634,1,8,0:0:0:0:
378,20,13806,6,0,L|360:219,1,200,2|0,0:0|0:0,0:0:0:0:
281,294,14323,1,8,0:0:0:0:
460,130,14496,2,0,L|442:329,1,200,2|0,0:0|0:0,0:0:0:0:
353,377,15013,1,8,0:0:0:0:
205,54,15186,6,0,L|223:253,1,200,2|0,0:0|0:0,0:0:0:0:
353,377,15703,1,8,0:0:0:0:
307,134,15875,2,0,P|258:131|214:152,1,100,2|0,0:0|0:0,0:0:0:0:
124,284,16220,1,2,0:0:0:0:
63,147,16392,1,8,0:0:0:0:
116,292,16565,1,2,0:0:0:0:
307,134,16737,6,0,P|356:130|405:151,1,100,4|0,0:0|0:0,0:0:0:0:
479,257,17082,2,0,P|428:261|380:290,1,100,10|0,0:0|0:0,0:0:0:0:
281,368,17427,1,2,0:0:0:0:
345,200,17599,1,2,0:0:0:0:
455,342,17771,1,8,0:0:0:0:
226,191,17944,6,0,L|27:173,1,200,2|0,0:0|0:0,0:0:0:0:
36,40,18461,2,0,L|135:49,1,100,8|0,0:0|0:0,0:0:0:0:
33,282,18806,1,2,0:0:0:0:
80,110,18979,1,2,0:0:0:0:
142,272,19151,1,8,0:0:0:0:
243,48,19323,6,0,B|293:50|293:50|433:104,1,200,2|0,0:0|0:0,0:0:0:0:
505,169,19841,1,8,0:0:0:0:
239,141,20013,2,0,B|289:144|289:144|433:105,1,200,2|0,0:0|0:0,0:0:0:0:
480,22,20531,1,8,0:0:0:0:
200,267,20703,6,0,L|392:214,1,200,2|0,0:0|0:0,0:0:0:0:
512,181,21221,1,8,0:0:0:0:
305,337,21392,2,0,P|279:294|278:245,1,100,2|0,0:0|0:0,0:0:0:0:
454,147,21737,2,0,P|479:189|480:238,1,100,2|8,0:0|0:0,0:0:0:0:
202,360,22082,2,0,B|188:254|188:254|214:213|197:163,1,200,4|0,0:0|0:0,0:0:0:0:
121,114,22599,6,0,P|107:156|112:200,1,89.9999972534181,8|0,0:0|0:0,0:0:0:0:
279,265,22944,1,0,0:0:0:0:
335,194,23117,1,0,0:0:0:0:
399,256,23289,1,8,0:0:0:0:
451,183,23461,1,0,0:0:0:0:
421,341,23634,6,0,P|377:342|340:318,1,89.9999972534181,0|0,0:0|0:0,0:0:0:0:
253,170,23979,2,0,P|297:169|334:193,1,89.9999972534181,8|0,0:0|0:0,0:0:0:0:
399,256,24323,1,0,0:0:0:0:
451,183,24495,1,0,0:0:0:0:
272,257,24668,2,0,P|247:294|248:338,1,89.9999972534181,8|0,0:0|0:0,0:0:0:0:
141,153,25013,6,0,L|125:62,1,89.9999972534181,0|0,0:0|0:0,0:0:0:0:
195,7,25358,1,8,0:0:0:0:
211,96,25530,1,0,0:0:0:0:
388,67,25702,1,0,0:0:0:0:
299,81,25875,1,0,0:0:0:0:
401,232,26048,2,0,P|423:194|421:150,1,89.9999972534181,8|0,0:0|0:0,0:0:0:0:
195,7,26392,6,0,L|210:95,1,89.9999972534181,2|0,0:0|0:0,0:0:0:0:
235,239,26737,1,10,0:0:0:0:
101,293,26910,1,2,0:0:0:0:
251,334,27082,1,0,0:0:0:0:
239,243,27254,1,0,0:0:0:0:
116,381,27427,2,0,P|71:376|34:352,1,89.9999972534181,8|0,0:0|0:0,0:0:0:0:
65,211,27772,6,0,L|101:293,1,89.9999972534181
303,158,28117,2,0,P|261:145|217:154,1,89.9999972534181,8|0,0:0|0:0,0:0:0:0:
336,308,28461,2,0,P|379:319|422:309,1,89.9999972534181
512,104,28806,2,0,L|476:186,1,89.9999972534181,8|0,0:0|0:0,0:0:0:0:
255,311,29151,6,0,P|268:268|299:236,1,89.9999972534181
422,309,29496,2,0,P|408:351|377:383,1,89.9999972534181,8|0,0:0|0:0,0:0:0:0:
422,124,29841,2,0,P|440:163|439:207,1,89.9999972534181
298,236,30186,2,0,P|278:195|279:150,1,89.9999972534181,8|0,0:0|0:0,0:0:0:0:
65,7,30530,6,0,L|85:218,1,179.999994506836,4|0,0:0|0:0,0:0:0:0:
167,304,30875,6,0,L|159:229,1,75.0000028610231,2|0,0:0|0:0,0:0:0:0:
395,29,31220,6,0,L|375:240,1,179.999994506836,4|0,0:0|0:0,0:0:0:0:
293,326,31565,6,0,L|300:251,1,75.0000028610231,2|0,0:0|0:0,0:0:0:0:
22,115,31910,6,0,P|68:142|136:142,1,119.999996337891,4|0,0:0|0:0,0:0:0:0:
266,86,32254,1,0,0:0:0:0:
200,329,32427,2,0,P|170:278|168:219,1,119.999996337891,4|0,0:0|0:0,0:0:0:0:
368,120,32772,2,0,P|335:169|282:195,1,119.999996337891,4|0,0:0|0:0,0:0:0:0:
141,121,33117,1,0,3:0:0:0:
141,121,33203,1,0,3:0:0:0:
141,121,33289,6,0,L|172:234,1,100,4|0,3:2|0:0,0:0:0:0:
318,328,33634,2,0,L|361:237,1,100,8|0,0:0|0:0,0:0:0:0:
271,109,33979,1,0,0:0:0:0:
262,209,34151,1,0,0:0:0:0:
211,12,34323,1,8,0:0:0:0:
346,24,34496,1,0,0:0:0:0:
165,182,34668,6,0,P|126:151|105:106,1,100
11,21,35013,2,0,L|37:127,1,100,8|0,0:0|0:0,0:0:0:0:
125,242,35358,1,0,0:0:0:0:
196,99,35530,1,0,0:0:0:0:
294,184,35703,2,0,P|321:133|322:80,1,100,8|0,0:0|0:0,0:0:0:0:
182,302,36048,6,0,L|282:281,1,100,0|0,0:0|0:0,0:0:0:0:
391,203,36392,2,0,L|293:183,1,100,8|0,0:0|0:0,0:0:0:0:
196,99,36737,1,0,0:0:0:0:
323,91,36910,1,0,0:0:0:0:
277,257,37082,1,8,0:0:0:0:
253,16,37254,6,0,B|262:117,1,100
204,238,37599,1,0,0:0:0:0:
34,166,37772,2,0,P|99:157|142:186,1,100,8|0,0:0|0:0,0:0:0:0:
77,254,38117,1,0,0:0:0:0:
162,82,38289,1,0,0:0:0:0:
23,72,38461,1,8,0:0:0:0:
147,7,38634,1,0,0:0:0:0:
192,235,38806,6,0,L|214:348,1,100
421,301,39151,2,0,L|440:202,1,100,8|0,0:0|0:0,0:0:0:0:
463,85,39495,1,0,0:0:0:0:
463,85,39668,1,0,0:0:0:0:
264,168,39841,2,0,L|244:266,1,100,8|0,0:0|0:0,0:0:0:0:
222,384,40185,5,0,0:0:0:0:
222,384,40358,1,0,0:0:0:0:
54,258,40530,2,0,L|34:159,1,100,8|0,0:0|0:0,0:0:0:0:
12,42,40874,1,0,0:0:0:0:
12,42,41047,1,0,0:0:0:0:
184,174,41220,2,0,L|282:193,1,100,8|0,0:0|0:0,0:0:0:0:
96,4,41565,6,0,P|77:50|78:100,1,100
141,244,41910,2,0,L|239:224,1,100,8|0,0:0|0:0,0:0:0:0:
333,191,42254,1,0,0:0:0:0:
313,288,42427,1,0,0:0:0:0:
248,99,42599,1,8,0:0:0:0:
430,266,42772,6,0,P|452:221|451:172,1,100,0|0,0:0|0:0,0:0:0:0:
363,21,43117,1,2,0:0:0:0:
512,129,43289,1,10,0:0:0:0:
359,275,43461,1,2,0:0:0:0:
490,35,43634,2,0,P|512:80|511:129,1,100,2|0,0:0|0:0,0:0:0:0:
483,240,43979,1,8,0:0:0:0:
386,78,44151,1,0,3:0:0:0:
386,78,44237,1,0,3:0:0:0:
386,78,44323,6,0,B|342:159|342:159|348:206|323:243,1,179.999994506836,4|0,3:2|0:0,0:0:0:0:
172,305,44841,2,0,B|220:317|256:286|256:286|281:326|339:322,1,179.999994506836,2|0,0:0|0:0,0:0:0:0:
409,299,45358,2,0,P|408:343|385:382,1,89.9999972534181,8|0,0:0|0:0,0:0:0:0:
200,230,45703,6,0,B|191:173|191:173|156:158|143:129|143:129|129:99|97:92,1,179.999994506836,2|0,0:0|0:0,0:0:0:0:
214,36,46220,2,0,B|221:91|221:91|257:107|269:135|269:135|283:165|315:172,1,179.999994506836,2|0,0:0|0:0,0:0:0:0:
457,175,46737,1,8,0:0:0:0:
342,94,46910,1,0,0:0:0:0:
382,325,47082,6,0,P|444:263|457:175,1,179.999994506836,2|0,0:0|0:0,0:0:0:0:
224,272,47599,2,0,P|292:326|381:325,1,179.999994506836,2|0,0:0|0:0,0:0:0:0:
414,113,48117,1,8,0:0:0:0:
335,204,48289,1,0,0:0:0:0:
182,80,48461,6,0,P|202:8|255:60,1,179.999994506836,2|0,0:0|0:0,0:0:0:0:
192,259,48979,2,0,P|173:219|177:174,1,89.9999972534181,2|0,0:0|0:0,0:0:0:0:
203,8,49323,1,0,0:0:0:0:
95,206,49496,2,0,P|67:241|22:258,1,89.9999972534181,10|0,0:0|0:0,0:0:0:0:
44,48,49841,6,0,P|93:56|138:77,1,100,4|0,0:0|0:0,0:0:0:0:
302,90,50186,2,0,P|351:98|396:119,1,100,8|0,0:0|0:0,0:0:0:0:
462,329,50530,1,0,0:0:0:0:
382,224,50703,1,0,0:0:0:0:
362,364,50875,1,8,0:0:0:0:
282,259,51048,1,0,0:0:0:0:
453,92,51220,6,0,P|407:70|358:62,1,100,4|0,0:0|0:0,0:0:0:0:
197,55,51565,2,0,P|151:33|102:25,1,100,8|0,0:0|0:0,0:0:0:0:
149,291,51910,1,0,0:0:0:0:
259,103,52082,1,0,0:0:0:0:
58,190,52254,1,8,0:0:0:0:
271,235,52427,1,0,0:0:0:0:
102,25,52599,6,0,L|160:152,1,100,4|0,0:0|0:0,0:0:0:0:
229,326,52944,2,0,L|270:235,1,100,10|0,0:0|0:0,0:0:0:0:
259,103,53289,1,2,0:0:0:0:
180,205,53461,1,0,0:0:0:0:
349,144,53634,2,0,L|440:185,1,100,10|0,0:0|0:0,0:0:0:0:
212,381,53979,6,0,L|192:270,1,100,2|0,0:0|0:0,0:0:0:0:
174,157,54323,1,10,0:0:0:0:
440,185,54496,2,0,L|420:296,1,100,2|0,0:0|0:0,0:0:0:0:
248,16,54841,2,0,L|268:127,1,100,2|8,0:0|0:0,0:0:0:0:
400,1,55186,1,2,0:0:0:0:
300,273,55358,6,0,B|272:305|217:308|185:288|185:288|162:271|138:279|138:279|99:288|50:268|37:226,1,300,2|0,0:0|0:0,0:0:0:0:
63,90,56048,1,0,3:0:0:0:
87,87,56134,1,0,3:0:0:0:
112,84,56220,1,0,3:0:0:0:
137,81,56306,1,0,3:0:0:0:
162,78,56392,1,0,3:0:0:0:
187,75,56479,1,0,3:0:0:0:
212,72,56565,1,0,3:0:0:0:
237,69,56651,1,0,3:0:0:0:
261,50,56737,5,2,3:2:0:0:
161,234,56910,1,2,0:0:0:0:
350,132,57082,1,2,0:0:0:0:
80,25,57254,1,2,0:0:0:0:
182,343,57599,5,0,0:0:0:0:
281,106,57772,2,0,P|268:31|227:95,1,194.999991073609,8|0,0:0|0:0,0:0:0:0:
259,243,58117,6,0,B|325:239|379:199|379:199|432:158|499:155,1,259.999988098145,4|8,0:0|0:0,0:0:0:0:
381,361,58634,1,2,0:0:0:0:
281,107,58806,2,0,P|228:70|158:73,1,129.999994049073,2|0,0:0|0:0,0:0:0:0:
26,107,59151,1,8,0:0:0:0:
174,370,59323,6,0,L|194:241,1,129.999994049073,2|0,0:0|0:0,0:0:0:0:
299,41,59668,1,0,0:0:0:0:
82,185,59841,1,10,0:0:0:0:
155,20,60013,1,0,0:0:0:0:
318,222,60186,2,0,P|257:243|193:240,1,129.999994049073,2|0,0:0|0:0,0:0:0:0:
100,92,60530,1,10,0:0:0:0:
239,118,60703,1,0,0:0:0:0:
71,341,60875,6,0,L|200:322,1,129.999994049073,2|0,0:0|0:0,0:0:0:0:
330,302,61220,1,8,0:0:0:0:
100,92,61392,2,0,L|119:220,1,129.999994049073,2|0,0:0|0:0,0:0:0:0:
409,35,61737,2,0,L|389:164,1,129.999994049073,2|8,0:0|0:0,0:0:0:0:
176,384,62082,1,2,3:2:0:0:
136,374,62168,1,0,3:2:0:0:
110,341,62254,6,0,P|93:278|122:215,1,129.999994049073,0|0,3:2|0:0,0:0:0:0:
240,205,62599,1,8,0:0:0:0:
23,335,62772,1,2,0:0:0:0:
214,120,62945,1,2,0:0:0:0:
267,290,63117,1,0,0:0:0:0:
59,133,63289,1,10,0:0:0:0:
132,367,63461,1,0,0:0:0:0:
344,100,63634,6,0,P|266:20|213:119,1,259.999988098145,2|8,0:0|0:0,0:0:0:0:
297,232,64151,1,2,0:0:0:0:
33,208,64323,1,2,0:0:0:0:
133,341,64496,1,0,0:0:0:0:
276,90,64668,1,10,0:0:0:0:
187,245,64841,1,0,0:0:0:0:
107,11,65013,6,0,P|170:1|226:31,1,129.999994049073,2|0,0:0|0:0,0:0:0:0:
306,167,65358,1,8,0:0:0:0:
430,73,65530,1,0,0:0:0:0:
275,345,65703,2,0,L|238:221,1,129.999994049073,2|0,0:0|0:0,0:0:0:0:
177,79,66048,1,8,0:0:0:0:
96,212,66220,1,0,0:0:0:0:
430,73,66392,6,0,P|468:126|484:190,1,129.999994049073,2|0,0:0|0:0,0:0:0:0:
177,79,66737,2,0,P|230:40|294:24,1,129.999994049073,8|0,0:0|0:0,0:0:0:0:
435,320,67082,2,0,P|381:358|317:374,1,129.999994049073,2|0,0:0|0:0,0:0:0:0:
430,73,67427,2,0,P|468:126|484:190,1,129.999994049073,8|0,0:0|0:0,0:0:0:0:
171,352,67772,5,2,0:0:0:0:
126,51,67944,1,2,0:0:0:0:
319,373,68117,1,10,0:0:0:0:
364,72,68289,1,2,0:0:0:0:
146,285,68461,2,0,L|274:271,1,129.999994049073,4|0,0:0|0:0,0:0:0:0:
448,225,68806,2,0,L|319:212,1,129.999994049073,12|0,0:0|3:0,0:0:0:0:
218,136,69065,1,0,3:0:0:0:
218,136,69151,6,0,P|323:101|318:212,1,259.999988098145,4|8,3:2|0:0,0:0:0:0:
203,263,69668,1,2,0:0:0:0:
441,62,69841,2,0,P|462:110|463:195,1,129.999994049073,2|0,0:0|0:0,0:0:0:0:
405,308,70185,1,8,0:0:0:0:
167,24,70357,6,0,B|172:89|172:89|217:134,1,129.999994049073,2|0,0:0|0:0,0:0:0:0:
342,253,70702,1,0,0:0:0:0:
104,322,70875,1,10,0:0:0:0:
287,359,71048,1,0,0:0:0:0:
142,244,71220,2,0,L|267:210,1,129.999994049073,2|0,0:0|0:0,0:0:0:0:
402,172,71565,1,8,0:0:0:0:
267,70,71737,1,0,0:0:0:0:
446,340,71910,6,0,P|487:291|491:227,1,129.999994049073,2|0,0:0|0:0,0:0:0:0:
464,61,72254,1,8,0:0:0:0:
295,256,72426,2,0,B|274:318|274:318|292:379,1,129.999994049073,2|0,0:0|0:0,0:0:0:0:
177,26,72772,2,0,B|195:87|195:87|174:149,1,129.999994049073,2|8,0:0|0:0,0:0:0:0:
46,312,73117,6,0,P|20:188|93:84,1,259.999988098145,2|0,0:0|0:0,0:0:0:0:
276,31,73634,1,8,0:0:0:0:
187,273,73806,1,0,0:0:0:0:
374,30,73979,1,2,0:0:0:0:
221,181,74151,1,0,0:0:0:0:
445,97,74323,1,10,0:0:0:0:
255,89,74496,1,0,0:0:0:0:
401,343,74668,6,0,P|505:294|448:193,1,259.999988098145,2|8,0:0|0:0,0:0:0:0:
272,206,75186,1,0,0:0:0:0:
431,270,75358,1,0,0:0:0:0:
281,112,75530,1,2,0:0:0:0:
292,298,75703,1,8,0:0:0:0:
116,51,75875,6,0,P|171:19|235:24,1,129.999994049073,2|0,0:0|0:0,0:0:0:0:
344,186,76220,1,2,0:0:0:0:
446,20,76392,1,8,0:0:0:0:
512,262,76565,2,0,P|509:325|458:363,1,129.999994049073,2|0,0:0|0:0,0:0:0:0:
267,324,76910,1,0,0:0:0:0:
443,290,77082,1,8,0:0:0:0:
263,9,77254,6,0,B|193:26|167:91|167:91|142:155|75:173,1,259.999988098145,2|0,0:0|0:0,0:0:0:0:
0,60,77772,1,8,0:0:0:0:
149,286,77944,2,0,P|201:321|265:323,1,129.999994049073,2|0,0:0|0:0,0:0:0:0:
469,246,78289,1,0,3:0:0:0:
476,279,78375,1,0,3:0:0:0:
485,314,78461,1,0,3:0:0:0:
436,307,78547,1,0,3:0:0:0:
403,271,78633,1,0,3:0:0:0:
403,221,78719,1,0,3:0:0:0:
431,183,78805,5,4,3:2:0:0:
107,138,79841,2,0,L|99:268,1,129.999994049073,2|0,0:0|0:0,0:0:0:0:
27,116,80186,6,0,P|58:70|130:57,1,110.000003356934,4|0,0:0|0:0,0:0:0:0:
242,111,80530,2,0,P|294:121|343:97,1,110.000003356934,10|0,0:0|0:0,0:0:0:0:
435,14,80875,1,2,0:0:0:0:
375,176,81048,1,2,0:0:0:0:
284,40,81220,1,8,0:0:0:0:
220,260,81392,6,0,L|440:274,1,220.000006713867,2|0,0:0|0:0,0:0:0:0:
510,116,81910,2,0,P|488:166|447:201,1,110.000003356934,8|0,0:0|0:0,0:0:0:0:
249,188,82254,1,2,0:0:0:0:
374,80,82427,1,2,0:0:0:0:
348,194,82599,1,8,0:0:0:0:
161,51,82772,6,0,L|130:276,1,220.000006713867,2|0,0:0|0:0,0:0:0:0:
159,360,83289,1,8,0:0:0:0:
385,149,83461,2,0,L|244:319,1,220.000006713867,2|0,0:0|0:0,0:0:0:0:
159,360,83979,1,8,0:0:0:0:
173,9,84151,6,0,L|196:227,1,220.000006713867,2|0,0:0|0:0,0:0:0:0:
382,308,84668,1,10,0:0:0:0:
380,269,84754,1,0,0:0:0:0:
369,232,84840,1,2,0:0:0:0:
348,200,84926,1,0,0:0:0:0:
321,173,85013,6,0,P|297:146|271:125,1,55.0000016784668,2|0,0:0|0:0,0:0:0:0:
147,76,85186,2,0,L|184:117,1,55.0000016784668,2|0,0:0|0:0,0:0:0:0:
226,258,85358,2,0,P|207:238|191:216,1,55.0000016784668,8|0,0:0|0:0,0:0:0:0:
395,70,85530,6,0,L|444:26,1,55.0000016784668,8|0,3:2|3:0,0:0:0:0:
100,184,86048,5,4,0:0:0:0:
256,192,86134,12,0,88634,0:0:0:0:
