osu file format v14

[General]
AudioFilename: Ready!!!.mp3
AudioLeadIn: 2000
PreviewTime: 58035
Countdown: 0
SampleSet: Soft
StackLeniency: 0.7
Mode: 0
LetterboxInBreaks: 0
WidescreenStoryboard: 0

[Editor]
Bookmarks: 46737,52082,63634
DistanceSpacing: 1.4
BeatDivisor: 4
GridSize: 4
TimelineZoom: 2.3

[Metadata]
Title:READY!!(TV SIZE)
TitleUnicode:READY!!(TV SIZE)
Artist:765PRO ALLSTARS
ArtistUnicode:765PRO ALLSTARS
Creator:pinataman
Version:Hard
Source:アイドルマスター
Tags:opening op iDOLM@STER idolmaster Amami Haruka Hoshii Miki Kisaragi Chihaya Hagiwara Yukiho Kikuchi Makoto Futami Ami Mami Minase Iori Takatsuki Yayoi Ganaha Hibiki Miura Azusa Shijou Takane Yabuki Kana Mochizuki Anna Hakozaki Serika Satake Minako Kitazawa Shiho Nanao Yuriko Yokoyama Nao Nakamura Eriko Hasegawa Akiko Imai Asami Asakura Azumi Hirata Hiromi Shimoda Kugimiya Rie Nigo Mayako Numakura Manami Takahashi Chiaki Hara Yumi HeyItsSins
BeatmapID:1250395
BeatmapSetID:573160

[Difficulty]
HPDrainRate:5
CircleSize:3.8
OverallDifficulty:6
ApproachRate:8
SliderMultiplier:1.4
SliderTickRate:1

[Events]
//Background and Video events
Video,0,"imop.avi"
0,0,"bg1.jpg",0,0
//Break Periods
//Storyboard Layer 0 (Background)
//Storyboard Layer 1 (Fail)
//Storyboard Layer 2 (Pass)
//Storyboard Layer 3 (Foreground)
//Storyboard Sound Samples

[TimingPoints]
186,344.827586206897,4,2,1,50,1,0
186,-133.333333333333,4,2,1,50,0,0
9841,-133.333333333333,4,2,1,60,0,0
11220,-100,4,2,1,80,0,0
22599,-100,4,2,1,60,0,0
30530,-100,4,2,1,80,0,0
33289,-100,4,2,1,70,0,0
44323,-100,4,2,1,60,0,0
49841,-100,4,2,1,80,0,0
58117,-100,4,2,1,90,0,1
78806,-100,4,2,1,90,0,0
80186,-100,4,2,1,80,0,0
88634,-100,4,2,1,20,0,0

[Colours]
Combo1 : 255,255,98
Combo2 : 109,152,252
Combo3 : 255,94,174

[HitObjects]
97,109,186,6,0,P|61:145|29:189,1,105.000004005432,2|0,0:0|0:0,0:0:0:0:
70,258,702,1,2,0:0:0:0:
132,207,875,2,0,P|117:156|96:108,1,105.000004005432,2|0,0:0|0:0,0:0:0:0:
166,37,1392,6,0,P|180:87|201:135,1,105.000004005432,2|0,0:0|0:0,0:0:0:0:
264,182,1910,2,0,P|290:174|314:163,1,52.5000020027161,2|0,0:0|0:0,0:0:0:0:
365,223,2254,2,0,P|319:246|268:259,1,105.000004005432,2|0,0:0|0:0,0:0:0:0:
111,124,2944,6,0,P|52:153|34:201,1,105.000004005432,2|0,0:0|0:0,0:0:0:0:
95,247,3461,2,0,P|100:222|110:198,1,52.5000020027161,2|0,0:0|0:0,0:0:0:0:
221,236,3806,2,0,P|196:242|170:245,1,52.5000020027161,2|0,0:0|0:0,0:0:0:0:
226,163,4151,6,0,P|287:206|280:281,1,157.500006008148,2|0,0:0|0:0,0:0:0:0:
259,357,4841,1,0,0:0:0:0:
335,337,5013,2,0,P|349:315|360:291,1,52.5000020027161,2|0,0:0|0:0,0:0:0:0:
414,233,5358,2,0,P|425:256|439:278,1,52.5000020027161,2|0,0:0|0:0,0:0:0:0:
489,217,5703,6,0,P|460:116|417:20,1,210.000008010865,2|0,0:0|0:0,0:0:0:0:
340,39,6565,2,0,P|314:32|290:21,1,52.5000020027161,2|0,0:0|0:0,0:0:0:0:
220,57,6910,6,0,P|255:183|309:302,1,262.500010013581,2|0,0:0|0:0,0:0:0:0:
264,367,7944,2,0,P|240:377|214:384,1,52.5000020027161,2|0,0:0|0:0,0:0:0:0:
136,371,8289,6,0,P|168:299|189:223,1,157.500006008148,2|0,0:0|0:0,0:0:0:0:
132,169,8979,2,0,P|261:190|392:191,1,262.500010013581,2|0,0:0|0:0,0:0:0:0:
470,197,10013,6,0,L|487:148,2,52.5000020027161,2|2|0,0:0|0:0|0:0,0:0:0:0:
424,261,10530,2,0,L|377:284,1,52.5000020027161,2|0,0:0|0:0,0:0:0:0:
333,349,10875,1,2,0:0:0:0:
300,278,11048,1,0,0:0:0:0:
191,371,11220,6,0,L|254:342,1,70,4|0,0:0|0:0,0:0:0:0:
229,246,11565,2,0,L|165:274,1,70,10|0,0:0|0:0,0:0:0:0:
97,345,11910,1,2,0:0:0:0:
69,251,12082,2,0,L|47:179,1,70,2|8,0:0|0:0,0:0:0:0:
104,103,12427,6,0,P|159:144|228:148,1,140,2|0,0:0|0:0,0:0:0:0:
326,140,12944,2,0,L|306:207,1,70,8|0,0:0|0:0,0:0:0:0:
360,288,13289,1,2,0:0:0:0:
448,247,13461,2,0,P|431:218|402:199,1,70,2|8,0:0|0:0,0:0:0:0:
306,207,13806,6,0,P|242:232|177:211,1,140,2|0,0:0|0:0,0:0:0:0:
140,120,14323,1,8,0:0:0:0:
238,134,14496,2,0,B|269:113|286:85|286:85|303:56|335:36,1,140,2|0,0:0|0:0,0:0:0:0:
434,45,15013,1,8,0:0:0:0:
377,125,15186,6,0,L|343:260,1,140,2|0,0:0|0:0,0:0:0:0:
297,349,15703,1,8,0:0:0:0:
251,256,15875,2,0,L|234:188,1,70,2|0,0:0|0:0,0:0:0:0:
164,257,16220,2,0,L|147:325,1,70,2|8,0:0|0:0,0:0:0:0:
57,286,16565,1,2,0:0:0:0:
70,189,16737,6,0,L|138:176,1,70,4|0,0:0|0:0,0:0:0:0:
235,189,17082,2,0,P|234:154|221:122,1,70,10|0,0:0|0:0,0:0:0:0:
133,77,17427,1,2,0:0:0:0:
215,24,17599,2,0,L|283:11,1,70,2|8,0:0|0:0,0:0:0:0:
348,85,17944,6,0,P|290:122|221:122,1,140,2|0,0:0|0:0,0:0:0:0:
133,77,18461,2,0,L|120:145,1,70,8|0,0:0|0:0,0:0:0:0:
97,242,18806,1,2,0:0:0:0:
191,274,18979,2,0,P|225:274|257:261,1,70,2|8,0:0|0:0,0:0:0:0:
225,168,19323,6,0,P|287:225|370:229,1,140,2|0,0:0|0:0,0:0:0:0:
434,261,19841,1,8,0:0:0:0:
352,314,20013,2,0,P|281:308|214:273,1,140,2|0,0:0|0:0,0:0:0:0:
141,217,20531,1,8,0:0:0:0:
88,299,20703,6,0,P|157:306|220:277,1,140,2|0,0:0|0:0,0:0:0:0:
257,186,21220,1,8,0:0:0:0:
203,104,21392,2,0,P|169:95|135:102,1,70,2|0,0:0|0:0,0:0:0:0:
99,193,21737,2,0,P|132:201|166:194,1,70,2|8,0:0|0:0,0:0:0:0:
38,116,22082,2,0,P|5:177|16:245,1,140,4|0,0:0|0:0,0:0:0:0:
74,325,22599,6,0,L|142:312,1,70,8|0,0:0|0:0,0:0:0:0:
226,260,22944,1,0,0:0:0:0:
307,314,23117,1,0,0:0:0:0:
391,262,23290,2,0,L|459:249,1,70,8|0,0:0|0:0,0:0:0:0:
467,151,23634,6,0,P|442:166|380:181,1,70,0|0,0:0|0:0,0:0:0:0:
316,223,23979,2,0,P|323:188|323:154,1,70,8|0,0:0|0:0,0:0:0:0:
256,83,24323,1,0,0:0:0:0:
229,178,24496,1,0,0:0:0:0:
142,133,24668,2,0,P|134:167|134:201,1,70,8|0,0:0|0:0,0:0:0:0:
204,272,25013,6,0,P|173:289|140:300,1,70,0|0,0:0|0:0,0:0:0:0:
51,254,25358,2,0,P|40:186|51:117,1,140,8|0|0|0,0:0|0:0,0:0:0:0:
123,49,25875,1,0,0:0:0:0:
218,75,26048,2,0,P|251:76|286:70,1,70,8|0,0:0|0:0,0:0:0:0:
378,34,26392,6,0,L|391:102,1,70,2|0,0:0|0:0,0:0:0:0:
336,184,26737,1,10,0:0:0:0:
417,239,26910,1,2,0:0:0:0:
471,156,27082,2,0,P|495:182|512:213,1,70,0|0,0:0|0:0,0:0:0:0:
421,243,27427,2,0,L|353:256,1,70,8|0,0:0|0:0,0:0:0:0:
284,327,27772,6,0,L|352:340,1,70,0|0,0:0|0:0,0:0:0:0:
377,199,28117,2,0,P|358:168|333:144,1,70,8|0,0:0|0:0,0:0:0:0:
236,158,28461,2,0,P|203:143|176:122,1,70
135,33,28806,2,0,P|101:21|66:19,1,70,8|0,0:0|0:0,0:0:0:0:
12,135,29151,6,0,P|45:127|76:111,1,70,0|0,0:0|0:0,0:0:0:0:
176,122,29496,2,0,P|155:151|129:174,1,70,8|0,0:0|0:0,0:0:0:0:
57,241,29841,2,0,P|89:251|124:253,1,70,0|0,0:0|0:0,0:0:0:0:
205,312,30186,2,0,P|172:326|139:334,1,70,8|0,0:0|0:0,0:0:0:0:
183,174,30530,5,4,0:0:0:0:
316,275,30875,2,0,P|327:241|324:206,1,70,2|0,0:0|0:0,0:0:0:0:
317,75,31220,5,4,0:0:0:0:
183,174,31565,2,0,P|172:140|175:105,1,70,2|0,0:0|0:0,0:0:0:0:
97,15,31910,6,0,B|91:85,1,70,4|0,0:0|0:0,0:0:0:0:
85,182,32254,1,0,0:0:0:0:
183,173,32427,2,0,P|209:151|225:120,1,70,4|0,0:0|0:0,0:0:0:0:
286,41,32772,2,0,P|302:71|328:94,1,70,4|0,0:0|0:0,0:0:0:0:
426,136,33117,1,0,3:0:0:0:
426,136,33203,1,0,3:0:0:0:
426,136,33289,6,0,L|413:204,1,70,4|0,3:2|0:0,0:0:0:0:
362,289,33634,2,0,L|430:302,1,70,8|0,0:0|0:0,0:0:0:0:
512,358,33979,1,0,0:0:0:0:
416,379,34151,1,0,0:0:0:0:
320,358,34323,2,0,L|252:371,1,70,8|0,0:0|0:0,0:0:0:0:
160,333,34668,6,0,P|153:298|153:264,1,70,0|0,0:0|0:0,0:0:0:0:
231,203,35013,2,0,P|265:209|300:209,1,70,8|0,0:0|0:0,0:0:0:0:
393,177,35358,1,0,0:0:0:0:
372,81,35530,1,0,0:0:0:0:
293,140,35703,2,0,P|293:174|299:209,1,70,8|0,0:0|0:0,0:0:0:0:
221,269,36048,6,0,P|220:234|214:199,1,70,0|0,0:0|0:0,0:0:0:0:
188,104,36392,2,0,P|153:111|118:111,1,70,8|0,0:0|0:0,0:0:0:0:
23,86,36737,1,0,0:0:0:0:
50,180,36910,1,0,0:0:0:0:
143,206,37082,2,0,P|148:240|149:275,1,70,8|0,0:0|0:0,0:0:0:0:
102,363,37427,6,0,P|170:370|228:334,1,140,0|8,0:0|0:0,0:0:0:0:
278,250,37944,2,0,P|272:215|271:180,1,70,0|0,0:0|0:0,0:0:0:0:
258,83,38289,2,0,P|226:96|198:116,2,70,0|8|0,0:0|0:0|0:0,0:0:0:0:
350,119,38806,6,0,P|353:84|351:50,1,70,0|0,0:0|0:0,0:0:0:0:
259,14,39151,2,0,P|255:48|258:83,1,70,8|0,0:0|0:0,0:0:0:0:
272,181,39495,1,0,0:0:0:0:
272,181,39668,1,0,0:0:0:0:
369,195,39841,2,0,P|400:209|429:228,1,70,8|0,0:0|0:0,0:0:0:0:
483,311,40185,5,0,0:0:0:0:
483,311,40358,1,0,0:0:0:0:
386,297,40530,2,0,P|354:282|325:263,1,70,8|0,0:0|0:0,0:0:0:0:
272,181,40874,1,0,0:0:0:0:
272,181,41047,1,0,0:0:0:0:
193,239,41220,2,0,P|158:238|123:231,1,70,8|0,0:0|0:0,0:0:0:0:
53,162,41565,6,0,P|38:192|17:221,1,70,0|0,0:0|0:0,0:0:0:0:
0,318,41910,2,0,B|66:360|132:316,1,140,8|0,0:0|0:0,0:0:0:0:
193,239,42427,1,0,0:0:0:0:
230,330,42599,1,8,0:0:0:0:
290,253,42772,6,0,L|283:183,1,70
277,85,43117,1,2,0:0:0:0:
365,128,43289,1,10,0:0:0:0:
446,73,43461,1,2,0:0:0:0:
369,132,43634,2,0,L|376:202,1,70,2|0,0:0|0:0,0:0:0:0:
387,299,43979,1,8,0:0:0:0:
486,270,44151,1,0,3:0:0:0:
486,270,44237,1,0,3:0:0:0:
486,270,44323,6,0,L|472:130,1,140,4|0,3:2|0:0,0:0:0:0:
510,39,44841,2,0,P|461:89|394:104,1,140,2|0,0:0|0:0,0:0:0:0:
301,75,45358,2,0,L|259:131,1,70,8|0,0:0|0:0,0:0:0:0:
208,215,45703,6,0,P|278:219|361:234,1,140,2|0,0:0|0:0,0:0:0:0:
437,267,46220,2,0,P|367:271|284:286,1,140,2|0,0:0|0:0,0:0:0:0:
233,356,46737,2,0,L|206:273,1,70,8|0,0:0|0:0,0:0:0:0:
124,245,47082,6,0,P|192:251|249:212,1,140,2|0,0:0|0:0,0:0:0:0:
168,156,47599,2,0,P|220:111|233:44,1,140,2|0,0:0|0:0,0:0:0:0:
136,61,48117,2,0,P|103:83|75:117,1,70,8|0,0:0|0:0,0:0:0:0:
80,202,48461,6,0,P|149:196|210:229,1,140,2|0,0:0|0:0,0:0:0:0:
289,287,48979,2,0,P|288:246|300:204,1,70,2|0,0:0|0:0,0:0:0:0:
354,140,49323,1,0,0:0:0:0:
258,117,49496,2,0,P|217:116|175:128,1,70,10|0,0:0|0:0,0:0:0:0:
91,107,49841,6,0,L|135:30,1,70,4|0,0:0|0:0,0:0:0:0:
220,19,50186,2,0,L|287:37,1,70,8|0,0:0|0:0,0:0:0:0:
325,135,50530,2,0,L|257:116,1,70,0|0,0:0|0:0,0:0:0:0:
186,184,50875,2,0,L|253:202,1,70,8|0,0:0|0:0,0:0:0:0:
163,87,51220,6,0,P|131:104|105:127,1,70,4|0,0:0|0:0,0:0:0:0:
51,208,51565,2,0,P|36:239|31:273,1,70,8|0,0:0|0:0,0:0:0:0:
65,366,51910,1,0,0:0:0:0:
127,291,52082,2,0,P|160:282|195:284,1,70,0|8,0:0|0:0,0:0:0:0:
263,355,52427,1,0,0:0:0:0:
360,280,52599,6,0,P|394:273|429:275,1,70,4|0,0:0|0:0,0:0:0:0:
384,187,52944,2,0,P|348:187|314:196,1,70,10|0,0:0|0:0,0:0:0:0:
241,262,53289,1,2,0:0:0:0:
147,236,53461,1,0,0:0:0:0:
235,193,53634,2,0,P|242:226|241:261,1,70,10|0,0:0|0:0,0:0:0:0:
332,344,53979,6,0,P|353:308|363:266,1,70,2|0,0:0|0:0,0:0:0:0:
384,187,54323,1,10,0:0:0:0:
280,105,54496,2,0,P|291:138|309:167,1,70,2|0,0:0|0:0,0:0:0:0:
214,62,54841,2,0,P|204:95|205:130,1,70,2|8,0:0|0:0,0:0:0:0:
211,229,55186,1,2,0:0:0:0:
309,167,55358,6,0,P|410:202|410:294,1,210,2|0,0:0|0:0,0:0:0:0:
314,275,56048,2,0,L|354:227,2,35,0|0|0,3:0|3:0|3:0,0:0:0:0:
225,317,56392,2,0,L|185:365,2,35,0|0|0,3:0|3:0|3:0,0:0:0:0:
231,218,56737,5,2,3:2:0:0:
133,265,56910,1,2,0:0:0:0:
79,171,57082,1,2,0:0:0:0:
171,115,57254,1,2,0:0:0:0:
175,119,57599,5,0,0:0:0:0:
77,70,57772,1,8,0:0:0:0:
247,231,58117,6,0,P|270:165|307:106,1,140,4|8,0:0|0:0,0:0:0:0:
391,41,58634,1,2,0:0:0:0:
287,27,58806,2,0,P|250:54|225:90,1,70,2|0,0:0|0:0,0:0:0:0:
183,164,59151,1,8,0:0:0:0:
303,175,59323,6,0,P|301:140|307:105,1,70,2|0,0:0|0:0,0:0:0:0:
365,17,59668,1,0,0:0:0:0:
413,111,59841,2,0,P|429:139|454:165,1,70,10|0,0:0|0:0,0:0:0:0:
484,267,60186,2,0,L|414:273,1,70,2|0,0:0|0:0,0:0:0:0:
309,278,60530,1,10,0:0:0:0:
389,345,60703,1,0,0:0:0:0:
359,221,60875,6,0,P|328:205|293:203,1,70,2|0,0:0|0:0,0:0:0:0:
222,281,61220,1,8,0:0:0:0:
155,199,61392,2,0,P|156:164|172:133,1,70,2|0,0:0|0:0,0:0:0:0:
229,45,61737,2,0,P|198:29|163:27,1,70,2|8,0:0|0:0,0:0:0:0:
43,97,62082,6,0,P|102:132|171:133,1,140,2|0,0:0|0:0,0:0:0:0:
229,45,62599,1,8,0:0:0:0:
277,139,62772,1,2,0:0:0:0:
334,51,62944,2,0,P|359:26|389:7,1,70,2|0,0:0|0:0,0:0:0:0:
492,23,63289,1,10,0:0:0:0:
426,105,63462,1,0,0:0:0:0:
487,216,63634,6,0,P|466:282|412:326,1,140,2|8,0:0|0:0,0:0:0:0:
322,381,64151,1,2,0:0:0:0:
256,299,64323,1,2,0:0:0:0:
164,348,64496,1,0,0:0:0:0:
112,256,64668,2,0,P|113:221|118:187,1,70,10|0,0:0|0:0,0:0:0:0:
188,81,65013,6,0,L|193:150,1,70,2|0,0:0|0:0,0:0:0:0:
258,233,65358,1,10,0:0:0:0:
335,188,65530,2,0,P|319:121|268:74,1,140,2|0,0:0|0:0,0:0:0:0:
194,151,66048,1,8,0:0:0:0:
109,89,66220,1,0,0:0:0:0:
29,203,66392,6,0,P|64:203|98:193,1,70,2|0,0:0|0:0,0:0:0:0:
188,251,66737,2,0,L|206:318,1,70,8|0,0:0|0:0,0:0:0:0:
310,299,67082,2,0,L|304:230,1,70,2|0,0:0|0:0,0:0:0:0:
368,147,67426,2,0,P|403:145|436:133,1,70,8|0,0:0|0:0,0:0:0:0:
512,263,67772,5,2,0:0:0:0:
417,220,67944,1,2,0:0:0:0:
406,371,68117,1,10,0:0:0:0:
506,338,68289,1,2,0:0:0:0:
412,296,68461,2,0,L|316:287,1,70,4|0,0:0|0:0,0:0:0:0:
274,208,68806,2,0,L|369:199,1,70,12|0,0:0|0:0,0:0:0:0:
412,119,69151,6,0,P|370:74|269:71,1,140,4|8,0:0|0:0,0:0:0:0:
208,122,69668,1,2,0:0:0:0:
112,78,69841,2,0,P|79:89|55:114,1,70,2|0,0:0|0:0,0:0:0:0:
20,214,70186,1,8,0:0:0:0:
138,181,70358,6,0,P|158:218|171:267,1,70,2|0,0:0|0:0,0:0:0:0:
119,338,70703,1,0,0:0:0:0:
30,284,70876,2,0,P|22:249|20:214,1,70,10|0,0:0|0:0,0:0:0:0:
55,114,71220,2,0,P|88:102|118:86,1,70,2|0,0:0|0:0,0:0:0:0:
206,27,71565,1,8,0:0:0:0:
265,114,71737,1,0,0:0:0:0:
178,173,71910,6,0,L|196:269,1,70,2|0,0:0|0:0,0:0:0:0:
235,336,72254,1,8,0:0:0:0:
335,303,72427,2,0,P|320:272|294:249,1,70,2|0,0:0|0:0,0:0:0:0:
178,173,72772,2,0,P|198:144|228:127,1,70,2|8,0:0|0:0,0:0:0:0:
331,151,73117,6,0,B|366:144|389:116|389:116|421:135|457:128,1,140,2|0,0:0|0:0,0:0:0:0:
509,45,73634,1,8,0:0:0:0:
412,27,73807,1,0,0:0:0:0:
323,69,73979,2,0,L|231:47,1,70,2|0,0:0|0:0,0:0:0:0:
184,130,74323,2,0,L|252:146,1,70,10|0,0:0|0:0,0:0:0:0:
320,252,74668,6,0,P|283:308|216:320,1,140,2|8,0:0|0:0,0:0:0:0:
111,327,75186,2,0,P|122:292|127:258,1,70,0|0,0:0|0:0,0:0:0:0:
163,160,75530,1,2,0:0:0:0:
236,237,75703,1,8,0:0:0:0:
225,111,75875,6,0,P|197:89|163:81,1,70,2|0,0:0|0:0,0:0:0:0:
66,121,76220,1,2,0:0:0:0:
82,225,76393,1,8,0:0:0:0:
188,223,76565,2,0,P|181:188|162:159,1,70,2|0,0:0|0:0,0:0:0:0:
66,121,76910,1,0,0:0:0:0:
113,27,77082,1,8,0:0:0:0:
225,111,77254,6,0,B|257:128|291:128|291:128|324:128|357:146,1,140,2|0,0:0|0:0,0:0:0:0:
425,229,77772,1,8,0:0:0:0:
352,304,77944,2,0,P|330:276|319:243,1,70,2|0,0:0|0:0,0:0:0:0:
370,159,78289,1,0,3:0:0:0:
370,159,78375,1,0,3:0:0:0:
370,159,78461,1,0,3:0:0:0:
264,157,78634,1,0,3:0:0:0:
239,55,78806,5,4,3:2:0:0:
296,342,79841,1,2,0:0:0:0:
132,210,80186,6,0,L|118:288,1,70,4|0,0:0|0:0,0:0:0:0:
43,339,80530,2,0,L|30:270,1,70,10|0,0:0|0:0,0:0:0:0:
41,172,80875,1,2,0:0:0:0:
132,210,81048,2,0,L|144:141,1,70,2|8,0:0|0:0,0:0:0:0:
194,56,81392,6,0,P|127:42|69:76,1,140,2|0,0:0|0:0,0:0:0:0:
41,172,81910,2,0,P|44:203|64:246,1,70,8|0,0:0|0:0,0:0:0:0:
139,295,82254,1,2,0:0:0:0:
226,250,82427,2,0,P|259:241|294:243,1,70,2|8,0:0|0:0,0:0:0:0:
367,309,82772,6,0,P|343:244|372:169,1,140,2|0,0:0|0:0,0:0:0:0:
426,103,83289,1,8,0:0:0:0:
493,175,83461,2,0,P|428:199|353:170,1,140,2|0,0:0|0:0,0:0:0:0:
330,84,83979,1,8,0:0:0:0:
267,159,84151,6,0,P|280:226|332:271,1,140,2|0,0:0|0:0,0:0:0:0:
417,319,84668,1,10,0:0:0:0:
320,340,84841,2,0,L|332:271,1,70,2|0,0:0|0:0,0:0:0:0:
428,250,85186,2,0,L|416:319,1,70,2|8,0:0|0:0,0:0:0:0:
361,177,85530,5,2,0:0:0:0:
157,229,86048,1,4,0:0:0:0:
256,192,86134,12,0,88634,0:0:0:0:
