osu file format v14

[General]
AudioFilename: audio.mp3
AudioLeadIn: 0
PreviewTime: 57178
Countdown: 0
SampleSet: Soft
StackLeniency: 0.7
Mode: 3
LetterboxInBreaks: 0
SpecialStyle: 0
WidescreenStoryboard: 0

[Editor]
DistanceSpacing: 0.1
BeatDivisor: 4
GridSize: 32
TimelineZoom: 1.5

[Metadata]
Title:Maji de...!?
TitleUnicode:マジで...!?
Artist:765PRO ALLSTARS
ArtistUnicode:765PRO ALLSTARS
Creator:MarioUniverseZ
Version:Magic, Day Yeah Bye!
Source:太鼓の達人 ムラサキVer.
Tags:アイドルマスター × コラボ祭 10th 15th Taiko No Tatsujin murasaki version arcade Collab 佐藤貴文 エトウ くぼけん imsmjd BNSI COCX-41151 COCX-41152 COCX-41153 COCX-41154 COCX-41155 COCX-41156 COCX-41157 COCX-41158 COCX-41159 COCX-41160 COCX-41161 COCX-41162 COCX-41163 the idolmaster idolm@ster アイマス video game japanese Faputa 天海春香 如月千早 萩原雪歩 高槻やよい 秋月律子 三浦あずさ 水瀬伊織 菊地真 双海亜美 双海真美 星井美希 四条貴音 我那覇響 haruka amami chihaya kisaragi yukiho hagiwara yayoi takatsuki ritsuko akizuki azusa miura iori minase makoto kikuchi ami futami mami miki hoshii takane shijou hibiki ganaha MASTER ARTIST 4 zen j pop j-pop jpop idol imas im@s
BeatmapID:2817250
BeatmapSetID:1361516

[Difficulty]
HPDrainRate:8
CircleSize:4
OverallDifficulty:8
ApproachRate:5
SliderMultiplier:1.4
SliderTickRate:1

[Events]
//Background and Video events
0,0,"im01c.jpg",0,0
//Break Periods
//Storyboard Layer 0 (Background)
//Storyboard Layer 1 (Fail)
//Storyboard Layer 2 (Pass)
//Storyboard Layer 3 (Foreground)
//Storyboard Layer 4 (Overlay)
//Storyboard Sound Samples

[TimingPoints]
2321,428.571428571429,4,2,1,60,1,0
12606,-100,4,2,1,70,0,0
24606,-100,4,2,1,60,0,0
57178,-100,4,2,1,70,0,1
89749,-100,4,2,1,60,0,0
96606,-100,4,2,1,70,0,0
103463,-100,4,2,1,60,0,0
106892,-100,4,2,1,70,0,1
125749,-100,4,2,1,60,0,0

[HitObjects]
64,192,1892,128,0,1999:0:0:0:0:
448,192,1892,128,0,1999:0:0:0:0:
64,192,2321,1,4,0:0:0:0:
192,192,2321,1,0,0:0:0:0:
448,192,2321,1,0,0:0:0:0:
320,192,2428,1,0,0:0:0:0:
192,192,2535,1,0,0:0:0:0:
64,192,2749,1,8,0:0:0:0:
448,192,2749,1,0,0:0:0:0:
192,192,2963,1,0,0:0:0:0:
320,192,3071,1,0,0:0:0:0:
64,192,3178,1,0,0:0:0:0:
192,192,3178,1,0,0:0:0:0:
320,192,3392,1,0,0:0:0:0:
192,192,3499,1,0,0:0:0:0:
64,192,3606,1,8,0:0:0:0:
448,192,3606,1,0,0:0:0:0:
320,192,3713,1,0,0:0:0:0:
192,192,3821,1,0,0:0:0:0:
64,192,3928,1,0,0:0:0:0:
320,192,4035,1,0,0:0:0:0:
448,192,4035,1,0,0:0:0:0:
192,192,4142,1,0,0:0:0:0:
448,192,4249,1,0,0:0:0:0:
64,192,4463,1,8,0:0:0:0:
320,192,4463,1,0,0:0:0:0:
448,192,4678,1,0,0:0:0:0:
320,192,4785,1,0,0:0:0:0:
64,192,4892,1,0,0:0:0:0:
192,192,4892,1,0,0:0:0:0:
448,192,4999,1,0,0:0:0:0:
192,192,5106,1,0,0:0:0:0:
320,192,5213,1,0,0:0:0:0:
64,192,5321,1,8,0:0:0:0:
448,192,5321,1,0,0:0:0:0:
320,192,5535,1,0,0:0:0:0:
192,192,5642,1,0,0:0:0:0:
320,192,5749,1,0,0:0:0:0:
448,192,5749,1,0,0:0:0:0:
64,192,5856,1,0,0:0:0:0:
192,192,5963,1,0,0:0:0:0:
64,192,6178,1,8,0:0:0:0:
320,192,6178,1,0,0:0:0:0:
448,192,6392,1,0,0:0:0:0:
64,192,6499,1,0,0:0:0:0:
192,192,6606,1,0,0:0:0:0:
320,192,6606,1,0,0:0:0:0:
448,192,6821,1,0,0:0:0:0:
320,192,6928,1,0,0:0:0:0:
64,192,7035,1,8,0:0:0:0:
192,192,7035,1,0,0:0:0:0:
320,192,7249,1,0,0:0:0:0:
192,192,7356,1,0,0:0:0:0:
320,192,7463,1,0,0:0:0:0:
448,192,7463,1,0,0:0:0:0:
64,192,7571,1,0,0:0:0:0:
448,192,7678,1,0,0:0:0:0:
320,192,7785,1,0,0:0:0:0:
64,192,7892,1,8,0:0:0:0:
192,192,7892,1,0,0:0:0:0:
64,192,8106,1,0,0:0:0:0:
192,192,8213,1,0,0:0:0:0:
320,192,8321,1,0,0:0:0:0:
448,192,8321,1,0,0:0:0:0:
192,192,8428,1,0,0:0:0:0:
64,192,8535,1,8,0:0:0:0:
448,192,8535,1,0,0:0:0:0:
320,192,8642,1,0,0:0:0:0:
64,192,8749,1,8,0:0:0:0:
192,192,8749,1,0,0:0:0:0:
320,192,8856,1,8,0:0:0:0:
448,192,8856,1,0,0:0:0:0:
64,192,8963,1,0,0:0:0:0:
192,192,8963,1,0,0:0:0:0:
320,192,9178,1,0,0:0:0:0:
448,192,9178,128,0,10678:0:0:0:0:
192,192,9392,1,0,0:0:0:0:
320,192,9499,1,0,0:0:0:0:
64,192,9606,1,8,0:0:0:0:
192,192,9606,1,0,0:0:0:0:
64,192,9928,1,8,0:0:0:0:
320,192,9928,1,0,0:0:0:0:
192,192,10035,1,2,0:0:0:0:
64,192,10142,1,0,0:0:0:0:
320,192,10249,1,2,0:0:0:0:
64,192,10356,1,2,0:0:0:0:
192,192,10463,1,8,0:0:0:0:
320,192,10463,1,0,0:0:0:0:
64,192,10678,128,0,10892:0:0:0:0:
192,192,10678,128,0,10892:0:0:0:0:
320,192,10892,128,0,11106:0:0:0:0:
448,192,10892,128,0,11106:0:0:0:0:
64,192,12606,1,2,0:0:0:0:
320,192,12606,1,4,0:0:0:0:
448,192,12606,1,0,0:0:0:0:
192,192,12821,128,0,12928:0:0:0:0:
448,192,12821,128,0,12928:0:0:0:0:
320,192,12928,1,0,0:0:0:0:
64,192,13035,1,8,0:0:0:0:
192,192,13035,1,2,0:0:0:0:
448,192,13035,1,0,0:0:0:0:
64,192,13249,128,0,13356:0:0:0:0:
320,192,13249,128,0,13356:0:0:0:0:
192,192,13356,1,0,0:0:0:0:
320,192,13463,1,2,0:0:0:0:
448,192,13463,1,0,0:0:0:0:
64,192,13571,1,0,0:0:0:0:
192,192,13678,128,0,13785:0:0:0:0:
448,192,13678,128,0,13785:0:0:0:0:
320,192,13785,1,0,0:0:0:0:
64,192,13892,1,8,0:0:0:0:
192,192,13892,1,2,0:0:0:0:
448,192,13892,1,0,0:0:0:0:
320,192,13999,1,0,0:0:0:0:
64,192,14106,128,0,14213:0:0:0:0:
448,192,14106,128,0,14213:0:0:0:0:
192,192,14213,1,0,0:0:0:0:
320,192,14321,1,2,0:0:0:0:
448,192,14321,1,0,0:0:0:0:
64,192,14535,128,0,14642:0:0:0:0:
320,192,14535,128,0,14642:0:0:0:0:
448,192,14642,1,0,0:0:0:0:
64,192,14749,1,8,0:0:0:0:
192,192,14749,1,2,0:0:0:0:
320,192,14749,1,0,0:0:0:0:
192,192,14963,128,0,15071:0:0:0:0:
448,192,14963,128,0,15071:0:0:0:0:
64,192,15071,1,0,0:0:0:0:
320,192,15178,1,2,0:0:0:0:
448,192,15178,1,0,0:0:0:0:
64,192,15392,128,0,15499:0:0:0:0:
320,192,15392,128,0,15499:0:0:0:0:
192,192,15499,1,0,0:0:0:0:
64,192,15606,1,8,0:0:0:0:
320,192,15606,128,2,15713:0:0:0:0:
448,192,15606,128,0,15713:0:0:0:0:
192,192,15713,1,0,0:0:0:0:
64,192,15821,128,0,15928:0:0:0:0:
448,192,15821,128,0,15928:0:0:0:0:
320,192,16035,1,2,0:0:0:0:
448,192,16035,1,0,0:0:0:0:
64,192,16249,128,0,16356:0:0:0:0:
320,192,16249,128,0,16356:0:0:0:0:
192,192,16356,1,0,0:0:0:0:
64,192,16463,1,8,0:0:0:0:
320,192,16463,1,2,0:0:0:0:
448,192,16463,1,0,0:0:0:0:
192,192,16678,128,0,16785:0:0:0:0:
448,192,16678,128,0,16785:0:0:0:0:
320,192,16785,1,0,0:0:0:0:
64,192,16892,1,2,0:0:0:0:
192,192,16892,1,0,0:0:0:0:
448,192,16999,1,0,0:0:0:0:
64,192,17106,128,0,17213:0:0:0:0:
320,192,17106,128,0,17213:0:0:0:0:
192,192,17213,1,0,0:0:0:0:
64,192,17321,1,8,0:0:0:0:
320,192,17321,1,2,0:0:0:0:
448,192,17321,1,0,0:0:0:0:
192,192,17428,1,0,0:0:0:0:
320,192,17535,128,0,17642:0:0:0:0:
448,192,17535,128,0,17642:0:0:0:0:
64,192,17642,1,0,0:0:0:0:
192,192,17749,1,2,0:0:0:0:
448,192,17749,1,0,0:0:0:0:
320,192,17856,1,0,0:0:0:0:
64,192,17963,1,0,0:0:0:0:
192,192,17963,1,0,0:0:0:0:
64,192,18178,1,8,0:0:0:0:
320,192,18178,1,2,0:0:0:0:
448,192,18178,1,0,0:0:0:0:
192,192,18285,1,0,0:0:0:0:
320,192,18392,1,0,0:0:0:0:
448,192,18392,1,0,0:0:0:0:
64,192,18606,1,2,0:0:0:0:
192,192,18606,1,0,0:0:0:0:
320,192,18713,1,0,0:0:0:0:
448,192,18713,1,0,0:0:0:0:
64,192,18821,1,0,0:0:0:0:
192,192,18928,1,0,0:0:0:0:
320,192,19035,1,8,0:0:0:0:
448,192,19035,1,2,0:0:0:0:
64,192,19142,1,0,0:0:0:0:
192,192,19142,1,0,0:0:0:0:
448,192,19249,1,0,0:0:0:0:
320,192,19356,1,0,0:0:0:0:
64,192,19463,1,2,0:0:0:0:
192,192,19463,1,4,0:0:0:0:
448,192,19463,1,0,0:0:0:0:
192,192,19678,128,0,19785:0:0:0:0:
320,192,19678,128,0,19785:0:0:0:0:
64,192,19785,1,0,0:0:0:0:
192,192,19892,1,8,0:0:0:0:
320,192,19892,1,2,0:0:0:0:
448,192,19892,1,0,0:0:0:0:
64,192,20106,128,0,20213:0:0:0:0:
448,192,20106,128,0,20213:0:0:0:0:
320,192,20213,1,0,0:0:0:0:
64,192,20321,1,2,0:0:0:0:
192,192,20321,1,0,0:0:0:0:
320,192,20428,1,0,0:0:0:0:
64,192,20535,128,0,20642:0:0:0:0:
448,192,20535,128,0,20642:0:0:0:0:
192,192,20642,1,0,0:0:0:0:
64,192,20749,1,8,0:0:0:0:
320,192,20749,1,2,0:0:0:0:
448,192,20749,1,0,0:0:0:0:
192,192,20856,1,0,0:0:0:0:
320,192,20963,128,0,21071:0:0:0:0:
448,192,20963,128,0,21071:0:0:0:0:
64,192,21071,1,0,0:0:0:0:
192,192,21178,1,2,0:0:0:0:
320,192,21178,1,0,0:0:0:0:
64,192,21392,128,0,21499:0:0:0:0:
448,192,21392,128,0,21499:0:0:0:0:
192,192,21499,1,0,0:0:0:0:
64,192,21606,1,8,0:0:0:0:
320,192,21606,1,2,0:0:0:0:
448,192,21606,1,0,0:0:0:0:
192,192,21821,128,0,21928:0:0:0:0:
320,192,21821,128,0,21928:0:0:0:0:
64,192,21928,1,0,0:0:0:0:
320,192,22035,1,2,0:0:0:0:
448,192,22035,1,0,0:0:0:0:
192,192,22249,128,0,22356:0:0:0:0:
448,192,22249,128,0,22356:0:0:0:0:
320,192,22356,1,0,0:0:0:0:
64,192,22463,128,8,22571:0:0:0:0:
192,192,22463,128,2,22571:0:0:0:0:
448,192,22463,1,0,0:0:0:0:
320,192,22571,1,0,0:0:0:0:
64,192,22678,128,0,22785:0:0:0:0:
448,192,22678,128,0,22785:0:0:0:0:
64,192,22892,1,2,0:0:0:0:
320,192,22892,1,0,0:0:0:0:
192,192,23106,128,0,23213:0:0:0:0:
320,192,23106,128,0,23213:0:0:0:0:
448,192,23213,1,0,0:0:0:0:
64,192,23321,1,8,0:0:0:0:
192,192,23321,1,2,0:0:0:0:
320,192,23321,1,0,0:0:0:0:
64,192,23535,128,0,23642:0:0:0:0:
448,192,23535,128,0,23642:0:0:0:0:
192,192,23642,1,0,0:0:0:0:
320,192,23749,1,8,0:0:0:0:
448,192,23749,1,0,0:0:0:0:
64,192,23856,1,0,0:0:0:0:
192,192,23963,128,8,24071:0:0:0:0:
320,192,23963,128,0,24071:0:0:0:0:
448,192,24071,1,0,0:0:0:0:
64,192,24178,1,8,0:0:0:0:
192,192,24178,1,2,0:0:0:0:
320,192,24178,1,0,0:0:0:0:
448,192,24285,1,0,0:0:0:0:
64,192,24392,128,0,24499:0:0:0:0:
192,192,24392,128,0,24499:0:0:0:0:
320,192,24499,1,0,0:0:0:0:
192,192,24606,1,8,0:0:0:0:
448,192,24606,128,0,24821:0:0:0:0:
64,192,24821,1,8,0:0:0:0:
192,192,24821,1,0,0:0:0:0:
64,192,25035,1,8,0:0:0:0:
320,192,25035,128,0,25249:0:0:0:0:
192,192,25249,1,0,0:0:0:0:
64,192,25356,1,8,0:0:0:0:
448,192,25356,1,0,0:0:0:0:
192,192,25463,128,8,25678:0:0:0:0:
320,192,25463,1,0,0:0:0:0:
64,192,25678,1,0,0:0:0:0:
320,192,25785,1,8,0:0:0:0:
448,192,25785,1,0,0:0:0:0:
64,192,25892,128,8,26106:0:0:0:0:
192,192,25892,1,0,0:0:0:0:
320,192,26106,1,0,0:0:0:0:
448,192,26213,1,0,0:0:0:0:
64,192,26321,1,2,0:0:0:0:
192,192,26321,1,0,0:0:0:0:
320,192,26428,1,2,0:0:0:0:
448,192,26428,1,0,0:0:0:0:
64,192,26535,1,2,0:0:0:0:
192,192,26535,1,0,0:0:0:0:
320,192,26642,1,2,0:0:0:0:
448,192,26642,1,0,0:0:0:0:
64,192,26749,1,8,0:0:0:0:
192,192,26749,1,2,0:0:0:0:
448,192,26963,1,0,0:0:0:0:
320,192,27071,1,0,0:0:0:0:
192,192,27178,1,0,0:0:0:0:
64,192,27392,1,2,0:0:0:0:
192,192,27392,1,0,0:0:0:0:
320,192,27499,1,2,0:0:0:0:
64,192,27606,1,8,0:0:0:0:
448,192,27606,1,0,0:0:0:0:
192,192,27821,1,0,0:0:0:0:
448,192,27928,1,0,0:0:0:0:
64,192,28035,1,2,0:0:0:0:
192,192,28035,1,0,0:0:0:0:
320,192,28249,1,0,0:0:0:0:
192,192,28356,1,0,0:0:0:0:
64,192,28463,1,8,0:0:0:0:
448,192,28463,1,2,0:0:0:0:
320,192,28678,1,0,0:0:0:0:
64,192,28892,1,2,0:0:0:0:
192,192,28892,1,0,0:0:0:0:
448,192,28999,1,0,0:0:0:0:
192,192,29106,1,0,0:0:0:0:
320,192,29213,1,0,0:0:0:0:
64,192,29321,1,8,0:0:0:0:
448,192,29321,1,2,0:0:0:0:
192,192,29535,1,0,0:0:0:0:
64,192,29642,1,0,0:0:0:0:
320,192,29749,1,2,0:0:0:0:
448,192,29749,1,0,0:0:0:0:
64,192,29856,1,2,0:0:0:0:
192,192,29856,1,0,0:0:0:0:
320,192,29963,1,2,0:0:0:0:
448,192,29963,1,0,0:0:0:0:
64,192,30071,1,2,0:0:0:0:
192,192,30071,1,0,0:0:0:0:
320,192,30178,1,8,0:0:0:0:
448,192,30178,1,2,0:0:0:0:
64,192,30392,1,0,0:0:0:0:
192,192,30499,1,0,0:0:0:0:
320,192,30606,1,0,0:0:0:0:
320,192,30821,1,2,0:0:0:0:
448,192,30821,1,0,0:0:0:0:
192,192,30928,1,2,0:0:0:0:
64,192,31035,1,8,0:0:0:0:
448,192,31035,1,0,0:0:0:0:
320,192,31249,1,0,0:0:0:0:
192,192,31356,1,0,0:0:0:0:
320,192,31463,1,2,0:0:0:0:
448,192,31463,1,0,0:0:0:0:
192,192,31678,1,0,0:0:0:0:
320,192,31785,1,0,0:0:0:0:
64,192,31892,1,8,0:0:0:0:
448,192,31892,1,2,0:0:0:0:
320,192,32106,1,0,0:0:0:0:
64,192,32213,1,0,0:0:0:0:
192,192,32321,1,2,0:0:0:0:
448,192,32321,1,0,0:0:0:0:
320,192,32428,1,0,0:0:0:0:
192,192,32535,1,0,0:0:0:0:
64,192,32642,1,0,0:0:0:0:
320,192,32749,1,8,0:0:0:0:
448,192,32749,1,2,0:0:0:0:
192,192,32963,1,0,0:0:0:0:
320,192,33071,1,0,0:0:0:0:
64,192,33178,1,2,0:0:0:0:
192,192,33178,1,0,0:0:0:0:
320,192,33285,1,2,0:0:0:0:
448,192,33285,1,0,0:0:0:0:
64,192,33392,1,2,0:0:0:0:
192,192,33392,1,0,0:0:0:0:
320,192,33499,1,2,0:0:0:0:
448,192,33499,1,0,0:0:0:0:
64,192,33606,1,8,0:0:0:0:
192,192,33606,1,2,0:0:0:0:
320,192,33821,1,0,0:0:0:0:
64,192,33928,1,0,0:0:0:0:
192,192,34035,1,0,0:0:0:0:
64,192,34249,1,2,0:0:0:0:
192,192,34249,1,0,0:0:0:0:
320,192,34356,1,2,0:0:0:0:
64,192,34463,1,8,0:0:0:0:
448,192,34463,1,0,0:0:0:0:
192,192,34678,1,0,0:0:0:0:
448,192,34785,1,0,0:0:0:0:
64,192,34892,1,2,0:0:0:0:
320,192,34892,1,0,0:0:0:0:
192,192,35106,1,0,0:0:0:0:
320,192,35213,1,0,0:0:0:0:
64,192,35321,1,8,0:0:0:0:
448,192,35321,1,2,0:0:0:0:
320,192,35535,1,0,0:0:0:0:
64,192,35749,1,2,0:0:0:0:
192,192,35749,1,0,0:0:0:0:
448,192,35856,1,0,0:0:0:0:
320,192,35963,1,0,0:0:0:0:
192,192,36071,1,0,0:0:0:0:
64,192,36178,1,8,0:0:0:0:
320,192,36178,1,2,0:0:0:0:
192,192,36392,1,0,0:0:0:0:
64,192,36499,1,0,0:0:0:0:
320,192,36606,1,2,0:0:0:0:
448,192,36606,1,0,0:0:0:0:
64,192,36713,1,2,0:0:0:0:
192,192,36713,1,0,0:0:0:0:
320,192,36821,1,2,0:0:0:0:
448,192,36821,1,0,0:0:0:0:
64,192,36928,1,2,0:0:0:0:
192,192,36928,1,0,0:0:0:0:
320,192,37035,1,8,0:0:0:0:
448,192,37035,1,2,0:0:0:0:
192,192,37249,1,0,0:0:0:0:
448,192,37356,1,0,0:0:0:0:
320,192,37463,1,0,0:0:0:0:
320,192,37678,1,2,0:0:0:0:
448,192,37678,1,0,0:0:0:0:
192,192,37785,1,2,0:0:0:0:
64,192,37892,1,8,0:0:0:0:
448,192,37892,1,0,0:0:0:0:
320,192,38106,1,0,0:0:0:0:
192,192,38213,1,0,0:0:0:0:
320,192,38321,1,2,0:0:0:0:
448,192,38321,1,0,0:0:0:0:
192,192,38428,1,0,0:0:0:0:
64,192,38535,1,0,0:0:0:0:
448,192,38642,1,0,0:0:0:0:
64,192,38749,1,8,0:0:0:0:
320,192,38749,1,2,0:0:0:0:
448,192,38963,1,0,0:0:0:0:
320,192,39071,1,0,0:0:0:0:
64,192,39178,1,2,0:0:0:0:
192,192,39178,1,0,0:0:0:0:
448,192,39285,1,0,0:0:0:0:
192,192,39392,1,0,0:0:0:0:
320,192,39499,1,0,0:0:0:0:
64,192,39606,1,8,0:0:0:0:
448,192,39606,1,2,0:0:0:0:
64,192,39821,1,0,0:0:0:0:
192,192,39928,1,0,0:0:0:0:
320,192,40035,1,2,0:0:0:0:
448,192,40035,1,0,0:0:0:0:
448,192,40249,1,0,0:0:0:0:
64,192,40463,1,2,0:0:0:0:
192,192,40463,1,0,0:0:0:20:LR_Clap Normal.wav
448,192,40463,1,0,0:0:0:0:
448,192,40678,1,0,0:0:0:0:
64,192,40892,1,2,0:0:0:0:
320,192,40892,1,0,0:0:0:0:
64,192,41106,1,0,0:0:0:0:
64,192,41321,1,2,0:0:0:0:
192,192,41321,1,0,0:0:0:20:LR_Clap Normal.wav
448,192,41321,1,0,0:0:0:0:
64,192,41535,1,0,0:0:0:0:
192,192,41749,1,2,0:0:0:0:
320,192,41749,1,0,0:0:0:0:
320,192,41963,1,0,0:0:0:0:
64,192,42178,1,2,0:0:0:0:
320,192,42178,1,0,0:0:0:20:LR_Clap Normal.wav
448,192,42178,1,0,0:0:0:0:
320,192,42392,1,0,0:0:0:0:
192,192,42606,1,2,0:0:0:0:
448,192,42606,1,0,0:0:0:0:
64,192,42821,1,0,0:0:0:20:LR_Clap Normal.wav
192,192,42821,1,0,0:0:0:0:
64,192,43035,1,2,0:0:0:0:
192,192,43035,1,0,0:0:0:20:LR_Clap Normal.wav
320,192,43035,1,0,0:0:0:0:
320,192,43249,1,0,0:0:0:0:
192,192,43356,1,0,0:0:0:0:
64,192,43463,1,2,0:0:0:0:
448,192,43463,1,0,0:0:0:0:
64,192,43678,1,0,0:0:0:0:
64,192,43892,1,2,0:0:0:0:
192,192,43892,1,0,0:0:0:20:LR_Clap Normal.wav
320,192,43892,1,0,0:0:0:0:
64,192,44106,1,0,0:0:0:0:
192,192,44321,1,2,0:0:0:0:
448,192,44321,1,0,0:0:0:0:
448,192,44535,1,0,0:0:0:0:
192,192,44749,1,2,0:0:0:0:
320,192,44749,1,0,0:0:0:20:LR_Clap Normal.wav
448,192,44749,1,0,0:0:0:0:
448,192,44963,1,0,0:0:0:0:
192,192,45178,1,2,0:0:0:0:
320,192,45178,1,0,0:0:0:0:
192,192,45392,1,0,0:0:0:0:
64,192,45606,1,2,0:0:0:0:
192,192,45606,1,0,0:0:0:20:LR_Clap Normal.wav
448,192,45606,1,0,0:0:0:0:
192,192,45821,1,0,0:0:0:0:
64,192,46035,1,2,0:0:0:0:
320,192,46035,1,0,0:0:0:0:
320,192,46249,1,0,0:0:0:20:LR_Clap Normal.wav
448,192,46249,1,0,0:0:0:0:
64,192,46463,1,2,0:0:0:0:
320,192,46463,1,0,0:0:0:20:LR_Clap Normal.wav
448,192,46463,1,0,0:0:0:0:
320,192,46678,1,0,0:0:0:0:
64,192,46892,1,2,0:0:0:0:
192,192,46892,1,0,0:0:0:0:
64,192,47106,1,2,0:0:0:0:
192,192,47106,1,0,0:0:0:0:
64,192,47321,1,2,0:0:0:0:
320,192,47321,1,0,0:0:0:20:LR_Clap Normal.wav
448,192,47321,1,0,0:0:0:0:
192,192,47535,1,2,0:0:0:0:
448,192,47535,1,0,0:0:0:0:
64,192,47749,1,2,0:0:0:0:
448,192,47749,1,0,0:0:0:0:
64,192,47963,1,2,0:0:0:0:
320,192,47963,1,0,0:0:0:0:
64,192,48178,1,2,0:0:0:0:
192,192,48178,1,0,0:0:0:20:LR_Clap Normal.wav
448,192,48178,1,0,0:0:0:0:
192,192,48392,1,2,0:0:0:0:
320,192,48392,1,0,0:0:0:0:
64,192,48606,1,2,0:0:0:0:
320,192,48606,1,0,0:0:0:0:
64,192,48821,1,2,0:0:0:0:
192,192,48821,1,0,0:0:0:0:
64,192,49035,1,2,0:0:0:0:
320,192,49035,1,0,0:0:0:20:LR_Clap Normal.wav
448,192,49035,1,0,0:0:0:0:
192,192,49249,1,2,0:0:0:0:
320,192,49249,1,0,0:0:0:0:
320,192,49463,1,2,0:0:0:0:
448,192,49463,1,0,0:0:0:0:
64,192,49678,1,2,0:0:0:0:
448,192,49678,1,0,0:0:0:20:LR_Clap Normal.wav
64,192,49892,1,2,0:0:0:0:
192,192,49892,1,0,0:0:0:20:LR_Clap Normal.wav
448,192,49892,1,0,0:0:0:0:
64,192,50106,1,2,0:0:0:0:
320,192,50106,1,0,0:0:0:0:
192,192,50213,1,0,0:0:0:0:
320,192,50321,1,2,0:0:0:0:
448,192,50321,1,0,0:0:0:0:
64,192,50535,1,2,0:0:0:0:
448,192,50535,1,0,0:0:0:0:
192,192,50749,1,2,0:0:0:0:
320,192,50749,1,0,0:0:0:20:LR_Clap Normal.wav
448,192,50749,1,0,0:0:0:0:
64,192,50963,1,2,0:0:0:0:
192,192,50963,1,0,0:0:0:0:
64,192,51178,1,2,0:0:0:0:
320,192,51178,1,0,0:0:0:0:
64,192,51392,1,2,0:0:0:0:
448,192,51392,1,0,0:0:0:0:
192,192,51606,1,2,0:0:0:0:
320,192,51606,1,0,0:0:0:20:LR_Clap Normal.wav
448,192,51606,1,0,0:0:0:0:
192,192,51821,1,2,0:0:0:0:
320,192,51821,1,0,0:0:0:0:
64,192,52035,1,0,0:0:0:60:snare.wav
448,192,52035,1,0,0:0:0:0:
192,192,52142,1,0,0:0:0:60:snare.wav
320,192,52249,1,0,0:0:0:60:snare.wav
448,192,52249,1,0,0:0:0:0:
64,192,52356,1,0,0:0:0:60:snare.wav
192,192,52463,1,0,0:0:0:60:snare.wav
320,192,52463,1,0,0:0:0:0:
448,192,52571,1,0,0:0:0:60:snare.wav
64,192,52678,1,0,0:0:0:60:snare.wav
192,192,52678,1,0,0:0:0:0:
320,192,52785,1,0,0:0:0:60:snare.wav
64,192,52892,1,0,0:0:0:60:snare.wav
448,192,52892,1,0,0:0:0:0:
192,192,52999,1,0,0:0:0:60:snare.wav
320,192,52999,1,0,0:0:0:0:
64,192,53106,1,0,0:0:0:60:snare.wav
448,192,53106,1,0,0:0:0:0:
192,192,53213,1,0,0:0:0:60:snare.wav
320,192,53321,1,0,0:0:0:60:snare.wav
448,192,53321,1,0,0:0:0:0:
64,192,53428,1,0,0:0:0:60:snare.wav
192,192,53428,1,0,0:0:0:0:
320,192,53535,1,0,0:0:0:60:snare.wav
448,192,53535,1,0,0:0:0:0:
64,192,53642,1,0,0:0:0:60:snare.wav
320,192,53749,1,0,0:0:0:0:
192,192,53856,1,0,0:0:0:0:
320,192,53963,1,0,0:0:0:0:
64,192,54178,1,0,0:0:0:0:
448,192,54392,1,0,0:0:0:0:
320,192,54821,1,0,0:0:0:0:
192,192,55035,1,0,0:0:0:0:
320,192,55356,1,0,0:0:0:0:
192,192,55463,1,0,0:0:0:0:
320,192,55571,1,0,0:0:0:0:
64,192,55892,1,0,0:0:0:0:
448,192,55999,1,0,0:0:0:0:
192,192,56106,1,0,0:0:0:0:
320,192,56321,1,0,0:0:0:60:snare.wav
448,192,56321,1,0,0:0:0:0:
64,192,56428,1,0,0:0:0:60:snare.wav
192,192,56428,1,0,0:0:0:0:
320,192,56535,1,0,0:0:0:60:snare.wav
448,192,56535,1,0,0:0:0:0:
64,192,56642,1,0,0:0:0:60:snare.wav
192,192,56642,1,0,0:0:0:0:
320,192,56749,1,0,0:0:0:60:snare.wav
448,192,56749,1,0,0:0:0:0:
64,192,56856,1,0,0:0:0:60:snare.wav
192,192,56856,1,0,0:0:0:0:
320,192,56963,1,0,0:0:0:60:snare.wav
448,192,56963,1,0,0:0:0:0:
192,192,57071,1,0,0:0:0:60:snare.wav
64,192,57178,1,2,0:0:0:0:
320,192,57178,1,4,0:0:0:0:
448,192,57178,1,0,0:0:0:0:
64,192,57392,1,0,0:0:0:0:
192,192,57392,1,0,0:0:0:0:
448,192,57499,1,0,0:0:0:0:
64,192,57606,1,8,0:0:0:0:
192,192,57606,1,2,0:0:0:0:
320,192,57606,1,0,0:0:0:0:
320,192,57821,1,0,0:0:0:0:
448,192,57821,1,0,0:0:0:0:
64,192,57928,1,0,0:0:0:0:
192,192,58035,1,2,0:0:0:0:
448,192,58035,1,0,0:0:0:0:
64,192,58249,1,0,0:0:0:0:
192,192,58356,1,0,0:0:0:0:
320,192,58356,1,0,0:0:0:0:
64,192,58463,1,8,0:0:0:0:
448,192,58463,1,2,0:0:0:0:
192,192,58678,128,0,58785:0:0:0:0:
320,192,58678,128,0,58785:0:0:0:0:
64,192,58892,1,2,0:0:0:0:
192,192,58892,1,0,0:0:0:0:
64,192,59106,1,0,0:0:0:0:
448,192,59106,1,0,0:0:0:0:
192,192,59213,1,0,0:0:0:0:
64,192,59321,1,8,0:0:0:0:
320,192,59321,1,2,0:0:0:0:
448,192,59321,1,0,0:0:0:0:
192,192,59535,1,0,0:0:0:0:
320,192,59535,1,0,0:0:0:0:
448,192,59642,1,0,0:0:0:0:
64,192,59749,1,2,0:0:0:0:
192,192,59749,1,0,0:0:0:0:
448,192,59963,1,0,0:0:0:0:
192,192,60071,1,0,0:0:0:0:
320,192,60071,1,0,0:0:0:0:
64,192,60178,1,8,0:0:0:0:
448,192,60178,1,2,0:0:0:0:
192,192,60392,128,0,60499:0:0:0:0:
320,192,60392,128,0,60499:0:0:0:0:
320,192,60606,1,2,0:0:0:0:
448,192,60606,1,0,0:0:0:0:
192,192,60713,1,0,0:0:0:0:
64,192,60821,1,0,0:0:0:0:
448,192,60821,1,0,0:0:0:0:
320,192,60928,1,0,0:0:0:0:
64,192,61035,1,8,0:0:0:0:
192,192,61035,1,2,0:0:0:0:
448,192,61035,1,0,0:0:0:0:
192,192,61249,1,0,0:0:0:0:
320,192,61249,1,0,0:0:0:0:
64,192,61356,1,0,0:0:0:0:
320,192,61463,1,2,0:0:0:0:
448,192,61463,1,0,0:0:0:0:
64,192,61678,1,0,0:0:0:0:
192,192,61678,1,0,0:0:0:0:
320,192,61785,1,0,0:0:0:0:
64,192,61892,1,8,0:0:0:0:
192,192,61892,1,2,0:0:0:0:
448,192,61892,1,0,0:0:0:0:
320,192,62106,1,0,0:0:0:0:
448,192,62106,1,0,0:0:0:0:
192,192,62213,1,0,0:0:0:0:
64,192,62321,1,2,0:0:0:0:
448,192,62321,1,0,0:0:0:0:
320,192,62428,1,0,0:0:0:0:
64,192,62535,1,0,0:0:0:0:
192,192,62535,1,0,0:0:0:0:
192,192,62749,1,8,0:0:0:0:
320,192,62749,1,2,0:0:0:0:
448,192,62749,1,0,0:0:0:0:
64,192,62856,1,0,0:0:0:0:
320,192,62963,1,0,0:0:0:0:
448,192,62963,1,0,0:0:0:0:
64,192,63178,1,2,0:0:0:0:
192,192,63178,1,0,0:0:0:0:
320,192,63285,1,0,0:0:0:0:
192,192,63392,1,0,0:0:0:0:
448,192,63392,1,0,0:0:0:0:
64,192,63606,1,8,0:0:0:0:
320,192,63606,1,2,0:0:0:0:
448,192,63606,1,0,0:0:0:0:
192,192,63713,1,0,0:0:0:0:
320,192,63821,1,0,0:0:0:0:
448,192,63821,1,0,0:0:0:0:
64,192,64035,1,2,0:0:0:0:
192,192,64035,1,4,0:0:0:0:
320,192,64035,1,0,0:0:0:0:
192,192,64249,1,0,0:0:0:0:
448,192,64249,1,0,0:0:0:0:
320,192,64356,1,0,0:0:0:0:
64,192,64463,1,8,0:0:0:0:
192,192,64463,1,2,0:0:0:0:
448,192,64463,1,0,0:0:0:0:
64,192,64678,1,0,0:0:0:0:
320,192,64678,1,0,0:0:0:0:
192,192,64785,1,0,0:0:0:0:
320,192,64892,1,2,0:0:0:0:
448,192,64892,1,0,0:0:0:0:
64,192,65106,1,0,0:0:0:0:
192,192,65213,1,0,0:0:0:0:
448,192,65213,1,0,0:0:0:0:
64,192,65321,1,8,0:0:0:0:
320,192,65321,1,2,0:0:0:0:
192,192,65535,128,0,65642:0:0:0:0:
320,192,65535,128,0,65642:0:0:0:0:
64,192,65749,1,2,0:0:0:0:
192,192,65749,1,0,0:0:0:0:
64,192,65963,1,0,0:0:0:0:
448,192,65963,1,0,0:0:0:0:
192,192,66071,1,0,0:0:0:0:
64,192,66178,1,8,0:0:0:0:
320,192,66178,1,2,0:0:0:0:
448,192,66178,1,0,0:0:0:0:
192,192,66392,1,0,0:0:0:0:
320,192,66392,1,0,0:0:0:0:
448,192,66499,1,0,0:0:0:0:
64,192,66606,1,2,0:0:0:0:
192,192,66606,1,0,0:0:0:0:
448,192,66821,1,0,0:0:0:0:
64,192,66928,1,0,0:0:0:0:
320,192,66928,1,0,0:0:0:0:
192,192,67035,1,8,0:0:0:0:
448,192,67035,1,2,0:0:0:0:
64,192,67249,128,0,67356:0:0:0:0:
320,192,67249,128,0,67356:0:0:0:0:
64,192,67463,1,2,0:0:0:0:
192,192,67463,1,0,0:0:0:0:
448,192,67463,1,0,0:0:0:0:
64,192,67678,1,2,0:0:0:0:
320,192,67678,1,0,0:0:0:0:
448,192,67678,1,0,0:0:0:0:
320,192,67892,1,8,0:0:0:0:
448,192,67892,1,0,0:0:0:0:
64,192,68106,1,0,0:0:0:0:
192,192,68106,1,0,0:0:0:0:
320,192,68213,1,0,0:0:0:0:
64,192,68321,1,2,0:0:0:0:
192,192,68321,1,0,0:0:0:0:
448,192,68321,1,0,0:0:0:0:
64,192,68535,1,2,0:0:0:0:
192,192,68535,1,0,0:0:0:0:
320,192,68535,1,0,0:0:0:0:
320,192,68749,1,8,0:0:0:0:
448,192,68749,1,0,0:0:0:0:
64,192,68963,1,0,0:0:0:0:
192,192,69071,1,0,0:0:0:0:
64,192,69178,1,2,0:0:0:0:
320,192,69178,1,0,0:0:0:0:
448,192,69178,1,0,0:0:0:0:
64,192,69392,1,2,0:0:0:0:
192,192,69392,1,0,0:0:0:0:
448,192,69392,1,0,0:0:0:0:
320,192,69499,1,0,0:0:0:0:
64,192,69606,1,8,0:0:0:0:
192,192,69606,1,2,0:0:0:0:
448,192,69606,1,0,0:0:0:0:
320,192,69821,1,0,0:0:0:0:
192,192,69928,1,0,0:0:0:0:
64,192,70035,1,2,0:0:0:0:
320,192,70035,1,0,0:0:0:0:
448,192,70035,1,0,0:0:0:0:
64,192,70463,1,8,0:0:0:0:
192,192,70463,128,0,70571:0:0:0:0:
448,192,70463,128,0,70571:0:0:0:0:
320,192,70571,1,0,0:0:0:0:
192,192,70678,1,0,0:0:0:0:
448,192,70785,1,0,0:0:0:0:
64,192,70892,1,2,0:0:0:0:
192,192,70892,1,4,0:0:0:0:
320,192,70892,1,0,0:0:0:0:
64,192,71106,1,0,0:0:0:0:
448,192,71106,1,0,0:0:0:0:
320,192,71213,1,0,0:0:0:0:
64,192,71321,1,8,0:0:0:0:
192,192,71321,1,2,0:0:0:0:
448,192,71321,1,0,0:0:0:0:
192,192,71535,1,0,0:0:0:0:
320,192,71535,1,0,0:0:0:0:
64,192,71642,1,0,0:0:0:0:
320,192,71749,1,2,0:0:0:0:
448,192,71749,1,0,0:0:0:0:
192,192,71963,1,0,0:0:0:0:
64,192,72071,1,0,0:0:0:0:
448,192,72071,1,0,0:0:0:0:
192,192,72178,1,8,0:0:0:0:
320,192,72178,1,2,0:0:0:0:
64,192,72392,128,0,72499:0:0:0:0:
320,192,72392,128,0,72499:0:0:0:0:
64,192,72606,1,2,0:0:0:0:
192,192,72606,1,0,0:0:0:0:
192,192,72821,1,0,0:0:0:0:
320,192,72821,1,0,0:0:0:0:
64,192,72928,1,0,0:0:0:0:
192,192,73035,1,8,0:0:0:0:
320,192,73035,1,2,0:0:0:0:
448,192,73035,1,0,0:0:0:0:
64,192,73249,1,0,0:0:0:0:
448,192,73249,1,0,0:0:0:0:
320,192,73356,1,0,0:0:0:0:
64,192,73463,1,2,0:0:0:0:
192,192,73463,1,0,0:0:0:0:
320,192,73678,1,0,0:0:0:0:
64,192,73785,1,0,0:0:0:0:
448,192,73785,1,0,0:0:0:0:
192,192,73892,1,8,0:0:0:0:
320,192,73892,1,2,0:0:0:0:
64,192,74106,128,0,74213:0:0:0:0:
448,192,74106,128,0,74213:0:0:0:0:
64,192,74321,1,2,0:0:0:0:
320,192,74321,1,0,0:0:0:0:
192,192,74428,1,0,0:0:0:0:
320,192,74535,1,0,0:0:0:0:
448,192,74535,1,0,0:0:0:0:
64,192,74642,1,0,0:0:0:0:
192,192,74749,1,8,0:0:0:0:
320,192,74749,1,2,0:0:0:0:
448,192,74749,1,0,0:0:0:0:
64,192,74963,1,0,0:0:0:0:
192,192,74963,1,0,0:0:0:0:
320,192,75071,1,0,0:0:0:0:
64,192,75178,1,2,0:0:0:0:
448,192,75178,1,0,0:0:0:0:
320,192,75392,1,0,0:0:0:0:
448,192,75392,1,0,0:0:0:0:
192,192,75499,1,0,0:0:0:0:
64,192,75606,1,8,0:0:0:0:
320,192,75606,1,2,0:0:0:0:
448,192,75606,1,0,0:0:0:0:
64,192,75821,1,0,0:0:0:0:
192,192,75821,1,0,0:0:0:0:
320,192,75928,1,0,0:0:0:0:
192,192,76035,1,2,0:0:0:0:
448,192,76035,1,0,0:0:0:0:
64,192,76142,1,0,0:0:0:0:
320,192,76249,1,0,0:0:0:0:
448,192,76249,1,0,0:0:0:0:
64,192,76463,1,8,0:0:0:0:
192,192,76463,1,2,0:0:0:0:
320,192,76463,1,0,0:0:0:0:
448,192,76571,1,0,0:0:0:0:
64,192,76678,1,0,0:0:0:0:
192,192,76678,1,0,0:0:0:0:
320,192,76892,1,2,0:0:0:0:
448,192,76892,1,0,0:0:0:0:
192,192,76999,1,0,0:0:0:0:
64,192,77106,1,0,0:0:0:0:
320,192,77106,1,0,0:0:0:0:
64,192,77321,1,8,0:0:0:0:
192,192,77321,1,2,0:0:0:0:
448,192,77321,1,0,0:0:0:0:
320,192,77428,1,0,0:0:0:0:
64,192,77535,1,0,0:0:0:0:
192,192,77535,1,0,0:0:0:0:
192,192,77749,1,2,0:0:0:0:
320,192,77749,1,4,0:0:0:0:
448,192,77749,1,0,0:0:0:0:
64,192,77963,1,0,0:0:0:0:
448,192,77963,1,0,0:0:0:0:
320,192,78071,1,0,0:0:0:0:
64,192,78178,1,8,0:0:0:0:
192,192,78178,1,2,0:0:0:0:
448,192,78178,1,0,0:0:0:0:
192,192,78392,1,0,0:0:0:0:
320,192,78392,1,0,0:0:0:0:
64,192,78499,1,0,0:0:0:0:
320,192,78606,1,2,0:0:0:0:
448,192,78606,1,0,0:0:0:0:
192,192,78821,1,0,0:0:0:0:
64,192,78928,1,0,0:0:0:0:
320,192,78928,1,0,0:0:0:0:
192,192,79035,1,8,0:0:0:0:
448,192,79035,1,2,0:0:0:0:
64,192,79249,128,0,79356:0:0:0:0:
320,192,79249,128,0,79356:0:0:0:0:
320,192,79463,1,2,0:0:0:0:
448,192,79463,1,0,0:0:0:0:
64,192,79678,1,0,0:0:0:0:
448,192,79678,1,0,0:0:0:0:
192,192,79785,1,0,0:0:0:0:
64,192,79892,1,8,0:0:0:0:
320,192,79892,1,2,0:0:0:0:
448,192,79892,1,0,0:0:0:0:
192,192,80106,1,0,0:0:0:0:
320,192,80106,1,0,0:0:0:0:
448,192,80213,1,0,0:0:0:0:
64,192,80321,1,2,0:0:0:0:
192,192,80321,1,0,0:0:0:0:
320,192,80535,1,0,0:0:0:0:
192,192,80642,1,0,0:0:0:0:
448,192,80642,1,0,0:0:0:0:
64,192,80749,1,8,0:0:0:0:
320,192,80749,1,2,0:0:0:0:
192,192,80963,128,0,81071:0:0:0:0:
448,192,80963,128,0,81071:0:0:0:0:
64,192,81178,1,2,0:0:0:0:
320,192,81178,1,0,0:0:0:0:
448,192,81178,1,0,0:0:0:0:
64,192,81392,1,2,0:0:0:0:
192,192,81392,1,0,0:0:0:0:
448,192,81392,1,0,0:0:0:0:
64,192,81606,1,8,0:0:0:0:
192,192,81606,1,0,0:0:0:0:
320,192,81821,1,0,0:0:0:0:
448,192,81821,1,0,0:0:0:0:
192,192,81928,1,0,0:0:0:0:
64,192,82035,1,2,0:0:0:0:
320,192,82035,1,0,0:0:0:0:
448,192,82035,1,0,0:0:0:0:
64,192,82249,1,2,0:0:0:0:
192,192,82249,1,0,0:0:0:0:
448,192,82249,1,0,0:0:0:0:
320,192,82356,1,0,0:0:0:0:
64,192,82463,1,8,0:0:0:0:
192,192,82463,1,0,0:0:0:0:
320,192,82678,1,0,0:0:0:0:
192,192,82785,1,0,0:0:0:0:
64,192,82892,1,2,0:0:0:0:
320,192,82892,1,0,0:0:0:0:
448,192,82892,1,0,0:0:0:0:
64,192,83106,1,2,0:0:0:0:
192,192,83106,1,0,0:0:0:0:
448,192,83106,1,0,0:0:0:0:
64,192,83321,1,8,0:0:0:0:
320,192,83321,1,2,0:0:0:0:
448,192,83321,1,0,0:0:0:0:
192,192,83535,1,0,0:0:0:0:
320,192,83642,1,0,0:0:0:0:
64,192,83749,1,2,0:0:0:0:
192,192,83749,1,0,0:0:0:0:
448,192,83749,1,0,0:0:0:0:
64,192,84071,1,0,0:0:0:0:
192,192,84178,128,8,84285:0:0:0:0:
320,192,84178,1,0,0:0:0:0:
448,192,84178,128,0,84285:0:0:0:0:
64,192,84285,1,0,0:0:0:0:
320,192,84392,1,0,0:0:0:0:
192,192,84499,1,0,0:0:0:0:
64,192,84606,1,2,0:0:0:0:
320,192,84606,1,0,0:0:0:0:
448,192,84606,1,0,0:0:0:0:
64,192,84821,1,2,0:0:0:0:
192,192,84821,1,0,0:0:0:0:
448,192,84821,1,0,0:0:0:0:
64,192,85035,1,8,0:0:0:0:
320,192,85035,1,2,0:0:0:0:
448,192,85035,1,0,0:0:0:0:
192,192,85249,1,0,0:0:0:0:
320,192,85356,1,0,0:0:0:0:
64,192,85463,1,2,0:0:0:0:
192,192,85463,1,0,0:0:0:0:
448,192,85463,1,0,0:0:0:0:
448,192,85785,1,0,0:0:0:0:
64,192,85892,128,8,85999:0:0:0:0:
192,192,85892,1,0,0:0:0:0:
320,192,85892,128,0,85999:0:0:0:0:
448,192,85999,1,0,0:0:0:0:
192,192,86106,1,0,0:0:0:0:
320,192,86213,1,0,0:0:0:0:
64,192,86321,1,2,0:0:0:0:
192,192,86321,1,0,0:0:0:0:
448,192,86321,1,0,0:0:0:0:
64,192,86535,1,2,0:0:0:0:
320,192,86535,1,0,0:0:0:0:
448,192,86535,1,0,0:0:0:0:
64,192,86749,1,8,0:0:0:0:
192,192,86749,1,0,0:0:0:0:
320,192,87071,1,8,0:0:0:0:
64,192,87178,128,2,87821:0:0:0:0:
192,192,87178,1,0,0:0:0:0:
448,192,87178,1,0,0:0:0:0:
320,192,87606,1,8,0:0:0:0:
448,192,87606,1,0,0:0:0:0:
192,192,87821,1,0,0:0:0:0:
448,192,87821,1,0,0:0:0:0:
64,192,88035,1,2,0:0:0:0:
320,192,88035,1,0,0:0:0:0:
448,192,88035,1,0,0:0:0:0:
64,192,88463,1,2,0:0:0:0:
192,192,88463,1,0,0:0:0:0:
64,192,88892,128,2,88999:0:0:0:0:
320,192,88892,1,0,0:0:0:0:
448,192,88892,128,0,88999:0:0:0:0:
192,192,88999,1,0,0:0:0:0:
320,192,89106,1,0,0:0:0:0:
64,192,89321,1,2,0:0:0:0:
192,192,89321,1,0,0:0:0:0:
64,192,89749,1,2,0:0:0:0:
320,192,89749,1,4,0:0:0:0:
448,192,89749,1,0,0:0:0:0:
192,192,89963,1,0,0:0:0:0:
320,192,90071,1,0,0:0:0:0:
64,192,90178,1,8,0:0:0:0:
448,192,90178,1,2,0:0:0:0:
192,192,90392,1,0,0:0:0:0:
448,192,90499,1,0,0:0:0:0:
64,192,90606,1,2,0:0:0:0:
320,192,90606,1,0,0:0:0:0:
448,192,90821,1,0,0:0:0:0:
64,192,91035,1,8,0:0:0:0:
192,192,91035,1,2,0:0:0:0:
320,192,91249,1,0,0:0:0:0:
192,192,91356,1,0,0:0:0:0:
320,192,91463,1,2,0:0:0:0:
448,192,91463,1,0,0:0:0:0:
192,192,91678,1,0,0:0:0:0:
320,192,91785,1,0,0:0:0:0:
192,192,91892,1,8,0:0:0:0:
448,192,91892,1,2,0:0:0:0:
320,192,92106,1,0,0:0:0:0:
192,192,92213,1,0,0:0:0:0:
64,192,92321,1,2,0:0:0:0:
320,192,92321,1,0,0:0:0:0:
448,192,92535,1,0,0:0:0:0:
64,192,92642,1,0,0:0:0:0:
192,192,92749,1,8,0:0:0:0:
320,192,92749,1,2,0:0:0:0:
64,192,92963,1,0,0:0:0:0:
448,192,93071,1,0,0:0:0:0:
192,192,93178,1,2,0:0:0:0:
320,192,93178,1,0,0:0:0:0:
64,192,93392,1,0,0:0:0:0:
320,192,93499,1,0,0:0:0:0:
192,192,93606,1,8,0:0:0:0:
448,192,93606,1,2,0:0:0:0:
64,192,93821,1,0,0:0:0:0:
320,192,93928,1,0,0:0:0:0:
64,192,94035,1,2,0:0:0:0:
192,192,94035,1,0,0:0:0:0:
192,192,94249,1,0,0:0:0:0:
448,192,94249,1,0,0:0:0:0:
64,192,94463,1,8,0:0:0:0:
448,192,94463,1,2,0:0:0:0:
192,192,94678,1,0,0:0:0:0:
320,192,94785,1,0,0:0:0:0:
192,192,94892,1,2,0:0:0:0:
448,192,94892,1,0,0:0:0:0:
320,192,95106,1,0,0:0:0:0:
448,192,95106,1,0,0:0:0:0:
64,192,95321,1,8,0:0:0:0:
320,192,95321,1,2,0:0:0:0:
192,192,95535,1,0,0:0:0:0:
320,192,95642,1,0,0:0:0:0:
64,192,95749,1,2,0:0:0:0:
192,192,95749,1,0,0:0:0:0:
448,192,95963,1,0,0:0:0:0:
64,192,96071,1,0,0:0:0:0:
192,192,96178,1,8,0:0:0:0:
320,192,96178,1,2,0:0:0:0:
448,192,96285,1,0,0:0:0:0:
64,192,96392,1,0,0:0:0:0:
192,192,96499,1,0,0:0:0:0:
64,192,96606,1,2,0:0:0:0:
320,192,96606,1,4,0:0:0:0:
448,192,96606,1,0,0:0:0:0:
192,192,96821,128,0,96928:0:0:0:0:
320,192,96821,128,0,96928:0:0:0:0:
448,192,96928,1,0,0:0:0:0:
64,192,97035,1,8,0:0:0:0:
192,192,97035,1,2,0:0:0:0:
320,192,97035,1,0,0:0:0:0:
64,192,97249,128,0,97356:0:0:0:0:
448,192,97249,128,0,97356:0:0:0:0:
192,192,97356,1,0,0:0:0:0:
320,192,97463,1,2,0:0:0:0:
448,192,97463,1,0,0:0:0:0:
64,192,97678,128,0,97785:0:0:0:0:
320,192,97678,128,0,97785:0:0:0:0:
64,192,97892,1,8,0:0:0:0:
192,192,97892,1,2,0:0:0:0:
448,192,97892,1,0,0:0:0:0:
320,192,98106,128,0,98213:0:0:0:0:
448,192,98106,128,0,98213:0:0:0:0:
192,192,98213,1,0,0:0:0:0:
64,192,98321,1,2,0:0:0:0:
320,192,98321,1,0,0:0:0:0:
192,192,98428,1,0,0:0:0:0:
64,192,98535,128,0,98642:0:0:0:0:
448,192,98535,128,0,98642:0:0:0:0:
320,192,98642,1,0,0:0:0:0:
64,192,98749,1,8,0:0:0:0:
192,192,98749,1,2,0:0:0:0:
448,192,98749,1,0,0:0:0:0:
64,192,98963,128,0,99071:0:0:0:0:
320,192,98963,128,0,99071:0:0:0:0:
192,192,99071,1,0,0:0:0:0:
320,192,99178,1,2,0:0:0:0:
448,192,99178,1,0,0:0:0:0:
192,192,99285,1,0,0:0:0:0:
64,192,99392,128,0,99499:0:0:0:0:
448,192,99392,128,0,99499:0:0:0:0:
320,192,99499,1,0,0:0:0:0:
64,192,99606,1,8,0:0:0:0:
192,192,99606,128,2,99713:0:0:0:0:
448,192,99606,128,0,99713:0:0:0:0:
320,192,99713,1,0,0:0:0:0:
64,192,99821,128,0,99928:0:0:0:0:
192,192,99821,128,0,99928:0:0:0:0:
320,192,100035,1,2,0:0:0:0:
448,192,100035,1,0,0:0:0:0:
192,192,100249,128,0,100356:0:0:0:0:
448,192,100249,128,0,100356:0:0:0:0:
320,192,100356,1,0,0:0:0:0:
64,192,100463,1,8,0:0:0:0:
192,192,100463,1,2,0:0:0:0:
448,192,100463,1,0,0:0:0:0:
64,192,100678,128,0,100785:0:0:0:0:
320,192,100678,128,0,100785:0:0:0:0:
192,192,100785,1,0,0:0:0:0:
320,192,100892,1,2,0:0:0:0:
448,192,100892,1,0,0:0:0:0:
64,192,101106,128,8,101213:0:0:0:0:
448,192,101106,128,0,101213:0:0:0:0:
64,192,101321,1,8,0:0:0:0:
192,192,101321,1,2,0:0:0:0:
320,192,101321,1,0,0:0:0:0:
192,192,101535,128,0,101642:0:0:0:0:
448,192,101535,128,0,101642:0:0:0:0:
320,192,101642,1,0,0:0:0:0:
64,192,101749,1,2,0:0:0:0:
192,192,101749,1,0,0:0:0:0:
320,192,101856,1,0,0:0:0:0:
64,192,101963,1,0,0:0:0:0:
448,192,101963,1,0,0:0:0:0:
192,192,102178,1,8,0:0:0:0:
320,192,102178,1,2,0:0:0:0:
64,192,102285,1,0,0:0:0:0:
320,192,102392,1,0,0:0:0:0:
448,192,102392,1,0,0:0:0:0:
64,192,102499,1,0,0:0:0:0:
192,192,102499,1,0,0:0:0:0:
320,192,102606,1,2,0:0:0:0:
448,192,102606,1,0,0:0:0:0:
64,192,102821,1,0,0:0:0:0:
448,192,102821,1,0,0:0:0:0:
192,192,102928,1,0,0:0:0:0:
320,192,102928,1,0,0:0:0:0:
64,192,103035,1,8,0:0:0:0:
448,192,103035,1,2,0:0:0:0:
192,192,103142,1,0,0:0:0:0:
320,192,103249,1,0,0:0:0:0:
192,192,103356,1,0,0:0:0:0:
64,192,103463,1,0,0:0:0:0:
320,192,103463,1,0,0:0:0:0:
448,192,103463,1,0,0:0:0:0:
192,192,103678,1,0,0:0:0:0:
320,192,103892,1,0,0:0:0:0:
192,192,104106,1,0,0:0:0:0:
448,192,104321,1,0,0:0:0:0:
192,192,104642,1,0,0:0:0:0:
320,192,104749,1,0,0:0:0:0:
64,192,104856,1,0,0:0:0:0:
320,192,104963,1,0,0:0:0:0:
192,192,105071,1,0,0:0:0:0:
448,192,105178,1,0,0:0:0:0:
320,192,105392,1,0,0:0:0:0:
64,192,105499,1,0,0:0:0:0:
192,192,105606,1,0,0:0:0:0:
320,192,105821,1,0,0:0:0:0:
64,192,106035,1,0,0:0:0:60:snare.wav
448,192,106035,1,0,0:0:0:0:
192,192,106142,1,0,0:0:0:60:snare.wav
320,192,106142,1,0,0:0:0:0:
64,192,106249,1,0,0:0:0:60:snare.wav
448,192,106249,1,0,0:0:0:0:
192,192,106356,1,0,0:0:0:60:snare.wav
320,192,106356,1,0,0:0:0:0:
64,192,106463,1,0,0:0:0:60:snare.wav
448,192,106463,1,0,0:0:0:0:
192,192,106571,1,0,0:0:0:60:snare.wav
320,192,106571,1,0,0:0:0:0:
64,192,106678,1,0,0:0:0:60:snare.wav
448,192,106678,1,0,0:0:0:0:
192,192,106785,1,0,0:0:0:60:snare.wav
64,192,106892,1,2,0:0:0:0:
320,192,106892,1,4,0:0:0:0:
448,192,106892,1,0,0:0:0:0:
192,192,107106,1,0,0:0:0:0:
320,192,107106,1,0,0:0:0:0:
64,192,107213,1,0,0:0:0:0:
192,192,107321,1,8,0:0:0:0:
320,192,107321,1,2,0:0:0:0:
448,192,107321,1,0,0:0:0:0:
64,192,107535,1,0,0:0:0:0:
448,192,107535,1,0,0:0:0:0:
192,192,107642,1,0,0:0:0:0:
64,192,107749,1,2,0:0:0:0:
320,192,107749,1,0,0:0:0:0:
192,192,107963,1,0,0:0:0:0:
320,192,108071,1,0,0:0:0:0:
448,192,108071,1,0,0:0:0:0:
64,192,108178,1,8,0:0:0:0:
192,192,108178,1,2,0:0:0:0:
320,192,108392,128,0,108499:0:0:0:0:
448,192,108392,128,0,108499:0:0:0:0:
64,192,108606,1,2,0:0:0:0:
448,192,108606,1,0,0:0:0:0:
64,192,108821,1,0,0:0:0:0:
320,192,108821,1,0,0:0:0:0:
448,192,108928,1,0,0:0:0:0:
64,192,109035,1,8,0:0:0:0:
192,192,109035,1,2,0:0:0:0:
320,192,109035,1,0,0:0:0:0:
192,192,109249,1,0,0:0:0:0:
448,192,109249,1,0,0:0:0:0:
320,192,109356,1,0,0:0:0:0:
64,192,109463,1,2,0:0:0:0:
448,192,109463,1,0,0:0:0:0:
320,192,109678,1,0,0:0:0:0:
64,192,109785,1,0,0:0:0:0:
192,192,109785,1,0,0:0:0:0:
320,192,109892,1,8,0:0:0:0:
448,192,109892,1,2,0:0:0:0:
64,192,110106,128,0,110213:0:0:0:0:
192,192,110106,128,0,110213:0:0:0:0:
64,192,110321,1,2,0:0:0:0:
448,192,110321,1,0,0:0:0:0:
192,192,110428,1,0,0:0:0:0:
320,192,110535,1,0,0:0:0:0:
448,192,110535,1,0,0:0:0:0:
64,192,110642,1,0,0:0:0:0:
192,192,110749,1,8,0:0:0:0:
320,192,110749,1,2,0:0:0:0:
448,192,110749,1,0,0:0:0:0:
64,192,110963,1,0,0:0:0:0:
192,192,110963,1,0,0:0:0:0:
320,192,111071,1,0,0:0:0:0:
64,192,111178,1,2,0:0:0:0:
448,192,111178,1,0,0:0:0:0:
320,192,111392,1,0,0:0:0:0:
448,192,111392,1,0,0:0:0:0:
192,192,111499,1,0,0:0:0:0:
64,192,111606,1,8,0:0:0:0:
320,192,111606,1,2,0:0:0:0:
448,192,111606,1,0,0:0:0:0:
64,192,111821,1,0,0:0:0:0:
192,192,111821,1,0,0:0:0:0:
448,192,111928,1,0,0:0:0:0:
192,192,112035,1,2,0:0:0:0:
320,192,112035,1,0,0:0:0:0:
64,192,112142,1,0,0:0:0:0:
320,192,112249,1,0,0:0:0:0:
448,192,112249,1,0,0:0:0:0:
64,192,112463,1,8,0:0:0:0:
192,192,112463,1,2,0:0:0:0:
448,192,112463,1,0,0:0:0:0:
320,192,112571,1,0,0:0:0:0:
64,192,112678,1,0,0:0:0:0:
192,192,112678,1,0,0:0:0:0:
320,192,112892,1,2,0:0:0:0:
448,192,112892,1,0,0:0:0:0:
192,192,112999,1,0,0:0:0:0:
64,192,113106,1,0,0:0:0:0:
448,192,113106,1,0,0:0:0:0:
64,192,113321,1,8,0:0:0:0:
192,192,113321,1,2,0:0:0:0:
320,192,113321,1,0,0:0:0:0:
448,192,113428,1,0,0:0:0:0:
64,192,113535,1,0,0:0:0:0:
192,192,113535,1,0,0:0:0:0:
192,192,113749,1,2,0:0:0:0:
320,192,113749,1,4,0:0:0:0:
448,192,113749,1,0,0:0:0:0:
64,192,113963,1,0,0:0:0:0:
320,192,113963,1,0,0:0:0:0:
192,192,114071,1,0,0:0:0:0:
64,192,114178,1,8,0:0:0:0:
320,192,114178,1,2,0:0:0:0:
448,192,114178,1,0,0:0:0:0:
192,192,114392,1,0,0:0:0:0:
448,192,114392,1,0,0:0:0:0:
64,192,114499,1,0,0:0:0:0:
192,192,114606,1,2,0:0:0:0:
320,192,114606,1,0,0:0:0:0:
448,192,114821,1,0,0:0:0:0:
64,192,114928,1,0,0:0:0:0:
192,192,114928,1,0,0:0:0:0:
320,192,115035,1,8,0:0:0:0:
448,192,115035,1,2,0:0:0:0:
64,192,115249,128,0,115356:0:0:0:0:
192,192,115249,128,0,115356:0:0:0:0:
192,192,115463,1,2,0:0:0:0:
448,192,115463,1,0,0:0:0:0:
64,192,115678,1,0,0:0:0:0:
448,192,115678,1,0,0:0:0:0:
192,192,115785,1,0,0:0:0:0:
64,192,115892,1,8,0:0:0:0:
320,192,115892,1,2,0:0:0:0:
448,192,115892,1,0,0:0:0:0:
192,192,116106,1,0,0:0:0:0:
320,192,116106,1,0,0:0:0:0:
64,192,116213,1,0,0:0:0:0:
192,192,116321,1,2,0:0:0:0:
448,192,116321,1,0,0:0:0:0:
64,192,116535,1,0,0:0:0:0:
320,192,116642,1,0,0:0:0:0:
448,192,116642,1,0,0:0:0:0:
64,192,116749,1,8,0:0:0:0:
192,192,116749,1,2,0:0:0:0:
320,192,116963,128,0,117071:0:0:0:0:
448,192,116963,128,0,117071:0:0:0:0:
64,192,117178,1,2,0:0:0:0:
192,192,117178,1,0,0:0:0:0:
320,192,117178,1,0,0:0:0:0:
64,192,117392,1,2,0:0:0:0:
192,192,117392,1,0,0:0:0:0:
448,192,117392,1,0,0:0:0:0:
320,192,117606,1,8,0:0:0:0:
448,192,117606,1,0,0:0:0:0:
64,192,117821,1,0,0:0:0:0:
192,192,117821,1,0,0:0:0:0:
320,192,117928,1,0,0:0:0:0:
64,192,118035,1,2,0:0:0:0:
192,192,118035,1,0,0:0:0:0:
448,192,118035,1,0,0:0:0:0:
64,192,118249,1,2,0:0:0:0:
320,192,118249,1,0,0:0:0:0:
448,192,118249,1,0,0:0:0:0:
192,192,118356,1,0,0:0:0:0:
320,192,118463,1,8,0:0:0:0:
448,192,118463,1,0,0:0:0:0:
192,192,118678,1,0,0:0:0:0:
320,192,118785,1,0,0:0:0:0:
64,192,118892,1,2,0:0:0:0:
192,192,118892,1,0,0:0:0:0:
448,192,118892,1,0,0:0:0:0:
64,192,119106,1,2,0:0:0:0:
320,192,119106,1,0,0:0:0:0:
448,192,119106,1,0,0:0:0:0:
64,192,119321,1,8,0:0:0:0:
192,192,119321,1,2,0:0:0:0:
448,192,119321,1,0,0:0:0:0:
320,192,119535,1,0,0:0:0:0:
192,192,119642,1,0,0:0:0:0:
64,192,119749,1,2,0:0:0:0:
320,192,119749,1,0,0:0:0:0:
448,192,119749,1,0,0:0:0:0:
448,192,120071,1,0,0:0:0:0:
64,192,120178,128,8,120285:0:0:0:0:
192,192,120178,1,0,0:0:0:0:
320,192,120178,128,0,120285:0:0:0:0:
448,192,120285,1,0,0:0:0:0:
192,192,120392,1,0,0:0:0:0:
320,192,120499,1,0,0:0:0:0:
64,192,120606,1,2,0:0:0:0:
192,192,120606,1,0,0:0:0:0:
448,192,120606,1,0,0:0:0:0:
64,192,120821,1,2,0:0:0:0:
320,192,120821,1,0,0:0:0:0:
448,192,120821,1,0,0:0:0:0:
64,192,121035,1,8,0:0:0:0:
192,192,121035,1,2,0:0:0:0:
448,192,121035,1,0,0:0:0:0:
320,192,121249,1,0,0:0:0:0:
192,192,121356,1,0,0:0:0:0:
64,192,121463,1,2,0:0:0:0:
320,192,121463,1,0,0:0:0:0:
448,192,121463,1,0,0:0:0:0:
64,192,121785,1,0,0:0:0:0:
192,192,121892,128,8,121999:0:0:0:0:
320,192,121892,1,0,0:0:0:0:
448,192,121892,128,0,121999:0:0:0:0:
64,192,121999,1,0,0:0:0:0:
320,192,122106,1,0,0:0:0:0:
192,192,122213,1,0,0:0:0:0:
64,192,122321,1,2,0:0:0:0:
320,192,122321,1,0,0:0:0:0:
448,192,122321,1,0,0:0:0:0:
64,192,122535,1,2,0:0:0:0:
192,192,122535,1,0,0:0:0:0:
448,192,122535,1,0,0:0:0:0:
320,192,122749,1,8,0:0:0:0:
448,192,122749,1,0,0:0:0:0:
192,192,123071,1,8,0:0:0:0:
64,192,123178,1,2,0:0:0:0:
320,192,123178,1,0,0:0:0:0:
448,192,123178,128,0,123821:0:0:0:0:
64,192,123606,1,8,0:0:0:0:
192,192,123606,1,0,0:0:0:0:
64,192,123821,1,0,0:0:0:0:
320,192,123821,1,0,0:0:0:0:
64,192,124035,1,2,0:0:0:0:
192,192,124035,1,0,0:0:0:0:
448,192,124035,1,0,0:0:0:0:
320,192,124463,1,2,0:0:0:0:
448,192,124463,1,0,0:0:0:0:
64,192,124892,128,2,124999:0:0:0:0:
192,192,124892,1,0,0:0:0:0:
448,192,124892,128,0,124999:0:0:0:0:
320,192,124999,1,0,0:0:0:0:
192,192,125106,1,0,0:0:0:0:
320,192,125321,1,2,0:0:0:0:
448,192,125321,1,0,0:0:0:0:
