osu file format v14

[General]
AudioFilename: audio.mp3
AudioLeadIn: 0
PreviewTime: 292755
Countdown: 0
SampleSet: Soft
StackLeniency: 0.7
Mode: 0
LetterboxInBreaks: 0
WidescreenStoryboard: 0

[Editor]
DistanceSpacing: 0.6
BeatDivisor: 4
GridSize: 32
TimelineZoom: 1.8

[Metadata]
Title:Jibun REST@RT (M@STER VERSION)
TitleUnicode:Jibun REST@RT (M@STER VERSION)
Artist:765PRO ALLSTARS
ArtistUnicode:765PRO ALLSTARS
Creator:Gears-
Version:REST@RT
Source:THE iDOLM@STER
Tags:Setz Setz206 anime japanese pop jpop j-pop video game idolmaster アイドルマスター im@s ima restart master insert song 田中秀和 tanaka hidekazu 佐々木宏人 sasaki hiroto iori minase haruka amami ami futami mami futami makoto kikuchi
BeatmapID:3403960
BeatmapSetID:1667085

[Difficulty]
HPDrainRate:5
CircleSize:4.2
OverallDifficulty:8
ApproachRate:9
SliderMultiplier:1.8
SliderTickRate:1

[Events]
//Background and Video events
0,0,"bg.jpg",0,0
//Break Periods
//Storyboard Layer 0 (Background)
//Storyboard Layer 1 (Fail)
//Storyboard Layer 2 (Pass)
//Storyboard Layer 3 (Foreground)
//Storyboard Layer 4 (Overlay)
//Storyboard Sound Samples

[TimingPoints]
1703,350.877192982456,4,2,2,70,1,0
1703,-125,4,2,2,70,0,0
4071,-125,4,2,2,5,0,0
4159,-125,4,2,2,70,0,0
5299,-125,4,2,2,5,0,0
5387,-125,4,2,2,75,0,0
6878,-125,4,2,2,5,0,0
6966,-125,4,2,2,75,0,0
12492,-125,4,2,2,5,0,0
12580,-83.3333333333333,4,2,2,75,0,0
12931,-100,4,2,2,75,0,0
24422,-100,4,2,2,5,0,0
24510,-111.111111111111,4,2,2,75,0,0
41615,-111.111111111111,4,2,2,5,0,0
41702,-111.111111111111,4,2,2,75,0,0
46615,-100,4,2,2,75,0,0
61264,-100,4,2,2,5,0,0
61352,-100,4,2,2,75,0,0
67667,-90.9090909090909,4,2,2,80,0,0
68632,-90.9090909090909,4,2,2,5,0,0
68720,-83.3333333333333,4,2,2,80,0,0
68983,-83.3333333333333,4,2,2,5,0,0
69071,-90.9090909090909,4,2,2,80,0,1
74685,-83.3333333333333,4,2,2,84,0,1
75036,-90.9090909090909,4,2,2,80,0,1
80299,-83.3333333333333,4,2,2,84,0,1
80474,-90.9090909090909,4,2,2,80,0,1
85913,-83.3333333333333,4,2,2,84,0,1
86088,-90.9090909090909,4,2,2,80,0,1
88720,-83.3333333333333,4,2,2,84,0,1
91439,-83.3333333333333,4,2,2,84,0,0
91527,-90.9090909090909,4,2,2,80,0,1
97141,-83.3333333333333,4,2,2,84,0,1
97492,-90.9090909090909,4,2,2,80,0,1
99597,-90.9090909090909,4,2,2,80,0,1
102755,-83.3333333333333,4,2,2,84,0,1
102931,-90.9090909090909,4,2,2,80,0,1
109773,-83.3333333333333,4,2,2,84,0,1
110124,-83.3333333333333,4,2,2,84,0,0
110474,-100,4,2,2,70,0,0
111088,-100,4,2,2,5,0,0
111176,-100,4,2,2,70,0,0
113983,-100,4,2,2,75,0,0
116352,-100,4,2,2,5,0,0
116439,-100,4,2,2,75,0,0
125211,-100,4,2,2,79,0,0
125562,-100,4,2,2,75,0,0
130825,-100,4,2,2,79,0,0
131176,-100,4,2,2,75,0,0
136439,-86.9565217391304,4,2,2,80,0,0
136790,-111.111111111111,4,2,2,70,0,0
147667,-86.9565217391304,4,2,2,80,0,0
148018,-111.111111111111,4,2,2,70,0,0
158895,-86.9565217391304,4,2,2,80,0,0
159159,-100,4,2,2,5,0,0
159246,-100,4,2,2,70,0,0
168720,-90.9090909090909,4,2,2,80,0,0
168983,-100,4,2,2,5,0,0
169071,-100,4,2,2,80,0,0
170387,-100,4,2,2,5,0,0
170474,-100,4,2,2,70,0,0
173545,-100,4,2,2,5,0,0
173632,-100,4,2,2,70,0,0
179948,-100,4,2,2,80,0,0
180650,-90.9090909090909,4,2,2,70,0,0
181001,-83.3333333333333,4,2,2,80,0,0
181264,-83.3333333333333,4,2,2,5,0,0
181352,-90.9090909090909,4,2,2,84,0,1
181702,-90.9090909090909,4,2,2,80,0,1
186966,-83.3333333333333,4,2,2,84,0,1
187317,-90.9090909090909,4,2,2,80,0,1
189422,-83.3333333333333,4,2,2,80,0,1
189685,-83.3333333333333,4,2,2,5,0,1
189773,-90.9090909090909,4,2,2,80,0,1
192580,-83.3333333333333,4,2,2,84,0,1
192755,-90.9090909090909,4,2,2,80,0,1
201001,-83.3333333333333,4,2,2,84,0,1
203720,-83.3333333333333,4,2,2,84,0,0
203808,-83.3333333333333,4,2,2,84,0,1
204159,-90.9090909090909,4,2,2,80,0,1
215036,-83.3333333333333,4,2,2,84,0,1
215211,-90.9090909090909,4,2,2,80,0,1
222053,-83.3333333333333,4,2,2,84,0,1
222404,-100,4,2,2,70,0,0
223106,-83.3333333333333,4,2,2,80,0,0
223369,-83.3333333333333,4,2,2,5,0,0
223457,-90.9090909090909,4,2,2,80,0,0
223632,-100,4,2,2,70,0,0
226264,-250,4,2,2,60,0,0
228720,-250,4,2,2,5,0,0
229071,-250,4,2,2,60,0,0
231527,-250,4,2,2,5,0,0
231878,-250,4,2,2,60,0,0
233895,-250,4,2,2,5,0,0
233983,-250,4,2,2,60,0,0
234597,-250,4,2,2,5,0,0
234685,-250,4,2,2,60,0,0
236088,-250,4,2,2,60,0,0
237141,-250,4,2,2,5,0,0
237492,-181.818181818182,4,2,2,60,0,0
238194,-181.818181818182,4,2,2,60,0,0
238545,-181.818181818182,4,2,2,60,0,0
242404,-181.818181818182,4,2,2,5,0,0
242755,-181.818181818182,4,2,2,60,0,0
243808,-181.818181818182,4,2,2,5,0,0
244159,-181.818181818182,4,2,2,60,0,0
244510,-142.857142857143,4,2,2,65,0,0
245913,-250,4,2,2,60,0,0
247229,-250,4,2,2,5,0,0
247317,-250,4,2,2,60,0,0
248281,-250,4,2,2,5,0,0
248369,-83.3333333333333,4,2,2,80,0,0
248632,-83.3333333333333,4,2,2,5,0,0
248720,-90.9090909090909,4,2,2,84,0,1
248895,-90.9090909090909,4,2,2,80,0,1
259948,-90.9090909090909,4,2,2,84,0,1
260124,-90.9090909090909,4,2,2,80,0,1
269773,-83.3333333333333,4,2,2,84,0,0
270474,-100,4,2,2,70,0,0
270825,-83.3333333333333,4,2,2,80,0,0
271088,-83.3333333333333,4,2,2,5,0,0
271176,-200,4,2,2,80,0,0
272229,-200,4,2,2,65,0,0
273632,-200,4,2,2,65,0,0
273983,-166.666666666667,4,2,2,75,0,0
274334,-166.666666666667,4,2,2,65,0,0
276790,-200,4,2,2,75,0,0
277843,-200,4,2,2,65,0,0
279246,-200,4,2,2,5,0,0
279597,-142.857142857143,4,2,2,75,0,0
279685,-142.857142857143,4,2,2,70,0,0
282404,-125,4,2,2,70,0,0
288018,-111.111111111111,4,2,2,75,0,0
290825,-100,4,2,2,80,0,0
293281,-83.3333333333333,4,2,2,80,0,0
293545,-83.3333333333333,4,2,2,5,0,0
293632,-90.9090909090909,4,2,2,80,0,1
299246,-90.9090909090909,4,2,2,84,0,1
299597,-90.9090909090909,4,2,2,80,0,1
304860,-90.9090909090909,4,2,2,84,0,1
305036,-90.9090909090909,4,2,2,80,0,1
311878,-90.9090909090909,4,2,2,84,0,1
312580,-100,4,2,2,70,0,1
312931,-83.3333333333333,4,2,2,80,0,1
313194,-83.3333333333333,4,2,2,5,0,1
313281,-100,4,2,2,70,0,0
316088,-95.2380952380952,4,2,2,84,0,0
316439,-95.2380952380952,4,2,2,80,0,0
327317,-95.2380952380952,4,2,2,84,0,0
327492,-95.2380952380952,4,2,2,80,0,0
337141,-83.3333333333333,4,2,2,84,0,0
338194,-76.9230769230769,4,2,2,84,0,0
338457,-76.9230769230769,4,2,2,5,0,0
338545,-76.9230769230769,4,2,2,84,0,0
342053,-95.2380952380952,4,2,2,5,0,0

[Colours]
Combo1 : 255,128,255
Combo2 : 128,128,192
Combo3 : 128,128,255
Combo4 : 106,255,255

[HitObjects]
307,254,1703,6,0,P|337:189|309:113,1,144,6|2,0:0|0:0,0:0:0:0:
317,122,2404,1,2,0:0:0:0:
223,200,2755,5,2,0:0:0:0:
307,254,2931,2,0,P|376:273|446:232,1,144,2|2,0:0|0:0,0:0:0:0:
350,347,3457,2,0,P|314:342|282:328,1,72,2|2,0:0|0:0,0:0:0:0:
223,200,3808,2,0,L|113:210,1,108,2|0,0:0|0:0,0:0:0:0:
91,213,4159,1,2,0:0:0:0:
56,16,4510,6,0,B|106:38|168:2|217:24,1,144,2|2,0:0|0:0,0:0:0:0:
91,213,5036,2,0,P|76:162|84:107,1,108,2|0,0:0|0:0,0:0:0:0:
88,93,5387,2,0,P|52:87|0:92,2,72,2|2|2,0:0|0:0|0:0,0:0:0:0:
181,152,5913,5,2,0:0:0:0:
181,152,6088,2,0,P|199:115|197:69,2,72,2|2|2,0:0|0:0|0:0,0:0:0:0:
289,187,6615,2,0,P|345:188|405:149,1,108,2|0,0:0|0:0,0:0:0:0:
404,151,6966,1,2,0:0:0:0:
467,270,7141,1,2,0:0:0:0:
508,76,7317,6,0,B|457:81|457:81|410:72|410:72|361:77,2,144,2|2|2,0:0|0:0|0:0,0:0:0:0:
465,258,8369,5,2,0:0:0:0:
465,258,8545,2,0,P|422:253|394:242,1,72,2|0,0:0|0:0,0:0:0:0:
358,168,8895,1,2,0:0:0:0:
315,292,9071,2,0,L|332:378,1,72,0|2,0:0|0:0,0:0:0:0:
235,268,9422,2,0,P|176:239|206:178,1,144,2|2,0:0|0:0,0:0:0:0:
41,345,10124,6,0,P|115:334|150:248,1,144,2|2,0:0|0:0,0:0:0:0:
58,182,10650,2,0,P|55:230|79:269,1,72,2|0,0:0|0:0,0:0:0:0:
190,191,11001,2,0,P|193:143|169:104,1,72,2|0,0:0|0:0,0:0:0:0:
160,272,11352,6,0,P|208:275|247:251,1,72,2|0,0:0|0:0,0:0:0:0:
270,192,11702,1,2,0:0:0:0:
352,262,11878,2,0,L|357:190,1,72,2|2,0:0|0:0,0:0:0:0:
348,44,12229,2,0,P|297:19|234:33,1,108,2|0,0:0|0:0,0:0:0:0:
208,84,12580,2,0,P|128:93|98:24,1,161.999995056153,10|0,0:0|0:0,0:0:0:0:
97,28,12931,6,0,P|86:78|59:118,1,90,6|0,1:2|0:0,0:0:0:0:
6,48,13281,1,10,1:2:0:0:
6,48,13369,1,0,0:0:0:0:
6,48,13457,1,0,0:0:0:0:
104,185,13632,2,0,P|149:183|195:161,1,90,2|0,1:2|0:0,0:0:0:0:
256,96,13983,1,10,0:0:0:0:
326,233,14159,6,0,L|337:134,1,90,2|0,0:0|1:2,0:0:0:0:
343,70,14422,1,0,0:0:0:0:
345,57,14510,1,2,0:0:0:0:
245,218,14685,1,10,0:0:0:0:
440,170,14860,1,0,0:0:0:0:
440,170,14948,1,0,0:0:0:0:
440,170,15036,2,0,L|430:259,1,90,2|0,1:2|0:0,0:0:0:0:
363,334,15387,1,10,0:0:0:0:
338,168,15562,1,0,0:0:0:0:
242,315,15738,6,0,P|196:311|147:283,1,90,2|0,1:2|0:0,0:0:0:0:
110,137,16088,1,8,0:0:0:0:
110,137,16176,1,0,0:0:0:0:
110,137,16264,2,0,L|103:236,1,90,2|0,0:0|1:2,0:0:0:0:
158,69,16527,1,0,0:0:0:0:
158,69,16615,2,0,P|121:55|58:64,1,90,2|8,0:0|0:0,0:0:0:0:
193,161,16966,6,0,P|237:165|279:150,1,90,2|0,0:0|0:0,0:0:0:0:
336,103,17229,1,0,0:0:0:0:
341,90,17317,1,2,0:0:0:0:
231,49,17492,1,8,0:0:0:0:
354,200,17667,1,2,0:0:0:0:
354,200,17755,1,0,0:0:0:0:
354,200,17843,2,0,P|424:160|428:68,1,180,2|10,1:2|1:2,0:0:0:0:
260,205,18369,1,0,1:2:0:0:
260,205,18457,1,0,0:0:0:0:
260,205,18545,6,0,P|266:260|298:294,1,90,6|0,1:2|0:0,0:0:0:0:
167,170,18895,2,0,L|71:182,1,90,10|0,0:0|0:0,0:0:0:0:
238,118,19246,2,0,P|306:119|346:217,1,180,2|10,1:2|0:0,0:0:0:0:
318,365,19773,6,0,P|278:359|216:308,1,90,2|0,0:0|1:2,0:0:0:0:
208,266,20036,1,0,0:0:0:0:
203,254,20124,1,2,0:0:0:0:
115,368,20299,5,10,0:0:0:0:
11,263,20474,1,0,0:0:0:0:
11,263,20562,1,0,0:0:0:0:
11,263,20650,2,0,L|22:166,1,90,2|0,1:2|0:0,0:0:0:0:
29,68,21001,1,10,0:0:0:0:
18,55,21352,6,0,L|217:61,1,180,2|8,1:2|0:0,0:0:0:0:
252,127,21790,1,0,0:0:0:0:
252,127,21878,2,0,B|214:138|214:138|153:136,1,90,2|0,0:0|1:2,0:0:0:0:
272,43,22141,1,0,0:0:0:0:
272,43,22229,2,0,P|320:74|335:104,1,90,2|8,0:0|0:0,0:0:0:0:
383,173,22580,6,0,P|410:138|417:94,1,90,2|0,0:0|1:2,0:0:0:0:
386,26,22843,1,0,0:0:0:0:
373,14,22931,1,2,0:0:0:0:
297,181,23106,1,10,0:0:0:0:
497,162,23281,1,0,1:2:0:0:
497,162,23369,1,0,1:2:0:0:
497,162,23457,2,0,P|501:210|480:255,1,90,2|0,1:2|1:2,0:0:0:0:
417,94,23808,1,8,0:0:0:0:
389,330,23983,1,0,1:2:0:0:
389,330,24071,1,0,1:2:0:0:
389,330,24159,6,0,P|325:283|264:269,1,135,6|0,1:2|0:0,0:0:0:0:
271,269,24510,2,0,L|258:348,1,80.9999975280763,10|2,0:0|0:0,0:0:0:0:
310,103,24860,2,0,L|297:22,1,80.9999975280763,2|2,1:2|0:0,0:0:0:0:
255,187,25211,1,8,0:0:0:0:
255,187,25387,1,2,0:0:0:0:
378,130,25562,6,0,B|443:155|498:142|498:142|460:94,1,161.999995056153,2|10,1:2|0:0,0:0:0:0:
406,219,26088,2,0,P|398:258|402:298,1,80.9999975280763,2|0,0:0|1:2,0:0:0:0:
439,380,26439,1,2,0:0:0:0:
439,380,26615,1,8,0:0:0:0:
480,262,26790,1,2,0:0:0:0:
341,348,26966,6,0,L|180:333,1,161.999995056153,0|10,1:2|0:0,0:0:0:0:
51,236,27492,2,0,P|88:222|135:222,1,80.9999975280763,2|2,0:0|1:2,0:0:0:0:
211,257,27843,1,2,0:0:0:0:
263,162,28018,1,10,0:0:0:0:
126,144,28194,1,2,0:0:0:0:
278,165,28369,6,0,P|321:150|346:122,1,80.9999975280763,2|0,1:2|0:0,0:0:0:0:
358,37,28720,1,10,0:0:0:0:
429,180,28895,2,0,L|438:93,1,80.9999975280763,2|0,0:0|1:2,0:0:0:0:
512,271,29246,2,0,L|431:279,1,80.9999975280763,2|8,0:0|1:2,0:0:0:0:
346,210,29597,1,2,1:2:0:0:
295,333,29773,6,0,P|221:329|197:238,1,161.999995056153,0|10,1:2|0:0,0:0:0:0:
262,196,30299,1,2,0:0:0:0:
196,334,30474,2,0,P|154:331|117:315,1,80.9999975280763,2|2,1:2|0:0,0:0:0:0:
48,242,30825,1,10,0:0:0:0:
172,201,31001,1,2,0:0:0:0:
48,242,31176,6,0,L|33:346,1,80.9999975280763,2|0,1:2|0:0,0:0:0:0:
4,165,31527,1,10,0:0:0:0:
173,187,31702,2,0,B|187:75|187:75|143:97,1,161.999995056153,2|2,0:0|0:0,0:0:0:0:
245,14,32229,1,8,0:0:0:0:
321,152,32404,1,2,0:0:0:0:
321,152,32580,6,0,P|406:107|398:56,1,161.999995056153,2|8,1:2|0:0,0:0:0:0:
317,22,33106,1,0,0:0:0:0:
421,204,33281,2,0,P|458:171|474:135,1,80.9999975280763,0|2,1:2|0:0,0:0:0:0:
476,49,33632,1,10,0:0:0:0:
512,264,33808,1,0,0:0:0:0:
512,264,33983,6,0,P|430:297|339:287,1,161.999995056153,2|8,1:2|0:0,0:0:0:0:
215,196,34510,1,0,0:0:0:0:
215,196,34685,2,0,P|232:233|230:286,1,80.9999975280763,0|0,1:2|0:0,0:0:0:0:
180,350,35036,1,8,1:2:0:0:
314,214,35211,1,0,1:2:0:0:
93,282,35387,6,0,P|77:199|129:145,1,161.999995056153,4|10,1:2|0:0,0:0:0:0:
204,120,35913,1,2,0:0:0:0:
61,192,36088,2,0,P|14:165|-1:140,1,80.9999975280763,2|2,1:2|0:0,0:0:0:0:
41,66,36439,1,10,0:0:0:0:
41,66,36615,1,2,0:0:0:0:
204,120,36790,6,0,P|292:102|314:33,1,161.999995056153,2|8,1:2|0:0,0:0:0:0:
238,1,37317,1,2,0:0:0:0:
296,185,37492,2,0,P|335:164|366:118,1,80.9999975280763,0|2,1:2|0:0,0:0:0:0:
388,52,37843,1,8,0:0:0:0:
384,228,38018,1,2,0:0:0:0:
384,228,38194,6,0,L|398:315,1,80.9999975280763,0|0,1:2|0:0,0:0:0:0:
450,172,38545,1,10,0:0:0:0:
305,269,38720,2,0,B|250:278|250:278|145:259,1,161.999995056153,2|2,0:0|0:0,0:0:0:0:
209,356,39246,1,10,0:0:0:0:
253,192,39422,1,2,0:0:0:0:
117,348,39597,6,0,P|64:308|69:203,1,161.999995056153,2|10,1:2|0:0,0:0:0:0:
0,120,40124,2,0,L|80:127,1,80.9999975280763,2|0,0:0|1:2,0:0:0:0:
221,127,40474,1,2,0:0:0:0:
133,59,40650,1,8,1:2:0:0:
143,205,40825,1,2,1:2:0:0:
175,39,41001,6,0,L|86:29,1,80.9999975280763,0|0,1:2|0:0,0:0:0:0:
293,180,41352,2,0,P|328:129|315:70,1,121.499996292114,10|0,0:0|0:0,0:0:0:0:
301,42,41702,1,2,1:2:0:0:
375,221,41878,1,2,0:0:0:0:
375,221,42053,2,0,P|419:204|461:209,1,80.9999975280763,10|2,0:0|0:0,0:0:0:0:
307,274,42404,6,0,L|292:371,1,80.9999975280763,2|0,1:2|0:0,0:0:0:0:
228,208,42755,1,10,0:0:0:0:
136,358,42931,2,0,B|67:382|2:358|2:358|51:327,1,161.999995056153,2|2,0:0|0:0,0:0:0:0:
91,281,43457,1,8,0:0:0:0:
3,196,43632,1,2,0:0:0:0:
3,196,43808,6,0,B|130:167|130:167|107:206,1,161.999995056153,2|8,1:2|0:0,0:0:0:0:
57,97,44334,2,0,P|41:70|37:15,1,80.9999975280763,0|0,0:0|1:2,0:0:0:0:
135,14,44685,1,2,0:0:0:0:
210,170,44860,2,0,P|218:132|253:93,1,80.9999975280763,10|0,0:0|0:0,0:0:0:0:
420,111,45211,6,0,P|481:88|455:11,1,161.999995056153,2|8,1:2|0:0,0:0:0:0:
342,2,45738,1,0,0:0:0:0:
380,187,45913,2,0,L|367:277,1,80.9999975280763,0|0,1:2|0:0,0:0:0:0:
275,174,46264,1,8,1:2:0:0:
471,129,46439,1,0,1:2:0:0:
341,340,46615,6,0,P|239:329|232:253,1,180,4|10,1:2|0:0,0:0:0:0:
279,212,47053,1,0,0:0:0:0:
294,206,47141,1,0,0:0:0:0:
113,173,47317,2,0,P|64:188|2:174,1,90,2|0,1:2|0:0,0:0:0:0:
203,96,47667,1,8,0:0:0:0:
203,96,47755,1,0,0:0:0:0:
203,96,47843,6,0,P|252:81|314:95,1,90,2|0,0:0|1:2,0:0:0:0:
192,186,48194,1,2,0:0:0:0:
135,42,48369,1,8,0:0:0:0:
120,242,48545,2,0,L|28:259,1,90,2|0,0:0|1:2,0:0:0:0:
192,186,48895,1,2,0:0:0:0:
216,298,49071,1,10,0:0:0:0:
93,154,49246,1,2,0:0:0:0:
258,108,49422,6,0,P|342:167|321:234,1,180,0|10,1:2|0:0,0:0:0:0:
395,93,49948,1,0,0:0:0:0:
478,202,50124,2,0,P|448:284|357:297,1,180,2|8,1:2|0:0,0:0:0:0:
254,180,50650,6,0,P|248:224|226:263,1,90,2|0,0:0|1:2,0:0:0:0:
165,303,50913,1,0,0:0:0:0:
150,307,51001,1,2,0:0:0:0:
319,235,51176,1,8,0:0:0:0:
171,199,51352,2,0,P|126:195|83:208,1,90,2|0,0:0|1:2,0:0:0:0:
189,102,51702,1,2,0:0:0:0:
225,263,51878,1,10,1:2:0:0:
83,207,52053,1,2,1:2:0:0:
254,180,52229,5,0,1:2:0:0:
254,180,52317,1,0,0:0:0:0:
254,180,52404,1,0,0:0:0:0:
51,122,52580,2,0,P|95:100|89:127,1,90,10|0,0:0|0:0,0:0:0:0:
81,291,52931,2,0,P|42:285|58:245,1,90,2|0,1:2|0:0,0:0:0:0:
170,157,53281,2,0,P|221:160|255:181,1,90,10|0,0:0|0:0,0:0:0:0:
354,242,53632,6,0,P|446:262|508:185,1,180,2|10,1:2|0:0,0:0:0:0:
425,156,54159,1,0,0:0:0:0:
471,331,54334,2,0,L|382:336,1,90,2|0,1:2|0:0,0:0:0:0:
263,152,54685,2,0,L|352:157,1,90,10|0,0:0|0:0,0:0:0:0:
233,253,55036,6,0,P|160:272|133:178,1,180,2|8,1:2|0:0,0:0:0:0:
190,131,55562,1,2,0:0:0:0:
134,286,55738,2,0,P|76:293|50:279,1,90,2|0,1:2|0:0,0:0:0:0:
14,188,56088,1,8,0:0:0:0:
14,188,56264,1,0,0:0:0:0:
144,76,56439,6,0,P|134:41|99:87,1,90,4|0,0:0|0:0,0:0:0:0:
190,223,56790,2,0,P|217:248|224:190,1,90,12|0,0:0|0:0,0:0:0:0:
239,125,57141,1,4,0:0:0:0:
117,187,57317,1,0,0:0:0:0:
315,264,57492,1,12,1:2:0:0:
286,43,57667,1,0,1:2:0:0:
322,275,57843,6,0,P|344:218|340:163,1,90,4|0,1:2|0:0,0:0:0:0:
228,318,58194,2,0,P|172:303|148:258,1,90,10|0,0:0|0:0,0:0:0:0:
239,143,58545,2,0,P|181:202|101:145,1,180,2|8,1:2|0:0,0:0:0:0:
68,81,59071,1,2,0:0:0:0:
83,249,59246,5,0,1:2:0:0:
83,249,59334,1,0,0:0:0:0:
83,249,59422,2,0,L|61:342,1,90,2|8,0:0|0:0,0:0:0:0:
65,163,59773,2,0,B|121:181|168:152|168:152|204:134|261:147,1,180,2|2,0:0|0:0,0:0:0:0:
337,153,60299,1,10,0:0:0:0:
218,226,60474,1,2,0:0:0:0:
265,53,60650,5,0,1:2:0:0:
265,53,60738,1,0,0:0:0:0:
265,53,60825,1,0,0:0:0:0:
433,234,61001,2,0,P|363:255|302:228,1,135,10|0,0:0|0:0,0:0:0:0:
307,233,61352,2,0,L|294:327,1,90,2|0,1:2|0:0,0:0:0:0:
241,152,61702,1,8,0:0:0:0:
360,164,61878,1,2,0:0:0:0:
203,248,62053,5,0,1:2:0:0:
203,248,62141,1,0,0:0:0:0:
203,248,62229,1,2,0:0:0:0:
191,74,62404,1,8,0:0:0:0:
314,248,62580,2,0,L|405:237,1,90,2|0,0:0|1:2,0:0:0:0:
275,152,62931,1,2,0:0:0:0:
275,152,63106,1,10,1:2:0:0:
333,341,63281,1,2,1:2:0:0:
458,264,63457,5,0,1:2:0:0:
458,264,63545,1,0,0:0:0:0:
458,264,63632,1,0,0:0:0:0:
220,176,63808,2,0,L|255:357,1,180,10|2,0:0|1:2,0:0:0:0:
314,248,64334,1,0,0:0:0:0:
150,226,64510,2,0,L|131:323,1,90,10|0,0:0|0:0,0:0:0:0:
33,166,64860,6,0,L|51:258,1,90,2|0,1:2|0:0,0:0:0:0:
94,87,65211,1,10,0:0:0:0:
150,226,65387,1,0,0:0:0:0:
207,63,65562,2,0,P|261:64|303:84,1,90,2|0,1:2|0:0,0:0:0:0:
355,229,65913,2,0,L|366:138,1,90,10|0,0:0|0:0,0:0:0:0:
400,313,66264,6,0,P|314:315|260:238,1,180,2|8,1:2|0:0,0:0:0:0:
293,140,66790,1,0,1:2:0:0:
293,140,66878,1,0,1:2:0:0:
293,140,66966,1,0,1:2:0:0:
149,194,67141,1,0,1:2:0:0:
249,63,67317,2,0,P|295:56|338:70,1,90,8|0,0:0|0:0,0:0:0:0:
231,227,67667,5,4,1:2:0:0:
162,10,67843,1,4,1:2:0:0:
119,288,68018,1,4,1:2:0:0:
95,151,68369,6,0,P|129:216|111:301,1,148.50000453186,2|0,0:0|0:0,0:0:0:0:
43,258,68720,2,8,P|16:210|53:252,1,161.999995056153,10|0,2:0|2:0,2:0:0:0:
118,287,69071,6,4,B|177:259|261:298|261:298|225:235,1,198.000006042481,6|8,1:2|0:0,0:0:0:0:
174,173,69597,1,0,0:0:0:0:
139,354,69773,2,0,P|185:348|234:367,1,99.0000030212403,0|0,1:2|0:0,0:0:0:0:
409,253,70124,2,8,P|360:258|314:240,1,99.0000030212403,10|0,0:0|0:0,0:0:0:0:
467,172,70474,5,2,1:2:0:0:
297,162,70650,1,0,0:0:0:0:
486,77,70825,1,10,0:0:0:0:
283,167,71001,2,0,L|165:156,1,99.0000030212403,2|0,0:0|1:2,0:0:0:0:
61,170,71352,1,2,0:0:0:0:
172,27,71527,1,8,0:0:0:0:
172,27,71615,1,0,0:0:0:0:
172,27,71702,1,0,0:0:0:0:
157,246,71878,6,0,P|239:258|278:157,1,198.000006042481,2|8,1:2|0:0,0:0:0:0:
177,145,72404,1,0,0:0:0:0:
273,276,72580,2,0,P|309:282|381:238,1,99.0000030212403,0|0,1:2|0:0,0:0:0:0:
351,149,72931,1,10,0:0:0:0:
468,282,73106,6,0,P|449:224|459:167,1,99.0000030212403,2|0,0:0|1:2,0:0:0:0:
483,118,73369,1,0,0:0:0:0:
488,108,73457,1,0,0:0:0:0:
298,89,73632,2,0,P|244:93|190:117,1,99.0000030212403,8|0,0:0|0:0,0:0:0:0:
122,258,73983,1,2,1:2:0:0:
275,211,74159,1,2,0:0:0:0:
103,84,74334,1,10,1:2:0:0:
283,220,74510,1,2,1:2:0:0:
21,256,74685,6,4,B|70:205|70:205|103:384,1,215.999993408203,6|8,1:2|0:0,0:0:0:0:
8,146,75211,1,0,0:0:0:0:
216,132,75387,1,0,1:2:0:0:
216,132,75474,1,0,0:0:0:0:
216,132,75562,1,0,0:0:0:0:
267,310,75738,2,0,P|218:327|152:322,1,99.0000030212403,10|0,0:0|0:0,0:0:0:0:
373,223,76088,6,0,L|386:327,1,99.0000030212403,2|0,1:2|0:0,0:0:0:0:
310,106,76439,1,10,0:0:0:0:
310,106,76527,1,0,0:0:0:0:
310,106,76615,2,0,P|363:88|413:89,1,99.0000030212403,2|0,0:0|1:2,0:0:0:0:
488,156,76966,1,2,0:0:0:0:
293,213,77141,1,8,0:0:0:0:
335,13,77317,1,0,0:0:0:0:
124,119,77492,6,0,B|137:84|172:75|172:75|211:82|231:144|191:203,1,198.000006042481,2|8,1:2|0:0,0:0:0:0:
120,208,77931,1,0,0:0:0:0:
120,208,78018,2,0,P|64:183|47:123,1,99.0000030212403,0|0,0:0|1:2,0:0:0:0:
64,53,78369,1,2,0:0:0:0:
244,34,78545,1,10,0:0:0:0:
201,184,78720,2,0,P|306:203|303:281,1,198.000006042481,2|0,0:0|0:0,0:0:0:0:
373,105,79246,2,0,P|321:89|253:104,1,99.0000030212403,8|0,0:0|0:0,0:0:0:0:
423,208,79597,1,2,1:2:0:0:
445,20,79773,1,2,0:0:0:0:
280,174,79948,1,10,1:2:0:0:
512,151,80124,1,2,1:2:0:0:
385,315,80299,6,0,P|321:303|287:277,1,107.999996704102,6|0,1:2|0:0,0:0:0:0:
204,207,80650,1,10,0:0:0:0:
61,249,80825,2,0,P|56:177|149:103,1,198.000006042481,2|2,0:0|0:0,0:0:0:0:
269,102,81352,1,8,0:0:0:0:
204,207,81527,1,2,0:0:0:0:
152,21,81702,5,2,1:2:0:0:
282,180,81878,2,0,P|337:183|386:167,1,99.0000030212403,2|8,0:0|0:0,0:0:0:0:
439,121,82141,1,0,0:0:0:0:
445,107,82229,1,2,0:0:0:0:
499,276,82404,2,0,P|401:289|364:209,1,198.000006042481,0|8,1:2|0:0,0:0:0:0:
469,181,82931,1,0,0:0:0:0:
414,333,83106,6,0,P|366:341|315:322,1,99.0000030212403,2|0,1:2|0:0,0:0:0:0:
296,222,83457,1,10,0:0:0:0:
161,280,83632,2,0,L|144:403,1,99.0000030212403,2|0,0:0|1:2,0:0:0:0:
105,212,83895,1,0,0:0:0:0:
105,212,83983,2,0,P|145:195|204:203,1,99.0000030212403,2|8,0:0|0:0,0:0:0:0:
296,222,84334,1,2,0:0:0:0:
161,280,84510,5,2,1:2:0:0:
283,135,84685,1,2,0:0:0:0:
319,324,84860,1,8,0:0:0:0:
279,121,85036,2,0,P|293:58|328:35,1,99.0000030212403,2|0,0:0|1:2,0:0:0:0:
398,109,85387,1,0,0:0:0:0:
203,86,85562,1,8,1:2:0:0:
232,261,85738,1,0,1:2:0:0:
196,74,85913,6,0,L|58:67,1,107.999996704102,6|0,1:2|0:0,0:0:0:0:
105,240,86264,2,0,L|-30:247,1,99.0000030212403,10|0,0:0|0:0,0:0:0:0:
199,329,86615,2,0,L|204:225,1,99.0000030212403,2|0,1:2|0:0,0:0:0:0:
348,118,86966,2,0,L|356:250,1,99.0000030212403,10|0,0:0|0:0,0:0:0:0:
188,342,87317,6,0,P|113:296|133:178,1,198.000006042481,2|10,1:2|0:0,0:0:0:0:
215,212,87843,1,0,0:0:0:0:
133,88,88018,2,0,L|246:84,1,99.0000030212403,2|0,1:2|0:0,0:0:0:0:
344,284,88369,2,0,L|236:279,1,99.0000030212403,10|0,0:0|0:0,0:0:0:0:
120,234,88720,5,2,1:2:0:0:
347,186,88895,1,0,1:2:0:0:
120,234,89071,2,0,L|134:120,1,107.999996704102,12|0,1:2|0:0,0:0:0:0:
230,263,89422,1,2,1:2:0:0:
230,263,89510,1,0,0:0:0:0:
230,263,89597,1,0,1:2:0:0:
101,35,89773,6,0,B|57:72|57:72|33:251,1,215.999993408203,12|2,1:2|1:2,0:0:0:0:
30,307,90211,1,0,0:0:0:0:
32,325,90299,1,0,1:2:0:0:
138,173,90474,2,0,L|210:168,1,53.9999983520508,12|0,1:2|0:0,0:0:0:0:
232,102,90650,1,0,1:2:0:0:
232,102,90738,1,0,1:2:0:0:
232,102,90825,2,0,P|211:158|224:219,1,107.999996704102,6|2,1:2|1:2,0:0:0:0:
278,325,91176,5,14,0:0:0:0:
294,340,91264,1,0,1:2:0:0:
319,351,91352,2,0,L|391:357,1,53.9999983520508,2|0,1:2|1:2,0:0:0:0:
474,324,91527,6,0,B|499:288|499:288|325:274,1,198.000006042481,6|8,1:2|0:0,0:0:0:0:
396,184,92053,1,0,0:0:0:0:
231,147,92229,1,0,1:2:0:0:
231,147,92317,1,0,0:0:0:0:
231,147,92404,1,0,0:0:0:0:
381,106,92580,1,10,0:0:0:0:
184,48,92755,1,0,0:0:0:0:
381,106,92931,6,0,P|446:97|478:69,1,99.0000030212403,2|0,1:2|0:0,0:0:0:0:
345,16,93281,1,10,0:0:0:0:
459,191,93457,2,0,P|468:292|385:336,1,198.000006042481,2|2,0:0|0:0,0:0:0:0:
357,188,93983,1,8,0:0:0:0:
324,349,94159,1,0,0:0:0:0:
361,177,94334,6,0,P|279:171|217:275,1,198.000006042481,2|8,1:2|0:0,0:0:0:0:
183,121,94860,1,0,0:0:0:0:
183,121,95036,1,0,1:2:0:0:
302,259,95211,1,0,0:0:0:0:
334,62,95387,1,10,0:0:0:0:
300,270,95562,6,0,P|362:255|388:217,1,99.0000030212403,2|0,0:0|1:2,0:0:0:0:
276,158,95913,1,0,0:0:0:0:
227,319,96088,2,0,L|113:299,1,99.0000030212403,8|0,0:0|0:0,0:0:0:0:
169,143,96439,1,2,1:2:0:0:
362,184,96615,1,2,0:0:0:0:
229,17,96790,1,10,1:2:0:0:
195,225,96966,1,2,1:2:0:0:
444,158,97141,6,0,B|387:127|387:127|413:294,1,215.999993408203,6|8,1:2|0:0,0:0:0:0:
471,62,97667,1,0,0:0:0:0:
325,264,97843,1,0,1:2:0:0:
325,264,97931,1,0,0:0:0:0:
325,264,98018,1,0,0:0:0:0:
313,77,98194,2,0,P|264:65|195:77,1,99.0000030212403,10|0,0:0|0:0,0:0:0:0:
159,270,98545,6,0,P|160:210|135:165,1,99.0000030212403,2|0,1:2|0:0,0:0:0:0:
58,196,98895,1,10,0:0:0:0:
190,352,99071,2,0,P|233:310|247:260,1,99.0000030212403,2|0,0:0|1:2,0:0:0:0:
203,133,99422,2,0,P|211:47|331:19,1,198.000006042481,2|0,0:0|0:0,0:0:0:0:
390,148,99948,6,0,B|408:283|408:283|445:233,1,198.000006042481,2|8,1:2|0:0,0:0:0:0:
496,106,100387,1,0,0:0:0:0:
496,106,100474,2,0,B|473:60|473:60|420:36,1,99.0000030212403,0|0,0:0|1:2,0:0:0:0:
390,148,100825,1,2,0:0:0:0:
305,9,101001,1,10,0:0:0:0:
215,193,101176,6,0,L|337:177,1,99.0000030212403,2|0,0:0|1:2,0:0:0:0:
350,88,101527,1,0,0:0:0:0:
244,270,101702,2,0,L|145:282,1,99.0000030212403,8|0,0:0|0:0,0:0:0:0:
44,304,102053,1,2,1:2:0:0:
44,304,102141,1,0,0:0:0:0:
44,304,102229,1,2,0:0:0:0:
121,150,102404,1,10,1:2:0:0:
156,355,102580,1,2,1:2:0:0:
120,137,102755,6,0,L|101:20,1,107.999996704102,6|0,1:2|0:0,0:0:0:0:
45,219,103106,1,10,1:2:0:0:
206,93,103281,2,0,P|247:81|312:102,1,99.0000030212403,2|0,0:0|1:2,0:0:0:0:
362,140,103545,1,0,0:0:0:0:
371,149,103632,1,2,0:0:0:0:
326,9,103808,1,8,0:0:0:0:
248,169,103983,1,2,0:0:0:0:
445,221,104159,6,0,L|470:99,1,99.0000030212403,2|2,1:2|0:0,0:0:0:0:
512,276,104510,1,8,0:0:0:0:
318,283,104685,2,0,L|339:384,1,99.0000030212403,2|0,0:0|1:2,0:0:0:0:
367,192,105036,1,0,0:0:0:0:
221,310,105211,1,8,0:0:0:0:
237,124,105387,1,0,0:0:0:0:
219,322,105562,6,0,L|116:310,1,99.0000030212403,2|0,1:2|0:0,0:0:0:0:
3,161,105913,1,10,0:0:0:0:
3,161,106001,1,0,0:0:0:0:
3,161,106088,2,0,B|91:162|156:144|156:144|119:189,1,198.000006042481,2|2,0:0|0:0,0:0:0:0:
68,257,106615,1,10,0:0:0:0:
0,76,106790,1,2,0:0:0:0:
217,52,106966,5,2,1:2:0:0:
217,52,107053,1,0,0:0:0:0:
217,52,107141,2,0,P|166:38|108:46,1,99.0000030212403,2|8,0:0|0:0,0:0:0:0:
236,145,107492,1,2,0:0:0:0:
389,35,107667,2,0,L|381:147,1,99.0000030212403,0|0,1:2|0:0,0:0:0:0:
377,321,108018,1,8,1:2:0:0:
480,239,108194,1,0,1:2:0:0:
310,216,108369,6,0,P|263:214|212:229,1,99.0000030212403,6|0,1:2|0:0,0:0:0:0:
115,304,108720,1,10,0:0:0:0:
57,132,108895,1,2,1:2:0:0:
57,132,108983,1,0,1:2:0:0:
57,132,109071,2,0,P|98:113|176:120,1,99.0000030212403,0|2,1:2|1:2,0:0:0:0:
383,154,109422,1,8,1:2:0:0:
366,164,109510,1,0,1:2:0:0:
342,171,109597,1,2,1:2:0:0:
317,171,109685,1,0,1:2:0:0:
290,164,109773,5,6,1:2:0:0:
380,36,109948,1,4,1:2:0:0:
459,288,110124,1,12,1:2:0:0:
375,266,110474,5,2,0:0:0:0:
459,288,110650,1,2,0:0:0:0:
334,343,110825,2,0,P|266:334|206:377,1,135,10|0,0:0|0:0,0:0:0:0:
212,368,111176,6,0,L|203:274,1,90,6|2,1:2|0:0,0:0:0:0:
184,91,111527,2,0,P|153:160|26:163,1,180,10|0,0:0|0:0,0:0:0:0:
36,78,112053,1,0,0:0:0:0:
165,184,112229,2,0,P|227:176|256:158,1,90,8|0,0:0|0:0,0:0:0:0:
389,78,112580,6,0,L|403:175,1,90,0|0,1:2|0:0,0:0:0:0:
474,19,112931,1,8,0:0:0:0:
285,45,113106,1,0,1:2:0:0:
285,45,113194,1,0,1:2:0:0:
285,45,113281,1,0,1:2:0:0:
477,130,113457,1,0,1:2:0:0:
304,206,113632,1,8,1:2:0:0:
320,221,113720,1,0,1:2:0:0:
345,232,113808,2,0,L|417:238,1,45,0|0,1:2|1:2,0:0:0:0:
500,205,113983,6,0,B|523:173|523:173|354:158,1,180,6|10,1:2|1:2,0:0:0:0:
431,71,114510,1,0,0:0:0:0:
458,276,114685,2,0,P|409:338|295:312,1,180,2|10,1:2|0:0,0:0:0:0:
232,271,115211,1,2,0:0:0:0:
363,234,115387,5,0,1:2:0:0:
363,234,115474,1,0,0:0:0:0:
363,234,115562,1,2,0:0:0:0:
194,173,115738,1,10,0:0:0:0:
212,354,115913,1,0,0:0:0:0:
191,160,116088,2,0,P|126:155|71:202,1,135,2|0,1:2|0:0,0:0:0:0:
58,227,116439,1,10,0:0:0:0:
254,270,116790,6,0,B|156:274,1,90,2|0,1:2|0:0,0:0:0:0:
274,186,117141,1,8,0:0:0:0:
274,186,117229,1,0,0:0:0:0:
274,186,117317,2,0,P|322:217|337:247,1,90,2|0,0:0|1:2,0:0:0:0:
385,316,117580,1,0,0:0:0:0:
385,316,117668,2,0,P|412:281|419:237,1,90,2|8,0:0|0:0,0:0:0:0:
375,157,118019,1,2,0:0:0:0:
304,345,118193,5,0,0:0:0:0:
304,345,118281,1,0,0:0:0:0:
304,345,118369,1,2,0:0:0:0:
494,255,118545,1,8,0:0:0:0:
306,238,118720,1,2,0:0:0:0:
494,255,118895,2,0,P|481:160|407:135,1,180,2|10,1:2|1:2,0:0:0:0:
307,164,119422,1,0,1:2:0:0:
258,49,119597,6,0,B|349:18|349:18|433:36,2,180,6|10|2,1:2|0:0|1:2,0:0:0:0:
355,110,120650,5,10,0:0:0:0:
355,110,120825,2,0,L|254:144,1,90,2|0,0:0|1:2,0:0:0:0:
198,165,121088,1,0,0:0:0:0:
181,170,121176,1,2,0:0:0:0:
258,49,121352,1,10,0:0:0:0:
338,196,121527,1,0,0:0:0:0:
258,49,121702,2,0,L|67:113,1,180,2|10,1:2|0:0,0:0:0:0:
0,215,122404,6,0,L|189:277,1,180,2|8,1:2|0:0,0:0:0:0:
243,229,122842,1,0,0:0:0:0:
243,229,122930,2,0,B|211:205|211:205|153:186,1,90,2|0,0:0|1:2,0:0:0:0:
233,315,123193,1,0,0:0:0:0:
233,315,123281,2,0,P|288:302|313:279,1,90,2|8,0:0|0:0,0:0:0:0:
384,131,123632,6,0,L|391:222,1,90,2|0,0:0|1:2,0:0:0:0:
395,296,123895,1,0,0:0:0:0:
395,311,123983,1,2,0:0:0:0:
305,174,124159,5,10,0:0:0:0:
494,223,124334,1,0,1:2:0:0:
494,223,124422,1,0,1:2:0:0:
494,223,124510,1,2,1:2:0:0:
480,43,124685,1,0,1:2:0:0:
304,99,124860,1,8,0:0:0:0:
281,103,124948,1,0,0:0:0:0:
258,104,125036,2,0,P|221:99|194:77,1,45,0|0,1:2|1:2,0:0:0:0:
195,7,125211,6,0,P|146:36|159:169,1,180,6|10,1:2|1:2,0:0:0:0:
245,189,125738,1,0,0:0:0:0:
66,241,125913,2,0,L|53:138,1,90,2|0,1:2|0:0,0:0:0:0:
4,318,126264,1,10,0:0:0:0:
177,241,126439,6,0,P|217:225|247:180,1,90,2|0,0:0|1:2,0:0:0:0:
272,121,126702,1,0,0:0:0:0:
277,108,126790,1,2,0:0:0:0:
126,155,126966,1,10,0:0:0:0:
123,356,127141,1,0,0:0:0:0:
123,356,127229,1,0,0:0:0:0:
123,356,127317,2,0,P|198:355|267:278,1,180,2|10,1:2|0:0,0:0:0:0:
235,193,127843,1,0,0:0:0:0:
329,338,128018,6,0,P|383:330|413:305,1,90,2|0,1:2|0:0,0:0:0:0:
368,155,128369,1,8,0:0:0:0:
368,155,128457,1,0,0:0:0:0:
368,155,128545,2,0,P|340:190|345:253,1,90,2|0,0:0|1:2,0:0:0:0:
432,96,128808,1,0,0:0:0:0:
432,96,128895,2,0,P|397:68|334:73,1,90,2|8,0:0|0:0,0:0:0:0:
446,180,129246,6,0,P|487:163|514:106,1,90,2|0,0:0|0:0,0:0:0:0:
506,52,129510,1,0,0:0:0:0:
500,34,129597,1,2,0:0:0:0:
368,155,129773,1,8,0:0:0:0:
333,22,129948,1,2,0:0:0:0:
333,22,130036,1,0,0:0:0:0:
333,22,130124,2,0,P|274:30|236:64,1,90,2|0,1:2|0:0,0:0:0:0:
276,142,130474,1,10,1:2:0:0:
147,20,130650,1,0,1:2:0:0:
147,20,130738,1,0,0:0:0:0:
147,20,130825,6,0,B|96:59|177:134|97:199,1,180,6|10,1:2|0:0,0:0:0:0:
31,119,131352,1,0,0:0:0:0:
203,178,131527,2,0,B|287:190|341:165|341:165|317:158|283:167,1,180,2|10,1:2|0:0,0:0:0:0:
312,257,132053,6,0,P|307:314|279:348,1,90,2|0,0:0|1:2,0:0:0:0:
223,374,132317,1,0,0:0:0:0:
209,377,132404,1,2,0:0:0:0:
221,248,132580,1,10,0:0:0:0:
391,308,132755,1,0,0:0:0:0:
391,308,132843,1,0,0:0:0:0:
391,308,132931,2,0,P|409:247|395:199,1,90,2|0,1:2|0:0,0:0:0:0:
376,87,133281,1,10,0:0:0:0:
364,76,133632,6,0,P|419:57|484:76,1,90,2|0,1:2|0:0,0:0:0:0:
258,27,133983,1,8,0:0:0:0:
258,27,134071,1,0,0:0:0:0:
258,27,134159,2,0,L|161:22,1,90,2|0,0:0|1:2,0:0:0:0:
92,91,134422,1,0,0:0:0:0:
92,91,134510,2,0,L|212:98,1,90,2|8,0:0|0:0,0:0:0:0:
249,173,134861,6,0,L|129:166,1,90,2|0,0:0|1:2,0:0:0:0:
81,167,135124,1,0,0:0:0:0:
63,170,135211,1,2,0:0:0:0:
250,69,135387,1,10,0:0:0:0:
207,286,135562,1,0,1:2:0:0:
207,286,135650,1,0,1:2:0:0:
207,286,135738,2,0,P|255:283|297:265,1,90,2|0,1:2|1:2,0:0:0:0:
366,196,136088,1,8,0:0:0:0:
493,361,136264,1,0,1:2:0:0:
493,361,136352,1,0,1:2:0:0:
493,361,136439,6,0,P|429:351|260:359,1,207.000003948212,6|10,1:2|0:0,0:0:0:0:
187,192,136966,1,2,0:0:0:0:
187,192,137141,2,0,P|209:241|208:276,1,80.9999975280763,2|2,1:2|0:0,0:0:0:0:
139,315,137492,1,8,0:0:0:0:
139,315,137667,1,2,0:0:0:0:
287,224,137843,6,0,L|301:321,1,80.9999975280763,2|0,1:2|0:0,0:0:0:0:
389,210,138194,1,10,0:0:0:0:
246,147,138369,2,0,P|296:137|331:149,1,80.9999975280763,2|0,0:0|1:2,0:0:0:0:
212,49,138720,2,0,P|172:40|134:50,1,80.9999975280763,2|8,0:0|0:0,0:0:0:0:
91,127,139071,1,2,0:0:0:0:
257,227,139246,6,0,L|246:147,1,80.9999975280763,0|0,1:2|0:0,0:0:0:0:
358,327,139597,2,0,L|369:246,1,80.9999975280763,10|2,0:0|0:0,0:0:0:0:
466,192,139948,1,2,1:2:0:0:
466,192,140124,1,2,0:0:0:0:
369,246,140299,1,10,0:0:0:0:
433,91,140474,1,2,0:0:0:0:
296,144,140650,6,0,P|254:139|203:103,1,80.9999975280763,2|0,1:2|0:0,0:0:0:0:
250,40,141001,1,10,0:0:0:0:
149,167,141176,2,0,P|132:128|138:65,1,80.9999975280763,2|0,0:0|1:2,0:0:0:0:
66,189,141527,1,2,0:0:0:0:
202,241,141702,1,8,1:2:0:0:
44,294,141878,1,2,1:2:0:0:
213,233,142053,6,0,P|248:219|312:224,1,80.9999975280763,0|0,1:2|0:0,0:0:0:0:
325,313,142404,1,10,0:0:0:0:
464,260,142580,2,0,L|451:354,1,80.9999975280763,2|2,0:0|1:2,0:0:0:0:
368,231,142931,1,2,0:0:0:0:
512,184,143106,1,10,0:0:0:0:
512,184,143281,1,2,0:0:0:0:
368,122,143457,6,0,P|336:108|282:117,1,80.9999975280763,2|0,1:2|0:0,0:0:0:0:
265,197,143808,1,10,0:0:0:0:
159,78,143983,2,0,B|145:182|145:182|97:151,1,161.999995056153,2|2,0:0|0:0,0:0:0:0:
128,289,144510,1,8,0:0:0:0:
20,224,144685,1,2,0:0:0:0:
218,265,144860,6,0,P|276:236|269:147,1,161.999995056153,2|8,1:2|0:0,0:0:0:0:
357,249,145387,2,0,P|343:281|304:319,1,80.9999975280763,0|0,0:0|1:2,0:0:0:0:
345,115,145738,1,2,0:0:0:0:
345,115,145913,2,0,P|387:96|447:102,1,80.9999975280763,10|0,0:0|0:0,0:0:0:0:
256,29,146264,6,0,P|193:26|89:57,1,161.999995056153,2|8,1:2|0:0,0:0:0:0:
44,124,146790,1,0,0:0:0:0:
207,185,146966,2,0,L|193:105,1,80.9999975280763,0|0,1:2|0:0,0:0:0:0:
118,239,147317,1,8,1:2:0:0:
271,263,147492,1,0,1:2:0:0:
265,75,147667,6,0,P|363:68|398:156,1,207.000003948212,4|10,1:2|0:0,0:0:0:0:
329,208,148194,1,2,0:0:0:0:
473,193,148369,1,2,1:2:0:0:
419,328,148545,1,2,0:0:0:0:
419,328,148720,2,0,L|404:245,1,80.9999975280763,10|2,0:0|0:0,0:0:0:0:
334,373,149071,6,0,P|288:363|249:328,1,80.9999975280763,2|0,1:2|0:0,0:0:0:0:
329,283,149422,1,8,0:0:0:0:
174,356,149597,2,0,P|142:285|142:189,1,161.999995056153,2|2,0:0|0:0,0:0:0:0:
251,120,150124,1,8,0:0:0:0:
271,208,150299,1,2,0:0:0:0:
163,96,150474,6,0,P|126:89|57:96,1,80.9999975280763,0|0,1:2|0:0,0:0:0:0:
244,31,150825,2,0,P|284:29|324:36,1,80.9999975280763,10|2,0:0|0:0,0:0:0:0:
418,119,151176,1,2,1:2:0:0:
418,119,151352,1,2,0:0:0:0:
307,139,151527,1,10,0:0:0:0:
482,190,151702,1,2,0:0:0:0:
291,135,151878,6,0,L|306:47,1,80.9999975280763,2|0,1:2|0:0,0:0:0:0:
376,198,152229,1,10,0:0:0:0:
188,119,152404,2,0,P|146:182|186:255,1,161.999995056153,2|2,0:0|0:0,0:0:0:0:
272,207,152931,1,8,1:2:0:0:
63,228,153106,1,2,1:2:0:0:
63,228,153281,6,0,P|57:181|72:141,1,80.9999975280763,0|0,1:2|0:0,1:2:0:0:
149,46,153632,1,10,0:0:0:0:
188,147,153808,1,0,0:0:0:0:
188,147,153983,1,2,1:2:0:0:
83,109,154159,1,2,0:0:0:0:
243,80,154334,1,10,0:0:0:0:
208,230,154510,1,2,0:0:0:0:
243,80,154685,6,0,L|331:75,1,80.9999975280763,2|0,1:2|0:0,0:0:0:0:
455,125,155036,1,10,0:0:0:0:
416,202,155211,2,0,P|336:211|260:146,1,161.999995056153,2|2,0:0|0:0,0:0:0:0:
243,80,155738,1,8,0:0:0:0:
208,230,155913,1,2,0:0:0:0:
208,230,156088,6,0,P|165:275|52:251,2,161.999995056153,2|8|0,1:2|0:0|1:2,0:0:0:0:
161,157,156966,1,2,0:0:0:0:
239,309,157141,2,0,P|289:320|346:309,1,80.9999975280763,10|0,0:0|0:0,0:0:0:0:
432,302,157492,6,0,P|443:252|432:195,1,80.9999975280763,2|0,1:2|0:0,0:0:0:0:
376,82,157843,2,0,P|415:71|455:73,1,80.9999975280763,8|0,0:0|0:0,0:0:0:0:
319,168,158194,1,0,1:2:0:0:
277,56,158370,1,0,0:0:0:0:
249,250,158545,1,8,1:2:0:0:
427,155,158720,1,0,1:2:0:0:
203,171,158896,6,0,P|131:151|147:82,1,155.250002961159,4|10,1:2|0:0,0:0:0:0:
142,85,159246,2,0,L|36:75,1,90
22,247,159597,2,0,L|111:238,1,90,2|0,1:2|0:0,0:0:0:0:
214,247,159948,1,8,0:0:0:0:
137,318,160124,1,2,0:0:0:0:
95,153,160299,5,0,1:2:0:0:
95,153,160387,1,0,0:0:0:0:
95,153,160474,1,2,0:0:0:0:
22,247,160650,1,8,0:0:0:0:
180,167,160825,2,0,L|294:160,1,90,2|0,0:0|1:2,0:0:0:0:
375,138,161176,1,2,0:0:0:0:
295,72,161352,1,10,0:0:0:0:
413,41,161527,1,2,0:0:0:0:
412,234,161702,5,0,1:2:0:0:
412,234,161790,1,0,0:0:0:0:
412,234,161878,2,0,P|371:236|307:214,1,90,0|10,0:0|0:0,0:0:0:0:
273,146,162229,1,0,0:0:0:0:
213,329,162404,2,0,P|250:347|273:313,1,90,2|0,1:2|0:0,0:0:0:0:
188,134,162755,2,0,P|150:115|128:150,1,90,8|2,0:0|0:0,0:0:0:0:
92,277,163106,5,0,1:2:0:0:
92,277,163194,1,0,0:0:0:0:
92,277,163281,1,2,0:0:0:0:
210,247,163457,1,8,0:0:0:0:
26,213,163632,2,0,P|9:168|16:121,1,90,2|0,0:0|1:2,0:0:0:0:
128,93,163983,1,2,0:0:0:0:
59,23,164159,1,10,1:2:0:0:
101,176,164334,1,2,1:2:0:0:
196,15,164510,5,0,1:2:0:0:
196,15,164597,1,0,0:0:0:0:
196,15,164685,1,0,0:0:0:0:
288,168,164860,6,0,L|182:175,1,90,10|0,0:0|0:0,0:0:0:0:
424,48,165211,2,0,L|318:41,1,90,2|0,1:2|0:0,0:0:0:0:
418,237,165562,2,0,P|438:186|434:143,1,90,10|0,0:0|0:0,0:0:0:0:
289,291,165913,6,0,P|195:231|222:141,1,180,2|10,1:2|0:0,0:0:0:0:
302,153,166439,1,0,0:0:0:0:
197,288,166615,2,0,P|147:288|105:270,1,90,2|0,1:2|0:0,0:0:0:0:
39,132,166966,2,0,L|28:42,1,90,10|0,0:0|0:0,0:0:0:0:
148,185,167317,6,0,P|210:166|235:59,1,180,2|8,1:2|0:0,0:0:0:0:
139,28,167843,1,2,0:0:0:0:
343,95,168018,2,0,P|346:138|328:200,1,90,2|0,1:2|0:0,0:0:0:0:
202,253,168369,2,0,P|199:296|217:358,1,90,8|0,0:0|0:0,0:0:0:0:
381,321,168720,6,0,P|443:267|439:177,1,148.50000453186,4|0,0:0|0:0,0:0:0:0:
443,175,169071,1,12,0:0:0:0:
207,171,169246,1,0,0:0:0:0:
351,122,169422,1,4,0:0:0:0:
164,60,169597,1,0,0:0:0:0:
353,10,169773,1,12,1:2:0:0:
287,229,169948,1,0,1:2:0:0:
91,100,170124,6,0,P|71:161|113:210,1,135,4|0,1:2|0:0,0:0:0:0:
112,211,170474,2,0,P|68:201|23:204,1,90,10|0,0:0|0:0,0:0:0:0:
147,293,170825,2,0,L|249:273,1,90,2|0,1:2|0:0,0:0:0:0:
335,248,171176,1,8,0:0:0:0:
283,352,171352,1,2,0:0:0:0:
234,195,171527,5,0,1:2:0:0:
234,195,171615,1,0,0:0:0:0:
234,195,171702,1,2,0:0:0:0:
386,154,171878,1,8,0:0:0:0:
373,358,172053,2,0,P|438:349|472:323,1,90,2|0,0:0|0:0,0:0:0:0:
512,252,172404,1,2,0:0:0:0:
349,276,172580,1,10,0:0:0:0:
488,165,172755,1,2,0:0:0:0:
309,204,172931,5,0,1:2:0:0:
309,204,173018,1,0,0:0:0:0:
309,204,173106,1,0,0:0:0:0:
430,68,173281,2,0,P|353:75|315:22,1,135,10|0,0:0|0:0,0:0:0:0:
318,35,173632,2,0,L|304:130,1,90,2|0,1:2|0:0,0:0:0:0:
393,170,173983,1,8,0:0:0:0:
232,60,174159,1,2,0:0:0:0:
211,238,174334,5,0,1:2:0:0:
211,238,174422,1,0,0:0:0:0:
211,238,174510,2,0,P|265:232|296:208,1,90,2|8,0:0|0:0,0:0:0:0:
231,144,174860,1,2,0:0:0:0:
137,282,175036,2,0,L|44:268,1,90,0|2,1:2|0:0,0:0:0:0:
108,95,175387,1,10,1:2:0:0:
153,183,175562,1,2,1:2:0:0:
13,179,175738,5,0,1:2:0:0:
13,179,175825,1,0,0:0:0:0:
13,179,175913,1,0,0:0:0:0:
211,238,176088,2,0,P|308:227|340:151,1,180,10|2,0:0|1:2,0:0:0:0:
208,136,176614,1,0,0:0:0:0:
155,308,176790,2,0,P|105:298|67:263,1,90,10|0,0:0|0:0,0:0:0:0:
62,109,177140,6,0,L|46:216,1,90,2|0,1:2|0:0,0:0:0:0:
14,22,177491,1,10,0:0:0:0:
182,8,177667,1,0,0:0:0:0:
164,179,177843,1,2,1:2:0:0:
164,179,177931,1,0,0:0:0:0:
164,179,178018,2,0,P|209:170|255:143,1,90,0|10,0:0|0:0,0:0:0:0:
276,47,178369,1,0,0:0:0:0:
309,229,178545,6,0,L|292:335,1,90,2|0,1:2|0:0,0:0:0:0:
315,127,178895,1,8,0:0:0:0:
212,254,179071,1,0,1:2:0:0:
212,254,179159,1,0,1:2:0:0:
212,254,179246,1,0,1:2:0:0:
407,243,179422,1,0,1:2:0:0:
225,134,179597,2,0,L|336:125,1,90,8|0,0:0|0:0,0:0:0:0:
452,78,179948,5,4,1:2:0:0:
374,343,180124,1,4,1:2:0:0:
291,42,180299,1,4,1:2:0:0:
290,258,180650,5,2,0:0:0:0:
290,258,180825,1,2,0:0:0:0:
211,290,181001,2,0,P|125:290|121:373,1,161.999995056153,10|0,0:0|0:0,0:0:0:0:
110,353,181352,6,4,L|85:138,1,198.000006042481,6|8,1:2|0:0,0:0:0:0:
10,283,181878,1,0,0:0:0:0:
189,201,182053,1,0,1:2:0:0:
189,201,182141,1,0,0:0:0:0:
189,201,182229,1,0,0:0:0:0:
0,104,182404,2,8,L|13:216,1,99.0000030212403,10|0,0:0|0:0,0:0:0:0:
124,35,182755,6,0,B|207:17|288:31|288:31|251:62,1,198.000006042481,2|10,1:2|0:0,0:0:0:0:
192,129,183281,1,2,0:0:0:0:
385,101,183457,1,0,1:2:0:0:
385,101,183545,1,0,0:0:0:0:
385,101,183632,1,2,0:0:0:0:
253,266,183808,1,8,0:0:0:0:
441,206,183983,1,0,0:0:0:0:
237,270,184159,6,0,P|143:270|109:168,1,198.000006042481,2|8,1:2|0:0,0:0:0:0:
230,118,184685,1,0,0:0:0:0:
331,333,184860,2,0,L|449:309,1,99.0000030212403,0|0,1:2|0:0,0:0:0:0:
319,206,185211,1,10,0:0:0:0:
233,355,185387,1,2,0:0:0:0:
165,137,185562,5,0,1:2:0:0:
165,137,185650,1,0,0:0:0:0:
165,137,185738,1,0,0:0:0:0:
319,206,185913,2,0,L|332:319,1,99.0000030212403,8|0,0:0|0:0,0:0:0:0:
282,72,186264,1,2,1:2:0:0:
164,225,186439,1,2,0:0:0:0:
145,26,186615,1,10,1:2:0:0:
295,218,186790,1,2,1:2:0:0:
383,17,186966,6,4,B|425:238,1,215.999993408203,6|8,1:2|0:0,0:0:0:0:
311,136,187492,1,0,0:0:0:0:
506,212,187667,1,0,1:2:0:0:
506,212,187755,1,0,0:0:0:0:
506,212,187843,1,0,0:0:0:0:
273,277,188018,2,0,P|243:237|238:184,1,99.0000030212403,10|0,0:0|0:0,0:0:0:0:
322,19,188369,6,0,P|290:84|162:85,1,198.000006042481,2|10,1:2|0:0,0:0:0:0:
75,28,188895,1,2,0:0:0:0:
33,230,189071,1,0,1:2:0:0:
220,186,189246,1,2,0:0:0:0:
20,238,189422,2,0,P|51:324|-4:353,1,161.999995056153,8|0,0:0|0:0,0:0:0:0:
3,352,189773,6,0,L|220:335,1,198.000006042481,2|8,1:2|0:0,0:0:0:0:
312,150,190299,2,0,P|334:195|325:258,1,99.0000030212403,0|0,0:0|1:2,0:0:0:0:
289,353,190650,1,2,0:0:0:0:
195,170,190825,1,10,0:0:0:0:
406,139,191001,1,2,0:0:0:0:
217,263,191176,5,0,1:2:0:0:
217,263,191264,1,0,0:0:0:0:
217,263,191352,1,0,0:0:0:0:
327,84,191527,2,0,P|283:64|211:75,1,99.0000030212403,8|0,0:0|0:0,0:0:0:0:
111,219,191878,1,2,1:2:0:0:
71,19,192053,1,2,0:0:0:0:
289,179,192229,1,10,1:2:0:0:
91,222,192404,1,2,1:2:0:0:
301,174,192580,6,0,P|365:167|424:194,1,107.999996704102,6|0,1:2|0:0,0:0:0:0:
228,341,192931,1,10,0:0:0:0:
228,341,193018,1,0,0:0:0:0:
228,341,193106,2,0,P|164:348|107:322,1,99.0000030212403,2|0,0:0|0:0,0:0:0:0:
184,143,193457,2,0,P|208:180|210:238,1,99.0000030212403,2|8,0:0|0:0,0:0:0:0:
101,257,193808,1,2,0:0:0:0:
111,70,193983,6,0,P|148:46|206:44,1,99.0000030212403,2|2,1:2|0:0,0:0:0:0:
184,143,194334,1,8,0:0:0:0:
5,114,194510,1,2,0:0:0:0:
199,148,194685,2,0,L|299:139,1,99.0000030212403,0|0,1:2|0:0,0:0:0:0:
66,278,195036,2,0,L|166:287,1,99.0000030212403,8|0,0:0|0:0,0:0:0:0:
286,303,195387,5,2,1:2:0:0:
124,205,195562,1,0,0:0:0:0:
329,174,195738,1,10,0:0:0:0:
107,203,195913,2,0,L|4:188,1,99.0000030212403,2|0,0:0|1:2,0:0:0:0:
141,73,196176,1,0,0:0:0:0:
141,73,196264,2,0,P|150:117|133:173,1,99.0000030212403,2|8,0:0|0:0,0:0:0:0:
40,70,196615,1,2,0:0:0:0:
231,80,196790,6,0,L|333:89,1,99.0000030212403,2|2,1:2|0:0,0:0:0:0:
343,188,197141,1,8,0:0:0:0:
432,29,197317,2,0,P|444:81|442:127,1,99.0000030212403,2|0,0:0|1:2,0:0:0:0:
408,274,197667,1,0,0:0:0:0:
351,117,197843,1,8,1:2:0:0:
511,273,198018,1,0,1:2:0:0:
321,330,198194,6,0,L|194:322,1,99.0000030212403,6|0,1:2|0:0,0:0:0:0:
114,142,198545,2,0,L|221:135,1,99.0000030212403,10|0,0:0|0:0,0:0:0:0:
326,239,198895,2,0,L|433:245,1,99.0000030212403,2|0,1:2|0:0,0:0:0:0:
507,75,199246,2,0,L|400:81,1,99.0000030212403,10|0,0:0|0:0,0:0:0:0:
212,135,199597,6,0,P|307:103|279:14,1,198.000006042481,2|10,1:2|0:0,0:0:0:0:
194,9,200124,1,0,0:0:0:0:
186,220,200299,2,0,L|81:211,1,99.0000030212403,2|0,1:2|0:0,0:0:0:0:
275,300,200650,2,0,L|376:291,1,99.0000030212403,10|0,0:0|0:0,0:0:0:0:
401,156,201001,5,2,1:2:0:0:
439,366,201176,1,0,1:2:0:0:
398,144,201352,2,0,L|290:137,1,107.999996704102,12|0,1:2|0:0,0:0:0:0:
193,39,201702,1,2,1:2:0:0:
193,39,201790,1,0,0:0:0:0:
193,39,201878,1,0,1:2:0:0:
31,168,202053,6,0,P|73:233|209:199,1,215.999993408203,12|2,1:2|1:2,0:0:0:0:
227,146,202492,1,0,0:0:0:0:
231,132,202580,1,0,1:2:0:0:
241,316,202755,1,12,1:2:0:0:
262,334,202843,1,0,1:2:0:0:
288,343,202931,2,0,P|321:344|363:339,1,53.9999983520508,0|0,1:2|1:2,0:0:0:0:
444,349,203106,2,0,P|448:295|419:243,1,107.999996704102,6|2,1:2|1:2,0:0:0:0:
313,41,203457,2,0,P|281:22|236:23,1,53.9999983520508,14|0,0:0|0:0,0:0:0:0:
295,224,203632,2,0,P|327:205|349:166,1,53.9999983520508,2|0,1:2|1:2,0:0:0:0:
227,129,203808,6,0,B|-14:152,1,215.999993408203,6|8,1:2|0:0,0:0:0:0:
119,45,204334,1,0,0:0:0:0:
36,270,204510,1,0,1:2:0:0:
134,136,204685,1,0,0:0:0:0:
194,340,204860,1,10,0:0:0:0:
194,340,204948,1,0,0:0:0:0:
194,340,205036,1,0,0:0:0:0:
299,142,205211,6,0,P|242:135|201:102,1,99.0000030212403,2|0,1:2|0:0,0:0:0:0:
299,36,205562,1,10,0:0:0:0:
373,213,205738,2,0,L|497:198,1,99.0000030212403,2|0,0:0|0:0,0:0:0:0:
391,95,206088,1,2,0:0:0:0:
271,226,206264,1,8,0:0:0:0:
469,286,206439,1,0,0:0:0:0:
258,219,206615,6,0,P|172:195|66:257,1,198.000006042481,2|8,1:2|0:0,0:0:0:0:
109,341,207141,1,0,0:0:0:0:
201,174,207317,2,0,P|224:127|220:73,1,99.0000030212403,0|0,1:2|0:0,0:0:0:0:
115,104,207667,1,10,0:0:0:0:
308,165,207843,1,2,0:0:0:0:
267,7,208018,5,0,1:2:0:0:
267,7,208106,1,0,0:0:0:0:
267,7,208194,1,0,0:0:0:0:
312,176,208369,2,0,L|330:300,1,99.0000030212403,8|0,0:0|0:0,0:0:0:0:
415,120,208720,1,2,1:2:0:0:
207,87,208895,1,2,0:0:0:0:
247,266,209071,1,10,1:2:0:0:
263,281,209159,1,0,0:0:0:0:
288,292,209247,2,0,L|360:298,1,49.5000015106202,2|0,1:2|0:0,0:0:0:0:
443,265,209422,6,0,B|468:229|468:229|294:215,1,198.000006042481,6|8,1:2|0:0,0:0:0:0:
189,194,209948,1,0,0:0:0:0:
319,89,210124,1,0,1:2:0:0:
319,89,210211,1,0,0:0:0:0:
319,89,210299,1,0,0:0:0:0:
341,296,210474,2,0,L|242:287,1,99.0000030212403,10|0,0:0|0:0,0:0:0:0:
399,199,210825,5,2,1:2:0:0:
202,184,211001,1,0,0:0:0:0:
410,100,211176,1,10,0:0:0:0:
188,182,211352,2,0,P|160:135|157:83,1,99.0000030212403,2|0,0:0|1:2,0:0:0:0:
242,287,211702,2,0,P|300:251|259:140,1,198.000006042481,2|0,0:0|0:0,0:0:0:0:
455,255,212229,6,0,B|481:213|464:152|425:145|425:145|390:154|377:189,1,198.000006042481,2|8,1:2|0:0,0:0:0:0:
296,18,212755,2,0,P|320:60|315:134,1,99.0000030212403,0|0,0:0|1:2,0:0:0:0:
221,126,213106,1,2,0:0:0:0:
409,63,213281,1,10,0:0:0:0:
193,27,213457,1,2,0:0:0:0:
209,233,213632,5,0,1:2:0:0:
209,233,213720,1,0,0:0:0:0:
209,233,213808,1,0,0:0:0:0:
43,118,213983,2,0,P|54:74|90:107,1,99.0000030212403,8|0,0:0|0:0,0:0:0:0:
73,275,214334,1,2,1:2:0:0:
252,142,214510,1,2,0:0:0:0:
188,308,214685,1,10,1:2:0:0:
89,93,214860,1,2,1:2:0:0:
189,324,215036,6,0,P|261:279|277:228,1,107.999996704102,6|0,1:2|0:0,0:0:0:0:
151,230,215387,1,10,1:2:0:0:
336,329,215562,2,0,P|381:262|317:161,1,198.000006042481,2|2,0:0|0:0,0:0:0:0:
223,137,216088,1,8,0:0:0:0:
408,108,216264,1,2,0:0:0:0:
205,140,216439,6,0,P|160:126|127:84,1,99.0000030212403,2|2,1:2|0:0,0:0:0:0:
257,25,216790,1,8,0:0:0:0:
257,25,216878,1,0,0:0:0:0:
257,25,216966,1,2,0:0:0:0:
271,200,217141,2,0,P|380:221|409:148,1,198.000006042481,0|8,1:2|0:0,0:0:0:0:
296,105,217667,1,0,0:0:0:0:
230,290,217843,5,2,1:2:0:0:
337,236,218018,1,0,0:0:0:0:
138,297,218194,1,10,0:0:0:0:
138,297,218281,1,0,0:0:0:0:
138,297,218369,2,0,P|118:242|121:182,1,99.0000030212403,2|0,0:0|0:0,0:0:0:0:
141,101,218720,1,2,0:0:0:0:
141,101,218895,1,10,0:0:0:0:
217,210,219071,1,2,0:0:0:0:
266,37,219246,5,2,1:2:0:0:
266,37,219334,1,0,0:0:0:0:
266,37,219422,1,2,0:0:0:0:
102,26,219597,1,8,0:0:0:0:
292,143,219773,2,0,L|408:123,1,99.0000030212403,2|0,0:0|1:2,0:0:0:0:
483,49,220124,1,0,0:0:0:0:
429,219,220299,1,8,1:2:0:0:
353,27,220474,1,0,1:2:0:0:
432,233,220650,6,0,B|397:257|397:257|230:262,1,198.000006042481,6|10,1:2|0:0,0:0:0:0:
231,83,221176,1,2,1:2:0:0:
231,83,221264,1,0,1:2:0:0:
231,83,221352,2,0,P|253:125|258:191,1,99.0000030212403,0|2,1:2|1:2,0:0:0:0:
53,265,221702,2,0,L|175:253,1,99.0000030212403,8|2,1:2|1:2,0:0:0:0:
85,113,222053,5,6,1:2:0:0:
316,65,222229,1,4,1:2:0:0:
227,354,222404,1,12,1:2:0:0:
262,195,222755,6,0,P|217:221|204:181,1,90,2|2,0:0|0:0,0:0:0:0:
191,39,223106,2,0,P|239:92|326:37,1,161.999995056153,10|0,0:0|0:0,0:0:0:0:
315,64,223457,6,0,L|334:183,1,99.0000030212403,6|2,1:2|0:0,0:0:0:0:
148,123,223808,2,0,P|79:145|58:245,1,180,10|0,0:0|1:2,0:0:0:0:
125,335,224334,1,0,0:0:0:0:
5,314,224510,1,8,0:0:0:0:
5,314,224597,1,0,0:0:0:0:
5,314,224685,1,0,0:0:0:0:
172,241,224860,6,0,P|221:232|255:196,1,90,0|0,1:2|0:0,0:0:0:0:
223,121,225211,1,8,0:0:0:0:
314,271,225387,1,0,1:2:0:0:
314,271,225474,1,0,1:2:0:0:
314,271,225562,2,0,L|425:248,1,90,2|2,1:2|1:2,0:0:0:0:
404,102,225913,1,10,1:2:0:0:
382,96,226001,1,0,1:2:0:0:
359,97,226088,2,0,P|328:85|299:62,1,45,2|0,1:2|1:2,0:0:0:0:
360,4,226264,6,0,P|466:49|470:149,1,216,6|2,1:2|0:0,0:0:0:0:
177,266,227667,6,0,B|192:262|207:274|207:274|241:261|241:261|309:288|394:261,1,216,2|0,0:0|0:0,0:0:0:0:
474,164,229071,6,0,B|435:169|435:169|376:138|299:160|299:160|344:180,1,216,2|2,0:0|0:0,0:0:0:0:
209,266,230474,6,0,B|224:210|200:180|200:180|200:147|216:112|216:112|208:49,1,216,2|0,0:0|0:0,0:0:0:0:
407,127,231878,6,0,B|449:158|449:158|383:179|332:154|332:154|312:164|278:162,1,216,2|2,0:0|0:0,0:0:0:0:
93,170,233281,6,0,P|74:234|99:294,1,126,2|0,0:0|0:0,0:0:0:0:
218,168,233983,2,0,L|87:170,1,126,2|0,0:0|0:0,0:0:0:0:
255,96,234685,2,0,P|302:151|216:249,1,216,2|0,0:0|0:0,0:0:0:0:
169,93,236088,6,0,B|144:97|111:90|111:90|62:108|8:96|8:96|67:69,1,216,2|0,0:0|0:0,0:0:0:0:
261,54,237492,6,0,B|299:26|352:38|352:38|413:61|456:36,1,198.000006042481,6|0,0:0|0:0,0:0:0:0:
478,156,238545,5,2,0:0:0:0:
478,156,238895,2,0,P|444:156|406:162,1,49.5000015106202,2|0,0:0|0:0,0:0:0:0:
360,206,239246,1,2,0:0:0:0:
360,206,239422,1,2,0:0:0:0:
318,107,239773,2,0,L|213:110,1,99.0000030212403,2|0,0:0|0:0,0:0:0:0:
134,112,240299,5,2,0:0:0:0:
126,124,240650,1,2,0:0:0:0:
203,189,241001,5,2,0:0:0:0:
210,200,241352,1,2,0:0:0:0:
78,232,241702,6,0,B|93:259|83:289|83:289|101:311|135:316|171:305|171:305|208:315|234:303,1,198.000006042481,2|0,0:0|0:0,0:0:0:0:
318,310,242755,5,2,0:0:0:0:
318,310,242931,1,2,0:0:0:0:
304,206,243106,2,0,B|361:197|397:226|397:226|461:207|455:132,1,198.000006042481,2|0,0:0|0:0,0:0:0:0:
434,54,244159,5,2,0:0:0:0:
380,119,244334,1,2,0:0:0:0:
310,72,244510,2,0,B|278:59|278:59|167:61,1,125.999996154785,2|2,0:0|0:0,0:0:0:0:
132,145,245211,2,0,B|164:158|164:158|275:156,1,125.999996154785,2|2,0:0|0:0,0:0:0:0:
145,251,245913,6,0,B|223:260|223:260|291:246|291:246|335:272|335:272|404:251,1,270,2|0,0:0|0:0,0:0:0:0:
460,201,247317,2,0,B|429:175|398:175|398:175|343:191|343:191|303:170|303:170|261:178,1,198,2|0,0:0|0:0,0:0:0:0:
276,175,248369,2,0,P|213:141|243:63,1,161.999995056153,8|0,0:0|0:0,0:0:0:0:
236,66,248720,6,0,L|132:73,1,99.0000030212403,6|0,1:2|0:0,0:0:0:0:
16,120,249071,1,8,0:0:0:0:
81,10,249246,1,0,0:0:0:0:
162,170,249422,1,0,1:2:0:0:
162,170,249510,1,0,0:0:0:0:
162,170,249597,1,2,0:0:0:0:
105,84,249773,1,10,0:0:0:0:
13,204,249948,6,0,L|35:305,1,99.0000030212403,2|0,0:0|1:2,0:0:0:0:
224,325,250299,2,0,P|277:313|314:261,1,99.0000030212403,2|8,0:0|0:0,0:0:0:0:
180,250,250650,1,2,0:0:0:0:
386,340,250825,1,0,1:2:0:0:
386,340,250913,1,0,0:0:0:0:
386,340,251001,2,0,P|402:286|391:237,1,99.0000030212403,2|8,0:0|0:0,0:0:0:0:
476,183,251352,1,0,0:0:0:0:
288,201,251527,5,2,1:2:0:0:
316,28,251702,1,0,0:0:0:0:
190,215,251878,1,10,0:0:0:0:
190,215,251966,1,0,0:0:0:0:
190,215,252053,2,0,L|206:334,1,99.0000030212403,2|0,0:0|1:2,0:0:0:0:
177,112,252404,1,2,0:0:0:0:
10,162,252580,1,8,0:0:0:0:
193,107,252755,6,0,L|291:113,1,99.0000030212403,2|0,0:0|1:2,0:0:0:0:
453,192,253106,1,2,0:0:0:0:
446,231,253194,1,0,0:0:0:0:
424,263,253281,1,8,0:0:0:0:
389,282,253369,1,0,0:0:0:0:
349,280,253457,1,0,0:0:0:0:
311,266,253545,2,0,P|274:251|248:234,1,49.5000015106202,0|0,0:0|1:2,0:0:0:0:
291,113,253720,2,0,P|312:101|336:93,1,49.5000015106202,0|2,0:0|0:0,0:0:0:0:
182,163,253983,1,8,1:2:0:0:
359,182,254159,1,2,1:2:0:0:
255,340,254334,6,0,P|195:323|166:291,1,99.0000030212403,6|0,1:2|0:0,0:0:0:0:
108,218,254685,1,8,0:0:0:0:
265,246,254860,1,0,0:0:0:0:
104,120,255036,1,2,1:2:0:0:
104,120,255124,1,0,0:0:0:0:
104,120,255211,1,2,0:0:0:0:
295,61,255387,1,10,0:0:0:0:
295,61,255562,6,0,P|241:71|195:68,1,99.0000030212403,2|0,0:0|1:2,0:0:0:0:
132,34,255825,1,0,0:0:0:0:
116,29,255913,1,2,0:0:0:0:
194,168,256088,1,8,0:0:0:0:
17,108,256264,2,0,L|33:209,1,99.0000030212403,2|0,0:0|1:2,0:0:0:0:
83,317,256615,1,2,0:0:0:0:
228,244,256790,1,8,0:0:0:0:
32,205,256966,1,2,0:0:0:0:
240,248,257141,6,0,L|349:230,1,99.0000030212403,0|2,1:2|0:0,0:0:0:0:
200,146,257492,1,8,0:0:0:0:
289,319,257667,1,2,0:0:0:0:
419,231,257843,1,0,1:2:0:0:
432,188,257931,1,0,0:0:0:0:
416,146,258018,1,0,0:0:0:0:
376,124,258106,1,0,0:0:0:0:
331,129,258194,2,0,L|324:239,1,99.0000030212403,8|0,0:0|0:0,0:0:0:0:
252,54,258545,6,0,P|219:59|186:58,2,66.0000020141602,2|0|0,0:0|0:0|0:0,0:0:0:0:
364,20,258895,1,10,0:0:0:0:
244,145,259071,1,0,1:2:0:0:
244,145,259159,1,0,1:2:0:0:
244,145,259246,1,2,1:2:0:0:
436,203,259422,1,0,1:2:0:0:
347,101,259597,1,8,0:0:0:0:
325,308,259773,1,0,1:2:0:0:
352,318,259860,1,0,1:2:0:0:
381,315,259948,6,0,P|447:295|483:250,1,99.0000030212403,4|2,1:2|0:0,0:0:0:0:
332,224,260299,1,10,0:0:0:0:
510,188,260474,1,2,0:0:0:0:
394,66,260650,2,0,L|276:74,1,99.0000030212403,2|2,1:2|0:0,0:0:0:0:
193,18,261001,1,10,0:0:0:0:
259,163,261176,6,0,L|365:156,1,99.0000030212403,2|0,0:0|1:2,0:0:0:0:
166,111,261527,1,2,0:0:0:0:
207,290,261702,1,8,0:0:0:0:
207,290,261790,1,0,0:0:0:0:
207,290,261878,2,0,L|278:284,1,49.5000015106202,2|0,0:0|0:0,0:0:0:0:
332,358,262053,2,0,L|382:363,1,49.5000015106202,0|0,1:2|0:0,0:0:0:0:
455,261,262229,2,0,P|476:202|469:154,1,99.0000030212403,2|8,0:0|0:0,0:0:0:0:
455,90,262492,1,0,0:0:0:0:
445,77,262580,1,2,0:0:0:0:
306,247,262755,6,0,P|270:192|271:143,1,99.0000030212403,2|2,1:2|0:0,0:0:0:0:
253,39,263106,1,10,0:0:0:0:
181,219,263281,1,2,0:0:0:0:
377,164,263457,1,2,1:2:0:0:
270,121,263632,1,2,0:0:0:0:
277,315,263808,2,0,L|290:386,2,49.5000015106202,8|2|2,0:0|0:0|0:0,0:0:0:0:
378,243,264159,5,0,1:2:0:0:
193,299,264334,2,0,P|154:290|98:260,1,99.0000030212403,2|8,0:0|0:0,0:0:0:0:
158,41,264685,1,2,0:0:0:0:
176,64,264773,1,2,0:0:0:0:
179,93,264860,1,2,1:2:0:0:
173,122,264948,1,2,0:0:0:0:
157,147,265036,1,2,0:0:0:0:
132,163,265124,1,2,0:0:0:0:
105,175,265211,2,0,P|55:183|3:181,1,99.0000030212403,10|2,1:2|1:2,0:0:0:0:
176,64,265562,6,0,P|225:55|278:58,1,99.0000030212403,6|2,1:2|0:0,0:0:0:0:
380,31,265913,1,10,0:0:0:0:
380,31,266001,1,2,0:0:0:0:
380,31,266088,1,2,0:0:0:0:
430,198,266264,2,0,L|418:326,1,99.0000030212403,0|2,1:2|0:0,0:0:0:0:
472,98,266615,1,10,0:0:0:0:
472,98,266702,1,0,0:0:0:0:
472,98,266790,1,2,0:0:0:0:
312,134,266966,5,2,1:2:0:0:
512,180,267141,1,2,0:0:0:0:
295,128,267317,2,0,L|309:253,1,99.0000030212403,8|0,0:0|0:0,0:0:0:0:
237,310,267667,1,2,1:2:0:0:
206,284,267755,1,2,0:0:0:0:
194,245,267843,1,2,0:0:0:0:
200,205,267931,1,2,0:0:0:0:
225,174,268018,2,0,P|190:155|129:158,1,99.0000030212403,10|0,0:0|0:0,0:0:0:0:
237,310,268369,6,0,P|285:313|329:292,1,99.0000030212403,2|0,1:2|0:0,0:0:0:0:
311,194,268720,1,10,0:0:0:0:
408,358,268895,1,2,1:2:0:0:
408,358,268983,1,2,1:2:0:0:
408,358,269071,1,2,1:2:0:0:
468,248,269246,1,2,0:0:0:0:
233,238,269422,2,0,P|226:189|242:123,1,99.0000030212403,8|2,1:2|1:2,1:2:0:0:
317,41,269773,5,4,1:2:0:0:
94,24,269948,1,4,1:2:0:0:
146,315,270124,1,12,1:2:0:0:
94,240,270474,6,0,L|-1:253,1,90,2|2,0:0|0:0,0:0:0:0:
243,171,270825,2,0,P|286:181|312:287,1,161.999995056153,8|0,0:0|0:0,0:0:0:0:
314,282,271176,6,0,B|295:45|295:45|254:61,1,270,4|0,1:2|0:0,0:0:0:0:
76,180,272580,6,0,B|147:188|151:252|151:252|244:194|212:114,1,270,2|0,0:0|0:0,0:0:0:0:
320,75,273983,6,0,P|375:110|393:157,1,107.999996704102,6|0,1:2|0:0,0:0:0:0:
370,245,274685,2,0,P|423:251|478:235,1,107.999996704102,6|0,1:2|0:0,0:0:0:0:
477,257,275387,2,0,P|425:271|371:265,1,107.999996704102,6|0,1:2|0:0,0:0:0:0:
292,204,276088,2,0,P|277:255|283:309,1,107.999996704102,6|0,1:2|0:0,0:0:0:0:
324,81,276790,6,0,B|280:54|222:67|204:120|204:120|283:157|297:221,1,270,6|0,1:2|0:0,0:0:0:0:
212,265,278194,6,0,B|151:257|125:175|125:175|113:254|113:254|156:292,1,270,6|0,1:2|0:0,0:0:0:0:
236,363,279597,6,0,P|309:356|361:333,1,125.999996154785,6|0,1:2|0:0,0:0:0:0:
432,221,280299,2,0,B|387:216|337:225|337:225|369:234|390:230,1,125.999996154785,6|0,1:2|0:0,0:0:0:0:
398,143,281001,2,0,B|422:80|422:80|397:22,1,125.999996154785,6|0,1:2|0:0,0:0:0:0:
206,71,281702,2,0,B|236:85|236:85|329:80,1,125.999996154785,6|0,1:2|0:0,0:0:0:0:
108,55,282404,6,0,P|100:100|126:151,1,72,6|0,1:2|0:0,0:0:0:0:
168,205,282755,1,2,0:0:0:0:
168,205,282931,2,0,P|98:206|52:280,2,144,2|2|2,0:0|0:0|0:0,0:0:0:0:
219,285,283808,6,0,B|260:299|295:285|295:285|339:303|385:281,1,144,2|8,1:2|0:0,0:0:0:0:
349,149,284334,1,2,0:0:0:0:
349,149,284510,2,0,P|335:188|337:221,1,72,2|0,1:2|0:0,0:0:0:0:
227,89,284860,2,0,P|241:128|239:161,1,72,10|0,0:0|0:0,0:0:0:0:
326,58,285211,6,0,B|396:45|451:61|451:61|428:87,1,144,6|2,1:2|0:0,0:0:0:0:
349,149,285738,2,0,L|363:238,1,72,2|0,0:0|0:0,0:0:0:0:
462,214,286088,2,0,L|448:303,1,72,2|8,0:0|0:0,0:0:0:0:
373,346,286439,1,2,0:0:0:0:
373,346,286615,2,0,P|332:307|228:323,1,144,2|8,1:2|0:0,0:0:0:0:
160,350,287141,1,2,0:0:0:0:
160,350,287317,2,0,P|153:280|197:225,1,144,0|8,1:2|0:0,0:0:0:0:
290,166,287843,1,0,0:0:0:0:
247,93,288018,6,0,B|322:65|363:125|363:125|384:82,1,161.999995056153,6|10,1:2|0:0,0:0:0:0:
414,25,288720,1,2,0:0:0:0:
414,25,289071,1,10,0:0:0:0:
479,182,289422,6,0,B|444:190|444:190|397:170|350:189|350:189|318:176,1,161.999995056153,2|2,1:2|0:0,0:0:0:0:
292,341,290124,2,0,P|368:334|399:263,1,161.999995056153,2|10,0:0|0:0,0:0:0:0:
195,243,290825,5,2,0:0:0:0:
195,243,291001,1,0,0:0:0:0:
129,126,291176,2,0,L|39:129,1,90,12|0,1:2|0:0,0:0:0:0:
276,83,291527,5,2,0:0:0:0:
276,83,291702,1,0,0:0:0:0:
392,230,291878,2,0,L|481:233,1,90,12|0,1:2|0:0,0:0:0:0:
240,183,292229,5,2,0:0:0:0:
240,183,292404,1,0,0:0:0:0:
149,326,292580,1,12,1:2:0:0:
137,112,292755,1,0,1:2:0:0:
137,112,292843,1,0,1:2:0:0:
137,112,292931,1,2,1:2:0:0:
57,286,293106,1,2,1:2:0:0:
239,71,293281,2,0,P|327:72|349:9,1,161.999995056153,10|0,1:2|1:2,0:0:0:0:
349,13,293632,6,0,L|376:220,1,198.000006042481,6|8,1:2|0:0,0:0:0:0:
452,46,294159,1,0,0:0:0:0:
288,153,294334,2,0,L|189:159,1,99.0000030212403,0|0,1:2|0:0,0:0:0:0:
68,99,294685,1,10,0:0:0:0:
68,99,294773,1,0,0:0:0:0:
68,99,294860,1,0,0:0:0:0:
102,279,295036,6,0,P|170:266|204:239,1,99.0000030212403,2|0,1:2|0:0,0:0:0:0:
22,219,295387,1,10,0:0:0:0:
262,300,295562,2,0,P|276:244|260:189,1,99.0000030212403,2|0,0:0|0:0,0:0:0:0:
158,132,295913,1,2,0:0:0:0:
337,106,296088,1,8,0:0:0:0:
193,249,296264,1,0,0:0:0:0:
344,96,296439,6,0,P|411:130|398:244,1,198.000006042481,2|8,1:2|0:0,0:0:0:0:
342,340,296966,1,0,0:0:0:0:
316,188,297141,1,0,1:2:0:0:
490,244,297317,1,0,0:0:0:0:
235,291,297492,2,0,P|187:284|133:244,1,99.0000030212403,10|2,0:0|0:0,0:0:0:0:
242,189,297843,5,0,1:2:0:0:
242,189,297931,1,0,0:0:0:0:
242,189,298018,1,0,0:0:0:0:
40,244,298194,2,0,P|27:189|51:121,1,99.0000030212403,8|0,0:0|0:0,0:0:0:0:
224,94,298545,1,2,1:2:0:0:
118,200,298720,1,2,0:0:0:0:
317,236,298895,1,10,1:2:0:0:
249,12,299071,1,2,1:2:0:0:
181,241,299246,6,0,B|223:296|223:296|254:157,1,198.000006042481,6|8,1:2|0:0,0:0:0:0:
298,74,299773,1,0,0:0:0:0:
157,128,299948,1,0,1:2:0:0:
157,128,300036,1,0,0:0:0:0:
157,128,300124,1,0,0:0:0:0:
353,167,300299,2,0,P|415:164|461:127,1,99.0000030212403,10|0,0:0|0:0,0:0:0:0:
452,318,300650,6,0,P|408:340|359:339,1,99.0000030212403,2|0,1:2|0:0,0:0:0:0:
481,227,301001,1,10,0:0:0:0:
269,351,301176,2,0,L|251:246,1,99.0000030212403,2|0,0:0|1:2,0:0:0:0:
266,94,301527,1,2,0:0:0:0:
152,245,301702,1,8,0:0:0:0:
138,43,301878,1,0,0:0:0:0:
315,188,302053,6,0,P|388:213|445:122,1,198.000006042481,2|8,1:2|0:0,0:0:0:0:
401,64,302492,1,0,0:0:0:0:
388,55,302580,1,0,0:0:0:0:
495,240,302755,1,0,1:2:0:0:
363,131,302931,1,2,0:0:0:0:
412,336,303106,1,10,0:0:0:0:
493,137,303281,1,2,0:0:0:0:
305,252,303457,5,0,1:2:0:0:
305,252,303545,1,0,0:0:0:0:
305,252,303632,1,0,0:0:0:0:
233,37,303808,2,0,L|222:136,1,99.0000030212403,8|0,0:0|0:0,0:0:0:0:
350,112,304159,1,2,1:2:0:0:
195,269,304334,1,2,0:0:0:0:
222,135,304510,1,10,1:2:0:0:
236,364,304685,1,2,1:2:0:0:
118,104,304860,6,0,P|62:119|28:153,1,99.0000030212403,6|0,1:2|0:0,0:0:0:0:
222,135,305211,1,10,1:2:0:0:
268,290,305387,2,0,P|328:262|351:224,1,99.0000030212403,2|0,0:0|1:2,0:0:0:0:
208,209,305738,1,2,0:0:0:0:
373,130,305913,1,8,0:0:0:0:
373,130,306001,1,0,0:0:0:0:
373,130,306088,1,2,0:0:0:0:
194,217,306264,6,0,P|142:212|91:183,1,99.0000030212403,2|2,1:2|0:0,0:0:0:0:
360,228,306615,2,0,L|374:119,1,99.0000030212403,8|2,0:0|0:0,0:0:0:0:
439,295,306966,1,0,1:2:0:0:
258,260,307141,1,0,0:0:0:0:
467,185,307317,1,8,0:0:0:0:
467,185,307404,1,0,0:0:0:0:
467,185,307492,1,0,0:0:0:0:
233,159,307667,6,0,P|171:159|121:186,1,99.0000030212403,2|0,1:2|0:0,0:0:0:0:
258,260,308018,1,10,0:0:0:0:
386,155,308194,2,0,P|405:102|397:54,1,99.0000030212403,2|0,0:0|0:0,0:0:0:0:
193,8,308545,2,0,P|174:61|182:109,1,99.0000030212403,2|10,0:0|0:0,0:0:0:0:
286,46,308895,1,2,0:0:0:0:
91,142,309071,5,2,1:2:0:0:
91,142,309159,1,0,0:0:0:0:
91,142,309246,1,2,0:0:0:0:
48,26,309422,1,8,0:0:0:0:
185,176,309597,2,0,L|311:165,1,99.0000030212403,2|0,0:0|1:2,0:0:0:0:
438,181,309948,1,0,0:0:0:0:
312,252,310124,1,8,1:2:0:0:
356,65,310299,1,0,1:2:0:0:
304,264,310474,6,0,L|186:275,1,99.0000030212403,6|0,1:2|0:0,0:0:0:0:
260,164,310825,1,10,0:0:0:0:
371,329,311001,1,2,1:2:0:0:
400,330,311088,1,0,1:2:0:0:
428,321,311176,2,0,P|468:275|471:212,1,99.0000030212403,0|2,1:2|1:2,0:0:0:0:
356,125,311527,1,8,1:2:0:0:
388,243,311702,1,2,1:2:0:0:
433,48,311878,5,6,1:2:0:0:
290,269,312053,1,4,1:2:0:0:
164,22,312229,1,12,1:2:0:0:
219,193,312580,6,0,P|238:156|267:201,1,90,2|2,0:0|0:0,0:0:0:0:
224,312,312931,2,0,P|179:283|107:352,1,161.999995056153,10|0,0:0|0:0,0:0:0:0:
107,345,313281,6,0,L|93:240,1,90,6|2,1:2|0:0,0:0:0:0:
154,107,313632,2,0,P|117:166|-9:152,1,180,10|0,0:0|1:2,0:0:0:0:
61,66,314159,1,0,0:0:0:0:
126,193,314334,2,0,P|181:194|239:217,1,90,8|0,0:0|0:0,0:0:0:0:
322,354,314685,6,0,L|329:255,1,90,0|0,1:2|0:0,0:0:0:0:
312,126,315036,1,8,0:0:0:0:
232,297,315211,1,0,1:2:0:0:
232,297,315299,1,0,1:2:0:0:
232,297,315387,1,2,1:2:0:0:
442,274,315562,1,2,1:2:0:0:
372,54,315738,1,10,1:2:0:0:
340,36,315825,1,0,1:2:0:0:
303,33,315913,1,2,1:2:0:0:
267,40,316001,1,0,1:2:0:0:
243,69,316088,6,0,P|209:119|85:118,1,188.999994232178,6|8,1:2|0:0,0:0:0:0:
149,29,316615,1,0,0:0:0:0:
172,228,316790,2,0,L|183:126,1,94.499997116089,2|0,1:2|0:0,0:0:0:0:
93,292,317141,1,10,0:0:0:0:
265,269,317317,1,2,0:0:0:0:
97,148,317492,5,0,1:2:0:0:
97,148,317580,1,0,0:0:0:0:
97,148,317668,1,2,0:0:0:0:
279,277,317843,2,0,L|389:261,1,94.499997116089,10|0,0:0|0:0,0:0:0:0:
440,233,318106,1,0,0:0:0:0:
452,225,318194,1,2,1:2:0:0:
312,176,318369,1,0,0:0:0:0:
484,99,318545,1,10,0:0:0:0:
453,321,318720,1,0,0:0:0:0:
486,85,318896,6,0,L|390:80,1,94.499997116089,2|0,1:2|0:0,0:0:0:0:
217,169,319246,1,8,0:0:0:0:
217,169,319334,1,0,0:0:0:0:
217,169,319422,2,0,L|316:176,1,94.499997116089,2|0,0:0|1:2,0:0:0:0:
149,121,319685,1,0,0:0:0:0:
149,121,319773,2,0,P|135:158|144:221,1,94.499997116089,2|8,0:0|0:0,0:0:0:0:
224,86,320124,6,0,P|192:52|132:40,1,94.499997116089,2|0,0:0|1:2,0:0:0:0:
86,70,320387,1,0,0:0:0:0:
77,79,320475,1,2,0:0:0:0:
317,48,320650,1,10,0:0:0:0:
370,230,320825,1,0,0:0:0:0:
352,252,320913,1,0,0:0:0:0:
327,267,321001,2,0,P|252:282|189:194,1,188.999994232178,2|10,1:2|1:2,0:0:0:0:
324,40,321527,1,0,1:2:0:0:
351,45,321615,1,0,0:0:0:0:
373,61,321703,6,0,P|400:109|391:183,1,94.499997116089,6|0,1:2|0:0,0:0:0:0:
146,98,322053,2,0,P|193:66|271:71,1,94.499997116089,10|0,0:0|0:0,0:0:0:0:
326,264,322404,2,0,B|283:316|283:316|259:170,1,188.999994232178,2|10,1:2|0:0,0:0:0:0:
177,290,322931,1,2,0:0:0:0:
353,186,323106,5,0,1:2:0:0:
353,186,323194,1,0,0:0:0:0:
353,186,323282,1,2,0:0:0:0:
341,372,323457,1,10,0:0:0:0:
191,174,323632,1,0,0:0:0:0:
166,188,323720,1,0,0:0:0:0:
154,214,323808,2,0,P|166:260|151:327,1,94.499997116089,2|0,1:2|0:0,0:0:0:0:
74,370,324159,1,10,0:0:0:0:
160,305,324510,6,0,P|244:293|361:297,1,188.999994232178,2|8,1:2|0:0,0:0:0:0:
421,227,324948,1,0,0:0:0:0:
421,227,325036,2,0,P|366:214|316:214,1,94.499997116089,2|0,0:0|1:2,0:0:0:0:
247,153,325299,1,0,0:0:0:0:
247,153,325387,2,0,P|302:140|352:140,1,94.499997116089,2|8,0:0|0:0,0:0:0:0:
420,78,325738,6,0,P|365:65|315:65,1,94.499997116089,2|0,0:0|1:2,0:0:0:0:
254,70,326001,1,0,0:0:0:0:
236,74,326089,1,2,0:0:0:0:
273,237,326264,1,10,0:0:0:0:
482,153,326439,1,0,1:2:0:0:
482,153,326527,1,0,1:2:0:0:
482,153,326615,1,2,1:2:0:0:
347,133,326790,1,0,1:2:0:0:
383,315,326966,1,10,1:2:0:0:
360,331,327053,1,0,1:2:0:0:
334,342,327141,1,0,1:2:0:0:
305,346,327229,1,0,1:2:0:0:
276,348,327317,6,0,P|226:344|167:319,1,94.499997116089,6|0,1:2|0:0,0:0:0:0:
174,130,327667,2,0,P|185:178|169:225,1,94.499997116089,10|0,0:0|0:0,0:0:0:0:
37,362,328018,2,0,L|27:259,1,94.499997116089,2|0,1:2|0:0,0:0:0:0:
133,298,328369,1,10,0:0:0:0:
18,128,328545,1,2,0:0:0:0:
18,128,328720,6,0,P|81:127|120:157,1,94.499997116089,0|2,1:2|0:0,0:0:0:0:
46,222,329071,1,10,0:0:0:0:
152,53,329246,1,0,0:0:0:0:
179,47,329334,1,0,0:0:0:0:
207,47,329422,2,0,P|263:49|318:81,1,94.499997116089,2|0,1:2|0:0,0:0:0:0:
404,169,329773,1,10,0:0:0:0:
414,180,330124,6,0,L|408:300,1,94.499997116089,2|0,1:2|0:0,0:0:0:0:
255,349,330474,1,8,0:0:0:0:
255,349,330562,1,0,0:0:0:0:
255,349,330650,2,0,L|249:251,1,94.499997116089,2|0,0:0|1:2,0:0:0:0:
178,183,330913,1,0,0:0:0:0:
178,183,331001,2,0,L|172:281,1,94.499997116089,2|8,0:0|0:0,0:0:0:0:
100,347,331264,1,0,0:0:0:0:
100,347,331352,6,0,L|94:249,1,94.499997116089,2|0,0:0|1:2,0:0:0:0:
87,179,331615,1,0,0:0:0:0:
83,163,331702,1,2,0:0:0:0:
249,254,331878,1,10,0:0:0:0:
227,39,332053,1,0,0:0:0:0:
254,33,332141,1,0,0:0:0:0:
282,34,332229,2,0,P|334:35|392:58,1,94.499997116089,2|0,1:2|0:0,0:0:0:0:
398,149,332580,1,10,1:2:0:0:
210,124,332755,1,0,1:2:0:0:
210,124,332843,1,0,0:0:0:0:
210,124,332931,6,0,P|189:165|199:243,1,94.499997116089,6|0,1:2|0:0,0:0:0:0:
228,318,333281,1,10,0:0:0:0:
272,192,333457,1,0,0:0:0:0:
369,357,333632,2,0,L|377:261,1,94.499997116089,2|0,1:2|0:0,0:0:0:0:
402,128,333983,1,10,0:0:0:0:
470,291,334159,1,2,0:0:0:0:
470,291,334334,5,0,1:2:0:0:
496,185,334510,1,2,0:0:0:0:
305,274,334685,1,10,0:0:0:0:
334,72,334860,1,0,0:0:0:0:
306,66,334948,1,0,0:0:0:0:
277,64,335036,2,0,P|228:63|146:85,1,94.499997116089,2|0,1:2|0:0,0:0:0:0:
69,128,335387,1,10,0:0:0:0:
75,141,335738,5,2,1:2:0:0:
33,28,335913,1,0,0:0:0:0:
183,207,336088,1,8,0:0:0:0:
209,218,336176,1,0,0:0:0:0:
237,220,336264,1,2,1:2:0:0:
265,218,336352,1,0,1:2:0:0:
291,208,336439,2,0,P|339:156|339:96,1,94.499997116089,0|2,1:2|1:2,0:0:0:0:
391,265,336790,2,0,P|373:291|360:301,1,47.2499985580445,8|0,0:0|0:0,0:0:0:0:
258,325,336966,1,0,1:2:0:0:
258,325,337053,1,0,1:2:0:0:
258,325,337141,5,4,1:2:0:0:
162,101,337317,1,4,1:2:0:0:
454,180,337492,1,12,1:2:0:0:
242,220,338194,6,0,P|234:170|258:223,1,175.499991966248,10|0,0:0|0:0,0:0:0:0:
256,192,338545,1,6,0:0:0:0:
256,192,338720,12,0,342053,0:0:0:0:
