osu file format v14

[General]
AudioFilename: jibun rest@rt.mp3
AudioLeadIn: 0
PreviewTime: 68446
Countdown: 1
SampleSet: Normal
StackLeniency: 0.7
Mode: 1
LetterboxInBreaks: 0
WidescreenStoryboard: 0

[Editor]
DistanceSpacing: 0.8
BeatDivisor: 4
GridSize: 32
TimelineZoom: 5.899996

[Metadata]
Title:Jibun REST@RT (Cut Ver.)
TitleUnicode:自分REST@RT (Cut Ver.)
Artist:765PRO ALLSTARS
ArtistUnicode:765PRO ALLSTARS
Creator:KanaRin
Version:Futsuu
Source:THE IDOLM@STER
Tags:aabc271 anime japanese pop jpop j-pop video game version idolmaster アイドルマスター im@s imas m@ster master insert song 田中秀和 tanaka hidekazu 佐々木宏人 sasaki hiroto
BeatmapID:2564620
BeatmapSetID:315288

[Difficulty]
HPDrainRate:6
CircleSize:5
OverallDifficulty:4
ApproachRate:5
SliderMultiplier:1.4
SliderTickRate:1

[Events]
//Background and Video events
0,0,"THE.iDOLM@STER..jpg",0,0
//Break Periods
//Storyboard Layer 0 (Background)
//Storyboard Layer 1 (Fail)
//Storyboard Layer 2 (Pass)
//Storyboard Layer 3 (Foreground)
//Storyboard Layer 4 (Overlay)
//Storyboard Sound Samples

[TimingPoints]
376,350.877192982456,4,1,0,70,1,0
69147,-100,4,1,0,85,0,1
111253,-100,4,1,0,85,0,0

[Colours]
Combo1 : 255,255,0
Combo2 : 5,240,5

[HitObjects]
227,309,1779,5,4,0:0:0:0:
394,155,2481,1,8,0:0:0:0:
123,294,2832,5,0,0:0:0:0:
65,210,3007,5,8,0:0:0:0:
407,349,3358,1,8,0:0:0:0:
184,302,3533,5,0,0:0:0:0:
270,289,3884,5,8,0:0:0:0:
191,282,4235,5,0,0:0:0:0:
191,282,4586,5,8,0:0:0:0:
255,206,5112,5,8,0:0:0:0:
191,282,5463,1,8,0:0:0:0:
283,276,5814,5,8,0:0:0:0:
222,316,6165,1,8,0:0:0:0:
233,282,6340,5,0,0:0:0:0:
203,323,6691,5,0,0:0:0:0:
233,282,7042,5,8,0:0:0:0:
242,293,7393,5,8,0:0:0:0:
272,241,8095,5,0,0:0:0:0:
283,269,8446,1,0,0:0:0:0:
268,271,8621,5,8,0:0:0:0:
268,271,8972,1,8,0:0:0:0:
262,250,9147,5,0,0:0:0:0:
224,243,9498,5,8,0:0:0:0:
256,192,9849,5,0,0:0:0:0:
256,271,10200,5,8,0:0:0:0:
264,252,10726,5,8,0:0:0:0:
264,245,11077,1,8,0:0:0:0:
264,245,11428,5,8,0:0:0:0:
255,276,11779,1,8,0:0:0:0:
243,256,11954,5,0,0:0:0:0:
226,253,12305,5,8,0:0:0:0:
248,242,12656,1,12,0:0:0:0:
263,241,13007,5,4,0:0:0:0:
280,291,13709,5,0,0:0:0:0:
280,291,14060,1,8,0:0:0:0:
352,192,14411,1,0,0:0:0:0:
344,141,14761,5,8,0:0:0:0:
238,227,14937,1,8,0:0:0:0:
251,258,15112,1,0,0:0:0:0:
195,323,15463,5,8,0:0:0:0:
338,319,15814,5,0,0:0:0:0:
270,312,16165,5,8,0:0:0:0:
246,256,16516,5,0,0:0:0:0:
257,225,16691,5,0,0:0:0:0:
265,263,16867,5,8,0:0:0:0:
259,256,17568,5,8,0:0:0:0:
347,197,17919,1,0,0:0:0:0:
266,256,18270,1,8,0:0:0:0:
352,192,18621,1,4,0:0:0:0:
220,298,18972,1,8,0:0:0:0:
304,314,19323,5,0,0:0:0:0:
256,288,19498,1,0,0:0:0:0:
262,314,19674,1,8,0:0:0:0:
276,273,20375,5,8,0:0:0:0:
220,261,20726,5,0,0:0:0:0:
238,226,21077,5,8,0:0:0:0:
265,241,21253,1,8,0:0:0:0:
236,244,21428,5,0,0:0:0:0:
260,236,21779,5,8,0:0:0:0:
251,235,22130,5,0,0:0:0:0:
263,259,22305,5,0,0:0:0:0:
246,251,22481,5,8,0:0:0:0:
252,220,22832,5,0,0:0:0:0:
272,228,23183,1,8,0:0:0:0:
297,276,23358,5,0,0:0:0:0:
317,148,23533,5,0,0:0:0:0:
256,192,23884,1,8,0:0:0:0:
216,113,24235,5,4,0:0:0:0:
178,220,24937,5,0,0:0:0:0:
176,255,25112,5,0,0:0:0:0:
241,255,25288,1,8,0:0:0:0:
287,260,25639,5,0,0:0:0:0:
326,202,25990,1,8,0:0:0:0:
204,260,26165,5,0,0:0:0:0:
201,286,26516,1,0,0:0:0:0:
371,121,26691,5,8,0:0:0:0:
182,181,27393,5,8,0:0:0:0:
259,267,27744,5,0,0:0:0:0:
293,292,27919,1,0,0:0:0:0:
279,264,28095,5,8,0:0:0:0:
277,255,28446,5,0,0:0:0:0:
225,248,28797,1,8,0:0:0:0:
92,276,28972,5,0,0:0:0:0:
194,238,29323,1,0,0:0:0:0:
258,132,29498,5,8,0:0:0:0:
200,240,30200,5,8,0:0:0:0:
341,199,30551,5,0,0:0:0:0:
218,94,30726,5,0,0:0:0:0:
283,116,30902,5,8,0:0:0:0:
365,72,31253,5,0,0:0:0:0:
324,125,31604,1,8,0:0:0:0:
325,177,31779,5,8,0:0:0:0:
220,243,31954,1,0,0:0:0:0:
294,48,32130,1,0,0:0:0:0:
286,261,32305,5,8,0:0:0:0:
241,95,32656,5,0,0:0:0:0:
295,125,33007,5,8,0:0:0:0:
301,133,33183,1,0,0:0:0:0:
346,153,33533,5,0,0:0:0:0:
346,166,33709,5,8,0:0:0:0:
348,181,34060,5,0,0:0:0:0:
338,175,34411,1,8,0:0:0:0:
330,190,35112,1,8,0:0:0:0:
190,235,35463,1,4,0:0:0:0:
190,235,35814,1,8,0:0:0:0:
190,235,36165,5,0,0:0:0:0:
190,235,36340,5,0,0:0:0:0:
190,235,36516,1,8,0:0:0:0:
295,351,36867,5,0,0:0:0:0:
201,244,37218,1,8,0:0:0:0:
311,284,37393,1,0,0:0:0:0:
311,284,37744,1,0,0:0:0:0:
311,284,37919,5,8,0:0:0:0:
311,284,38621,5,8,0:0:0:0:
381,278,38972,1,0,0:0:0:0:
311,284,39323,5,8,0:0:0:0:
311,284,39498,1,8,0:0:0:0:
311,284,39674,5,0,0:0:0:0:
242,323,40025,1,8,0:0:0:0:
215,234,40200,1,0,0:0:0:0:
233,191,40551,1,0,0:0:0:0:
244,247,40726,1,8,0:0:0:0:
280,259,40902,1,8,0:0:0:0:
287,269,41077,5,0,0:0:0:0:
275,246,41428,5,8,0:0:0:0:
316,171,41779,5,0,0:0:0:0:
297,159,41954,5,0,0:0:0:0:
266,125,42130,5,8,0:0:0:0:
161,164,42481,5,0,0:0:0:0:
196,215,42832,1,8,0:0:0:0:
176,242,43007,5,0,0:0:0:0:
262,243,43183,1,0,0:0:0:0:
197,159,43358,1,0,0:0:0:0:
273,274,43533,5,8,0:0:0:0:
344,245,43884,5,0,0:0:0:0:
256,192,44235,1,8,0:0:0:0:
256,192,44937,5,8,0:0:0:0:
256,192,45288,5,0,0:0:0:0:
246,238,45463,5,0,0:0:0:0:
255,247,45639,5,8,0:0:0:0:
214,242,45990,5,0,0:0:0:0:
162,266,46340,1,8,0:0:0:0:
277,243,46516,5,8,0:0:0:0:
249,258,46691,1,4,0:0:0:0:
256,192,47042,5,8,0:0:0:0:
249,267,47393,5,0,0:0:0:0:
247,248,48095,1,0,0:0:0:0:
243,245,48270,1,0,0:0:0:0:
256,192,48446,5,8,0:0:0:0:
256,192,48797,1,0,0:0:0:0:
257,262,49147,5,8,0:0:0:0:
258,232,49323,5,8,0:0:0:0:
285,329,49498,5,0,0:0:0:0:
293,322,49849,5,8,0:0:0:0:
241,250,50200,1,0,0:0:0:0:
291,282,50902,1,0,0:0:0:0:
306,318,51077,1,0,0:0:0:0:
336,157,51253,5,8,0:0:0:0:
296,137,51604,1,0,0:0:0:0:
296,110,51779,5,0,0:0:0:0:
262,139,51954,5,8,0:0:0:0:
251,238,52130,5,0,0:0:0:0:
235,157,52305,1,0,0:0:0:0:
193,188,52656,5,8,0:0:0:0:
221,240,53007,1,0,0:0:0:0:
256,192,53358,5,8,0:0:0:0:
239,191,53533,1,8,0:0:0:0:
250,240,53709,5,0,0:0:0:0:
255,203,54060,5,8,0:0:0:0:
256,192,54411,1,0,0:0:0:0:
256,192,54761,5,8,0:0:0:0:
256,192,55112,5,0,0:0:0:0:
256,192,55814,5,0,0:0:0:0:
256,192,55990,1,0,0:0:0:0:
352,192,56165,1,8,0:0:0:0:
256,192,56516,1,12,0:0:0:0:
256,192,56867,1,12,0:0:0:0:
275,286,57218,1,12,0:0:0:0:
196,246,57568,1,12,0:0:0:0:
295,224,57919,5,12,0:0:0:0:
241,250,58270,1,8,0:0:0:0:
285,190,58621,5,0,0:0:0:0:
277,219,59323,1,0,0:0:0:0:
287,206,59674,5,8,0:0:0:0:
254,253,60025,1,0,0:0:0:0:
217,253,60375,5,8,0:0:0:0:
171,228,60551,1,0,0:0:0:0:
204,294,60726,5,0,0:0:0:0:
254,253,61077,5,8,0:0:0:0:
253,301,61428,5,0,0:0:0:0:
232,226,62130,1,0,0:0:0:0:
206,273,62481,5,8,0:0:0:0:
332,178,62832,1,0,0:0:0:0:
257,271,63183,5,8,0:0:0:0:
222,198,63358,1,0,0:0:0:0:
253,260,63533,1,0,0:0:0:0:
226,257,63884,5,8,0:0:0:0:
256,192,64235,1,0,0:0:0:0:
256,192,64411,1,0,0:0:0:0:
316,245,64586,5,8,0:0:0:0:
243,230,64937,5,0,0:0:0:0:
264,255,65288,5,8,0:0:0:0:
272,246,65639,1,0,0:0:0:0:
253,236,65814,5,0,0:0:0:0:
264,255,65990,5,8,0:0:0:0:
234,250,66165,5,0,0:0:0:0:
231,261,66340,5,0,0:0:0:0:
251,279,66691,5,8,0:0:0:0:
262,237,67218,5,0,0:0:0:0:
255,239,67393,1,8,0:0:0:0:
253,246,67744,1,4,0:0:0:0:
241,235,67919,1,4,0:0:0:0:
241,235,68095,1,4,0:0:0:0:
248,243,68797,5,12,0:0:0:0:
258,236,69147,5,4,0:0:0:0:
290,230,69498,5,8,0:0:0:0:
215,116,70025,5,0,0:0:0:0:
281,141,70200,5,8,0:0:0:0:
256,192,70551,5,0,0:0:0:0:
256,128,70726,1,0,0:0:0:0:
235,165,70902,5,8,0:0:0:0:
256,192,71077,5,0,0:0:0:0:
145,209,71428,1,0,0:0:0:0:
256,192,71604,5,8,0:0:0:0:
237,231,71954,5,0,0:0:0:0:
287,156,72305,1,8,0:0:0:0:
262,231,72832,5,0,0:0:0:0:
222,231,73007,5,8,0:0:0:0:
303,148,73358,5,0,0:0:0:0:
314,285,74060,5,0,0:0:0:0:
314,285,74235,1,0,0:0:0:0:
314,285,74411,5,8,0:0:0:0:
238,278,74586,5,8,0:0:0:0:
329,242,74761,5,4,0:0:0:0:
314,285,75112,5,8,0:0:0:0:
314,285,75639,5,0,0:0:0:0:
249,300,75814,1,8,0:0:0:0:
314,285,76165,5,0,0:0:0:0:
314,285,76516,5,8,0:0:0:0:
150,75,76691,5,0,0:0:0:0:
346,255,77042,1,0,0:0:0:0:
244,260,77218,5,8,0:0:0:0:
243,171,77568,1,0,0:0:0:0:
265,170,77919,1,8,0:0:0:0:
358,212,78446,5,0,0:0:0:0:
358,212,78621,5,8,0:0:0:0:
358,212,78972,5,0,0:0:0:0:
351,246,79674,5,8,0:0:0:0:
288,224,79849,1,0,0:0:0:0:
351,246,80025,5,8,0:0:0:0:
351,246,80200,1,8,0:0:0:0:
351,246,80375,5,4,0:0:0:0:
303,317,80726,5,8,0:0:0:0:
256,192,81253,1,0,0:0:0:0:
281,256,81428,5,8,0:0:0:0:
260,239,81779,5,0,0:0:0:0:
266,244,82130,1,8,0:0:0:0:
192,192,82305,1,0,0:0:0:0:
230,228,82656,5,8,0:0:0:0:
284,178,82832,5,8,0:0:0:0:
327,293,83183,5,0,0:0:0:0:
256,192,83533,5,8,0:0:0:0:
256,192,84060,5,0,0:0:0:0:
232,258,84235,5,8,0:0:0:0:
251,257,84586,5,0,0:0:0:0:
256,192,84761,5,0,0:0:0:0:
238,155,84937,1,8,0:0:0:0:
256,192,85112,1,0,0:0:0:0:
314,205,85463,1,8,0:0:0:0:
314,205,85639,5,8,0:0:0:0:
341,188,85990,5,4,0:0:0:0:
271,112,86691,5,0,0:0:0:0:
240,255,87042,5,8,0:0:0:0:
250,243,87393,5,0,0:0:0:0:
256,192,87568,5,0,0:0:0:0:
256,192,87744,5,8,0:0:0:0:
223,238,87919,5,0,0:0:0:0:
254,260,88095,5,0,0:0:0:0:
252,233,88446,5,8,0:0:0:0:
196,220,88797,5,0,0:0:0:0:
256,192,89147,5,12,0:0:0:0:
256,192,89498,5,0,0:0:0:0:
256,192,89849,5,12,0:0:0:0:
55,257,90200,5,0,0:0:0:0:
404,291,90551,5,12,0:0:0:0:
84,303,90902,1,12,0:0:0:0:
197,35,91253,1,12,0:0:0:0:
328,62,91604,5,4,0:0:0:0:
256,192,91954,1,8,0:0:0:0:
242,290,92656,5,8,0:0:0:0:
256,280,93007,5,0,0:0:0:0:
396,101,93183,5,0,0:0:0:0:
410,96,93358,5,8,0:0:0:0:
243,269,93533,5,0,0:0:0:0:
175,282,93884,1,0,0:0:0:0:
260,254,94060,5,8,0:0:0:0:
308,272,94411,5,0,0:0:0:0:
276,267,94761,1,8,0:0:0:0:
231,261,95463,5,8,0:0:0:0:
327,318,95814,5,0,0:0:0:0:
301,190,96165,1,8,0:0:0:0:
353,141,96516,1,0,0:0:0:0:
286,196,96691,1,8,0:0:0:0:
191,281,96867,5,8,0:0:0:0:
200,285,97218,5,4,0:0:0:0:
282,306,97568,5,8,0:0:0:0:
384,186,98095,1,0,0:0:0:0:
99,216,98270,1,8,0:0:0:0:
256,192,98621,5,0,0:0:0:0:
256,192,98972,5,8,0:0:0:0:
250,249,99147,5,0,0:0:0:0:
232,235,99498,1,0,0:0:0:0:
256,192,99674,5,8,0:0:0:0:
306,245,100025,1,0,0:0:0:0:
332,148,100375,5,8,0:0:0:0:
300,139,101077,5,8,0:0:0:0:
256,192,101428,5,0,0:0:0:0:
256,192,101779,5,8,0:0:0:0:
197,194,101954,1,0,0:0:0:0:
256,192,102130,5,0,0:0:0:0:
254,261,102481,5,8,0:0:0:0:
344,143,102832,5,4,0:0:0:0:
370,135,103183,5,8,0:0:0:0:
254,261,103709,1,0,0:0:0:0:
188,243,103884,5,8,0:0:0:0:
238,271,104235,5,0,0:0:0:0:
248,272,104411,5,0,0:0:0:0:
301,188,104586,1,8,0:0:0:0:
224,96,104761,1,0,0:0:0:0:
266,287,105112,5,8,0:0:0:0:
193,271,105288,5,8,0:0:0:0:
143,304,105639,5,0,0:0:0:0:
282,254,105990,5,8,0:0:0:0:
257,244,106516,5,0,0:0:0:0:
249,251,106691,5,8,0:0:0:0:
256,251,107042,5,0,0:0:0:0:
268,226,107393,1,8,0:0:0:0:
236,283,107568,1,0,0:0:0:0:
299,159,107919,1,8,0:0:0:0:
228,267,108095,5,8,0:0:0:0:
205,306,108446,5,4,0:0:0:0:
261,267,108797,5,8,0:0:0:0:
254,253,109147,1,0,0:0:0:0:
257,249,109323,1,0,0:0:0:0:
225,270,109498,5,8,0:0:0:0:
209,289,109849,5,4,0:0:0:0:
196,238,110025,5,4,0:0:0:0:
216,254,110200,5,4,0:0:0:0:
38,303,110902,1,12,0:0:0:0:
449,77,111253,1,4,0:0:0:0:
