osu file format v14

[General]
AudioFilename: audio.mp3
AudioLeadIn: 0
PreviewTime: 75864
Countdown: 0
SampleSet: Soft
StackLeniency: 1
Mode: 0
LetterboxInBreaks: 0
WidescreenStoryboard: 1

[Editor]
Bookmarks: 73658
DistanceSpacing: 0.6
BeatDivisor: 4
GridSize: 32
TimelineZoom: 1.6

[Metadata]
Title:Yume ni Kakeru Rainbow
TitleUnicode:夢にかけるRainbow
Artist:765 MILLION ALLSTARS
ArtistUnicode:765 MILLION ALLSTARS
Creator:TsumugiP
Version:Usapyon's Insane
Source:アイドルマスター ミリオンライブ!
Tags:japanese video game w_m gears _Meep_ Mrgglock Usaha Hanasaka Yui Nana Abe takekii Mocaotic The Rainbow for Dreams 5th Anniversary シアターデイズ ミリシタ idolmaster idol idolm@ster million live! theater days the@ter mltd pop imas im@s jpop j-pop idols アイマス ミリマス anime 765PRO 765プロ 765
BeatmapID:3902402
BeatmapSetID:1799740

[Difficulty]
HPDrainRate:5
CircleSize:4
OverallDifficulty:7
ApproachRate:8.5
SliderMultiplier:1.8
SliderTickRate:1

[Events]
//Background and Video events
0,0,"anniversary.jpg",0,0
Video,-500,"video.mp4"
//Break Periods
//Storyboard Layer 0 (Background)
//Storyboard Layer 1 (Fail)
//Storyboard Layer 2 (Pass)
//Storyboard Layer 3 (Foreground)
//Storyboard Layer 4 (Overlay)
//Storyboard Sound Samples

[TimingPoints]
-18,441.176470588235,4,2,1,15,1,0
7040,-100,4,2,1,31,0,0
10129,-100,4,2,1,70,0,0
10570,-100,4,2,1,65,0,0
26452,-100,4,2,1,40,0,0
26893,-125,4,2,1,40,0,0
38474,-125,4,2,1,48,0,0
38584,-125,4,2,1,60,0,0
40349,-125,4,2,1,35,0,0
40570,-100,4,2,1,65,0,0
54687,-100,4,2,1,35,0,0
56231,-125,4,2,1,35,0,0
62629,-125,4,2,1,45,0,0
63511,-125,4,2,1,57,0,0
64393,-125,4,2,1,70,0,0
65276,-125,4,2,1,35,0,0
68364,-125,4,2,1,85,0,0
68805,-100,4,2,1,60,0,0
69026,-100,4,2,1,45,0,0
69467,-100,4,2,1,49,0,0
69908,-100,4,2,1,54,0,0
70349,-100,4,2,1,59,0,0
70790,-100,4,2,1,64,0,0
71231,-100,4,2,1,70,0,0
71673,-100,4,2,1,78,0,0
71893,-100,4,2,1,80,0,0
72004,-100,4,2,1,81,0,0
72114,-100,4,2,1,83,0,0
72224,-100,4,2,1,85,0,0
72334,-100,4,2,1,90,0,0
75423,-100,4,2,1,50,0,0
75864,-100,4,2,1,80,0,1
100570,-100,4,2,1,90,0,0
101231,-100,4,2,1,70,0,0
102334,-100,4,2,1,90,0,0
102996,-100,4,2,1,70,0,0
103217,-100,4,2,1,80,0,0
103437,-100,4,2,1,66,0,0
103658,-100,4,2,1,55,0,0
103879,-100,4,2,1,47,0,0
104099,-100,4,2,1,77,0,0
104761,-100,4,2,1,44,0,0
104981,-100,4,2,1,48,0,0
105202,-100,4,2,1,54,0,0
105423,-100,4,2,1,70,0,0
105643,-100,4,2,1,93,0,0
105864,-100,4,2,1,80,0,0
106084,-100,4,2,1,70,0,0
106746,-100,4,2,1,55,0,0
107077,-100,4,2,1,45,0,0
107408,-100,4,2,1,35,0,0
107629,-100,4,2,1,65,0,0
121746,-100,4,2,1,45,0,0
123731,476.190476190476,4,2,1,45,1,0
123969,444.444444444444,4,2,1,45,1,0
124192,468.75,4,2,1,45,1,0
124426,618.556701030927,4,2,1,45,1,0
124619,530.973451327433,4,2,1,45,1,0
124884,869.565217391304,4,2,1,45,1,0

[Colours]
Combo1 : 136,255,187
Combo2 : 253,174,255
Combo3 : 201,191,255
Combo4 : 147,201,255
Combo5 : 157,240,244

[HitObjects]
189,107,7040,5,2,2:0:0:0:
256,192,7151,12,2,8805,2:0:0:0:
353,192,10129,6,0,L|410:204,3,45,14|2|2|2,2:0|2:0|2:0|2:0,2:0:0:0:
322,226,10570,6,0,L|445:255,1,90,6|4,3:1|1:3,2:0:0:0:
267,283,11011,1,8,2:0:0:0:
453,234,11231,1,4,1:3:0:0:
351,86,11452,1,0,3:0:0:0:
453,234,11673,1,4,1:3:0:0:
266,210,11893,2,0,P|267:156|291:119,1,90,10|4,2:0|1:3,2:0:0:0:
219,341,12334,6,0,P|165:340|128:316,1,90,2|4,3:2|1:3,2:0:0:0:
122,176,12776,1,10,2:0:0:0:
232,268,12996,1,4,1:3:0:0:
277,134,13217,1,2,3:2:0:0:
232,268,13437,1,4,1:3:0:0:
116,140,13658,2,0,P|106:88|129:42,1,90,10|4,2:0|1:3,2:0:0:0:
169,191,14099,6,0,B|-21:160,1,180,2|8,3:2|2:0,2:0:0:0:
0,70,14761,2,0,P|38:117|81:120,1,90,4|0,1:3|3:0,2:0:0:0:
208,79,15202,1,4,1:3:0:0:
241,235,15423,5,10,2:0:0:0:
241,235,15864,1,2,3:2:0:0:
374,182,16084,1,4,1:3:0:0:
390,176,16195,1,0,2:0:0:0:
404,169,16305,2,0,P|413:148|414:125,1,45,8|0,2:0|2:0,2:0:0:0:
328,121,16526,2,0,P|320:99|307:81,1,45,6|0,1:3|2:0,2:0:0:0:
206,173,16746,2,0,P|248:197|300:189,1,90,2|8,3:2|2:0,2:0:0:0:
311,204,17077,1,8,2:0:0:0:
309,205,17187,2,0,P|264:203|226:226,1,90,8|0,2:0|3:0,2:0:0:0:
104,351,17629,6,0,P|54:340|59:245,1,135,6|2,3:2|2:0,2:0:0:0:
101,219,18070,2,0,P|118:177|106:124,1,90,8|6,2:0|1:3,2:0:0:0:
202,96,18511,2,0,P|188:52|144:20,1,90,2|4,3:2|1:3,2:0:0:0:
222,198,18952,2,0,P|262:218|316:211,1,90,10|4,2:0|1:3,2:0:0:0:
436,148,19393,5,2,3:2:0:0:
436,148,19614,1,4,1:3:0:0:
344,285,19834,1,8,2:0:0:0:
304,110,20055,1,4,1:3:0:0:
344,285,20276,1,0,3:0:0:0:
499,230,20496,1,4,1:3:0:0:
275,330,20717,2,0,P|243:287|240:241,1,90,8|6,2:0|1:3,2:0:0:0:
324,206,21048,5,2,2:0:0:0:
324,206,21158,2,0,L|132:247,1,180,6|10,3:2|2:0,2:0:0:0:
330,274,21820,2,0,L|227:254,1,90,6|0,3:2|2:0,2:0:0:0:
411,166,22261,1,2,3:2:0:0:
431,312,22481,1,10,2:0:0:0:
159,176,22702,6,0,L|347:143,1,180,6|0,3:2|3:0,2:0:0:0:
370,52,23364,2,0,P|354:93|315:113,1,90,12|0,2:0|2:0,2:0:0:0:
251,75,23695,1,8,2:0:0:0:
251,75,23805,2,0,P|207:53|166:58,1,90,0|0,3:0|3:0,2:0:0:0:
100,105,24136,1,8,2:0:0:0:
103,140,24246,1,8,2:0:0:0:
123,169,24356,1,8,2:0:0:0:
155,185,24467,1,0,3:0:0:0:
190,183,24577,1,0,3:0:0:0:
220,163,24687,1,6,3:1:0:0:
248,237,26452,5,4,3:2:0:0:
248,237,26893,2,0,L|329:207,1,72,2|0,3:2|2:0,2:0:0:0:
399,165,27334,2,0,P|411:122|399:85,1,72,0|2,3:0|2:0,2:0:0:0:
451,242,27776,2,0,L|514:286,1,72,0|0,3:0|2:0,2:0:0:0:
323,211,28217,6,0,P|274:217|279:320,1,144,0|2,3:0|3:2,2:0:0:0:
214,367,28879,1,0,2:0:0:0:
255,298,29099,2,0,P|260:257|237:219,1,72,0|2,3:0|2:0,2:0:0:0:
120,185,29540,2,0,P|81:201|60:240,1,72,8|0,2:0|2:0,2:0:0:0:
207,157,29981,6,0,L|36:116,1,144,0|2,3:0|3:2,2:0:0:0:
191,199,30864,2,0,L|92:213,1,72,2|2,3:2|2:0,2:0:0:0:
346,151,31305,2,0,L|247:165,1,72,2|2,3:2|2:0,2:0:0:0:
425,105,31746,2,0,P|458:122|455:218,1,144,2|0,3:2|3:0,2:0:0:0:
338,296,32408,2,0,P|344:261|382:236,1,72,2|0,2:0|3:0,2:0:0:0:
469,296,33070,1,8,2:0:0:0:
223,266,33511,6,0,L|223:100,1,144,4|2,3:2|3:2,2:0:0:0:
177,193,34173,2,0,L|100:200,1,72,0|0,2:0|3:0,2:0:0:0:
318,222,34614,2,0,L|395:215,1,72,2|0,2:0|3:0,2:0:0:0:
389,215,35276,2,0,P|344:235|352:323,1,144,0|2,3:0|3:2,2:0:0:0:
265,370,35937,1,0,2:0:0:0:
186,325,36158,2,0,L|104:319,1,72,0|2,3:0|2:0,2:0:0:0:
19,221,36599,2,0,L|101:227,1,72,8|0,2:0|2:0,2:0:0:0:
250,204,37040,6,0,P|183:194|159:130,1,144,0|2,3:0|3:2,2:0:0:0:
307,80,37702,2,0,L|211:96,1,72,2|0,2:0|3:0,2:0:0:0:
345,215,38143,1,2,2:0:0:0:
394,80,38364,1,2,3:2:0:0:
402,60,38474,1,8,2:0:0:0:
410,40,38584,1,14,2:0:0:0:
256,192,39026,12,0,40349,1:0:0:0:
212,297,40570,6,0,P|134:309|86:201,1,180,4|10,3:2|2:0,2:0:0:0:
180,137,41231,2,0,P|187:183|157:231,1,90,0|0,2:0|2:0,2:0:0:0:
116,272,41562,1,2,2:0:0:0:
109,282,41673,2,0,P|102:328|132:376,1,90,2|8,3:2|2:0,2:0:0:0:
259,279,42114,1,0,3:0:0:0:
132,237,42334,6,0,L|39:253,1,90,0|0,3:0|3:0,2:0:0:0:
256,179,42776,5,10,2:0:0:0:
256,179,42886,2,0,L|349:163,1,90,2|2,2:0|3:2,2:0:0:0:
416,132,43217,2,0,P|422:82|397:34,1,90,0|6,2:0|3:2,2:0:0:0:
436,204,43658,1,8,2:0:0:0:
336,17,43879,1,0,3:0:0:0:
347,287,44099,6,0,P|362:241|348:189,1,90,0|0,3:0|2:0,2:0:0:0:
237,331,44540,1,10,2:0:0:0:
346,288,44761,1,2,2:0:0:0:
417,373,44981,1,2,2:0:0:0:
346,288,45202,1,2,3:2:0:0:
153,346,45423,1,10,2:0:0:0:
209,143,45643,1,2,3:2:0:0:
255,271,45864,6,0,P|218:240|164:232,1,90,2|0,3:2|2:0,2:0:0:0:
108,264,46195,1,2,3:2:0:0:
99,272,46305,2,0,P|57:289|13:286,1,90,8|2,2:0|3:2,2:0:0:0:
0,144,46746,2,0,P|42:127|86:130,1,90,2|0,2:0|3:0,2:0:0:0:
255,271,47187,2,0,P|299:273|340:256,1,90,8|10,2:0|2:0,2:0:0:0:
306,98,47629,6,0,P|225:96|221:184,1,180,4|10,3:2|2:0,2:0:0:0:
395,199,48290,2,0,L|280:177,1,90,0|0,2:0|2:0,2:0:0:0:
350,249,48621,1,2,2:0:0:0:
350,249,48731,2,0,L|465:271,1,90,2|8,3:2|2:0,2:0:0:0:
501,210,49173,1,0,3:0:0:0:
236,328,49393,6,0,P|218:282|237:234,1,90,0|0,3:0|3:0,2:0:0:0:
129,179,49834,1,10,2:0:0:0:
129,179,49945,2,0,P|98:217|47:225,1,90,2|2,2:0|3:2,2:0:0:0:
0,185,50276,2,0,P|-6:135|19:87,1,90,0|2,2:0|3:2,2:0:0:0:
181,146,50717,1,8,2:0:0:0:
266,28,50937,1,0,3:0:0:0:
302,212,51158,6,0,L|318:313,1,90,0|2,3:0|2:0,2:0:0:0:
377,112,51599,1,10,2:0:0:0:
222,221,51820,1,2,2:0:0:0:
448,154,52040,1,0,2:0:0:0:
280,91,52261,1,2,3:2:0:0:
371,195,52481,1,10,2:0:0:0:
425,16,52702,1,2,3:2:0:0:
354,272,52923,6,0,P|361:328|471:355,1,180,6|8,3:2|2:0,2:0:0:0:
392,204,53584,1,0,2:0:0:0:
262,233,53805,1,10,2:0:0:0:
239,257,53915,1,8,2:0:0:0:
229,289,54026,1,8,2:0:0:0:
233,322,54136,1,0,3:0:0:0:
251,351,54246,1,10,2:0:0:0:
256,341,54356,1,8,2:0:0:0:
260,330,54467,1,0,3:0:0:0:
262,319,54577,1,0,3:0:0:0:
263,308,54687,1,2,2:0:0:0:
131,330,55018,5,2,2:0:0:0:
21,258,55349,1,2,2:0:0:0:
21,258,56011,1,2,2:0:0:0:
127,214,56231,2,0,P|137:248|133:283,1,72,2|0,2:0|2:0,2:0:0:0:
133,283,57776,5,2,2:0:0:0:
133,283,58217,1,2,2:0:0:0:
265,305,58548,1,2,2:0:0:0:
375,233,58879,1,2,2:0:0:0:
375,233,59540,1,2,2:0:0:0:
269,189,59761,2,0,P|258:223|262:258,1,72,2|0,2:0|2:0,2:0:0:0:
375,233,60202,2,0,P|385:198|381:163,1,72,2|0,2:0|2:0,2:0:0:0:
199,117,60864,5,2,2:0:0:0:
114,196,61195,1,2,2:0:0:0:
15,157,61526,1,2,2:0:0:0:
114,196,61746,6,0,P|131:226|134:262,1,72,2|0,3:2|2:0,2:0:0:0:
226,290,62077,1,2,3:2:0:0:
226,290,62187,2,0,P|243:259|273:239,1,72,0|2,3:0|3:2,2:0:0:0:
228,117,62629,2,0,L|205:201,1,72,0|0,3:0|2:0,2:0:0:0:
348,283,63070,2,0,L|371:199,1,72,2|2,3:2|3:2,2:0:0:0:
276,49,63511,6,0,P|311:42|339:20,1,72,0|0,3:0|2:0,2:0:0:0:
420,71,63842,1,0,3:0:0:0:
420,71,63952,2,0,P|408:104|412:140,1,72,0|0,3:0|3:0,2:0:0:0:
289,160,64393,1,0,3:0:0:0:
490,108,64614,1,0,2:0:0:0:
451,284,64834,1,2,3:2:0:0:
451,284,64945,1,8,2:0:0:0:
451,284,65055,1,8,2:0:0:0:
411,189,65276,1,6,2:1:0:0:
256,192,67923,5,0,2:0:0:0:
256,192,68364,2,0,L|160:192,1,72,10|0,2:0|2:0,2:0:0:0:
56,231,68805,6,0,P|141:233|174:311,1,180,14|8,2:0|2:0,2:0:0:0:
36,213,69467,2,0,P|90:192|132:195,1,90,8|8,2:0|2:0,2:0:0:0:
334,284,69908,2,0,P|289:282|248:263,1,90,8|10,2:0|2:0,2:0:0:0:
224,147,70349,2,0,P|220:124|225:103,1,45,8|8,2:0|2:0,2:0:0:0:
310,72,70570,6,0,L|424:99,1,90,10|8,2:0|2:0,2:0:0:0:
161,150,71011,2,0,L|47:123,1,90,8|8,2:0|2:0,2:0:0:0:
280,260,71452,1,8,2:0:0:0:
301,265,71562,1,8,2:0:0:0:
323,270,71673,1,8,2:0:0:0:
345,275,71783,1,8,2:0:0:0:
366,280,71893,1,10,2:0:0:0:
387,241,72004,1,8,2:0:0:0:
380,197,72114,1,8,2:0:0:0:
347,167,72224,1,8,2:0:0:0:
303,164,72334,1,14,2:0:0:0:
178,332,72665,5,2,2:0:0:0:
116,90,72996,1,2,3:2:0:0:
213,209,73217,5,10,2:0:0:0:
72,168,73437,1,8,2:0:0:0:
234,292,73658,5,8,2:0:0:0:
259,76,73879,1,10,2:0:0:0:
253,371,74099,1,10,3:2:0:0:
310,256,75423,5,2,3:2:0:0:
297,251,75533,1,2,2:0:0:0:
297,238,75643,1,2,2:0:0:0:
310,234,75754,1,2,2:0:0:0:
317,245,75864,2,0,P|341:193|330:145,1,90,6|4,3:2|1:3,2:0:0:0:
277,115,76195,5,2,2:0:0:0:
263,111,76305,2,0,L|154:95,1,90,8|6,2:0|1:3,2:0:0:0:
344,62,76746,1,0,3:0:0:0:
162,168,76967,1,6,1:3:0:0:
392,124,77187,1,8,2:0:0:0:
198,28,77408,1,6,1:3:0:0:
231,247,77629,5,2,3:2:0:0:
150,130,77849,1,4,1:3:0:0:
136,124,77959,2,0,P|111:162|118:205,1,90,2|0,2:0|2:0,2:0:0:0:
82,223,78290,2,0,P|61:182|20:166,1,90,6|0,1:3|3:0,2:0:0:0:
77,303,78731,1,4,1:3:0:0:
63,93,78952,1,8,2:0:0:0:
232,204,79173,5,6,1:3:0:0:
260,196,79283,1,2,2:0:0:0:
292,188,79393,2,0,P|337:193|371:222,1,90,2|4,3:2|1:3,2:0:0:0:
214,280,79834,2,0,L|115:266,1,90,8|6,2:0|1:3,2:0:0:0:
271,327,80165,5,2,2:0:0:0:
278,332,80276,2,0,L|376:345,1,90,2|4,3:2|1:3,2:0:0:0:
419,163,80717,2,0,P|449:194|457:238,1,90,8|6,2:0|1:3,2:0:0:0:
267,200,81158,2,0,P|235:123|306:81,1,180,2|8,3:2|2:0,2:0:0:0:
190,245,81820,5,4,1:3:0:0:
362,157,82040,1,0,3:0:0:0:
141,139,82261,2,0,L|193:129,1,45,4|8,1:3|2:0,2:0:0:0:
331,235,82481,2,0,L|279:245,1,45,8|8,2:0|2:0,2:0:0:0:
150,340,82702,5,10,2:0:0:0:
172,335,82812,1,2,3:2:0:0:
194,331,82923,2,0,P|205:288|191:246,1,90,6|4,3:2|1:3,2:0:0:0:
119,200,83254,2,0,L|20:187,1,90,2|0,2:0|2:0,2:0:0:0:
18,114,83584,1,6,1:3:0:0:
107,276,83805,5,2,3:2:0:0:
281,209,84026,1,4,1:3:0:0:
263,369,84246,1,8,2:0:0:0:
202,242,84467,1,6,1:3:0:0:
292,118,84687,6,0,P|296:74|274:36,1,90,2|4,3:2|1:3,2:0:0:0:
172,73,85018,1,2,2:0:0:0:
165,90,85129,2,0,P|182:130|221:152,1,90,8|6,2:0|1:3,2:0:0:0:
459,106,85570,2,0,P|415:98|376:119,1,90,2|4,3:2|1:3,2:0:0:0:
305,329,86011,2,0,P|333:294|335:250,1,90,10|4,2:0|1:3,2:0:0:0:
241,228,86342,5,0,2:0:0:0:
241,228,86452,2,0,L|143:243,1,90,2|4,3:2|1:3,2:0:0:0:
376,283,86893,2,0,L|474:268,1,90,8|4,2:0|1:3,2:0:0:0:
303,270,87334,1,2,3:2:0:0:
500,343,87555,1,4,1:3:0:0:
361,191,87776,1,8,2:0:0:0:
315,361,87996,1,6,1:3:0:0:
251,158,88217,6,0,P|252:113|278:77,1,90,2|4,3:2|1:3,2:0:0:0:
171,130,88658,2,0,L|77:148,1,90,8|6,2:0|1:3,2:0:0:0:
335,198,89099,2,0,L|429:180,1,90,2|8,3:2|2:0,2:0:0:0:
462,118,89430,1,10,2:0:0:0:
462,118,89540,2,0,L|391:105,1,45,8|8,2:0|2:0,2:0:0:0:
277,77,89761,2,0,L|201:63,1,45,10|8,2:0|2:0,2:0:0:0:
371,16,89981,6,0,L|402:206,1,180,6|10,3:2|2:0,2:0:0:0:
267,254,90643,2,0,P|251:225|298:209,1,90,2|0,3:2|2:0,2:0:0:0:
402,283,91084,1,2,3:2:0:0:
263,351,91305,1,10,2:0:0:0:
402,283,91526,2,0,P|452:288|493:315,1,90,2|0,3:2|2:0,2:0:0:0:
327,229,91967,2,0,P|366:198|415:190,1,90,2|8,3:2|2:0,2:0:0:0:
236,230,92408,2,0,P|247:180|278:143,1,90,0|0,2:0|3:0,2:0:0:0:
165,278,92739,1,8,2:0:0:0:
165,278,92849,2,0,P|143:232|145:183,1,90,8|12,2:0|2:0,2:0:0:0:
327,229,93290,1,2,3:2:0:0:
179,160,93511,6,0,L|83:176,1,90,6|0,3:2|2:0,2:0:0:0:
244,57,93952,1,10,2:0:0:0:
51,173,94173,6,0,L|255:204,1,180,2|2,3:2|3:2,2:0:0:0:
23,251,94834,1,10,2:0:0:0:
234,155,95055,6,0,P|182:165|165:206,1,90,2|0,3:2|2:0,2:0:0:0:
319,183,95386,1,2,2:0:0:0:
319,183,95496,2,0,L|418:168,1,90,2|8,3:2|2:0,2:0:0:0:
494,116,95937,1,0,2:0:0:0:
371,262,96158,2,0,L|363:206,1,45,0|8,3:0|2:0,2:0:0:0:
347,102,96379,1,0,3:0:0:0:
347,102,96599,1,8,2:0:0:0:
302,102,96709,1,8,2:0:0:0:
270,132,96820,1,0,3:0:0:0:
265,176,96930,1,0,3:0:0:0:
268,214,97040,6,0,P|199:264|127:219,1,180,4|10,3:2|2:0,2:0:0:0:
291,256,97702,2,0,P|263:297|214:305,1,90,2|0,3:2|2:0,2:0:0:0:
199,176,98143,1,2,3:2:0:0:
153,340,98364,1,10,2:0:0:0:
118,154,98584,6,0,L|103:50,1,90,2|0,3:2|2:0,2:0:0:0:
188,201,99026,1,2,3:2:0:0:
54,243,99246,1,8,2:0:0:0:
21,126,99467,1,2,3:2:0:0:
54,243,99687,2,0,L|67:301,1,45,10|2,2:0|2:0,2:0:0:0:
140,126,99908,1,2,3:2:0:0:
140,126,100129,1,8,2:0:0:0:
178,103,100239,1,8,2:0:0:0:
223,101,100349,1,0,3:0:0:0:
263,119,100459,1,0,3:0:0:0:
292,153,100570,1,4,3:2:0:0:
295,200,101231,5,2,2:0:0:0:
316,312,101452,1,2,2:0:0:0:
426,279,101783,1,2,2:0:0:0:
316,312,102114,1,2,3:2:0:0:
337,134,102334,1,6,3:2:0:0:
337,134,102996,1,0,3:0:0:0:
223,177,103217,5,10,2:0:0:0:
202,159,103327,1,8,2:0:0:0:
213,134,103437,1,0,3:0:0:0:
240,136,103548,1,0,3:0:0:0:
246,163,103658,1,2,3:2:0:0:
194,183,103768,1,0,3:0:0:0:
143,164,103879,1,0,3:0:0:0:
117,115,103989,1,0,3:0:0:0:
129,62,104099,1,6,3:2:0:0:
129,62,104540,5,8,2:0:0:0:
129,62,104651,1,8,2:0:0:0:
129,62,104761,1,8,2:0:0:0:
117,63,104871,1,8,2:0:0:0:
106,64,104981,1,8,2:0:0:0:
105,115,105092,1,8,2:0:0:0:
123,162,105202,1,8,2:0:0:0:
156,200,105312,1,8,2:0:0:0:
201,224,105423,1,8,2:0:0:0:
250,231,105533,1,8,2:0:0:0:
299,219,105643,1,8,2:0:0:0:
341,191,105754,1,8,2:0:0:0:
371,151,105864,1,4,3:2:0:0:
269,303,106084,5,0,3:0:0:0:
233,113,106415,5,0,3:0:0:0:
451,186,106746,5,0,3:0:0:0:
196,235,107077,5,0,3:0:0:0:
278,27,107408,5,0,3:0:0:0:
374,140,107629,6,0,L|261:117,1,90,6|4,3:1|1:3,2:0:0:0:
151,189,108070,1,8,2:0:0:0:
132,24,108290,1,4,1:3:0:0:
50,123,108511,1,0,3:0:0:0:
235,102,108731,1,4,1:3:0:0:
149,286,108952,6,0,P|130:245|133:201,1,90,10|4,2:0|1:3,2:0:0:0:
95,358,109393,2,0,L|-7:345,1,90,2|4,3:2|1:3,2:0:0:0:
245,271,109834,1,10,2:0:0:0:
198,365,110055,1,4,1:3:0:0:
271,195,110276,1,2,3:2:0:0:
309,334,110496,1,4,1:3:0:0:
149,290,110717,2,0,P|139:238|162:192,1,90,10|4,2:0|1:3,2:0:0:0:
331,142,111158,6,0,B|238:155|232:107|154:127,1,180,2|8,3:2|2:0,2:0:0:0:
366,70,111820,2,0,P|413:108|416:151,1,90,4|0,1:3|3:0,2:0:0:0:
273,51,112261,1,4,1:3:0:0:
336,244,112481,5,10,2:0:0:0:
336,244,112923,1,2,3:2:0:0:
204,327,113143,1,4,1:3:0:0:
188,321,113254,1,0,2:0:0:0:
174,314,113364,2,0,P|165:293|164:270,1,45,8|0,2:0|2:0,2:0:0:0:
259,203,113584,2,0,P|251:225|238:243,1,45,6|0,1:3|2:0,2:0:0:0:
86,223,113805,2,0,P|101:177|145:148,1,90,2|8,3:2|2:0,2:0:0:0:
151,123,114136,1,8,2:0:0:0:
149,123,114246,2,0,P|116:154|73:162,1,90,8|0,2:0|3:0,2:0:0:0:
222,23,114687,6,0,P|265:70|239:128,1,135,6|2,3:2|2:0,2:0:0:0:
223,259,115129,2,0,P|265:242|318:254,1,90,8|6,2:0|1:3,2:0:0:0:
346,158,115570,2,0,P|390:172|422:216,1,90,2|4,3:2|1:3,2:0:0:0:
272,352,116011,2,0,P|316:354|356:334,1,90,10|4,2:0|1:3,2:0:0:0:
187,192,116452,5,2,3:2:0:0:
187,192,116673,1,4,1:3:0:0:
224,288,116893,1,8,2:0:0:0:
248,109,117114,1,4,1:3:0:0:
89,210,117334,1,0,3:0:0:0:
235,186,117555,1,4,1:3:0:0:
47,122,117776,2,0,L|154:117,1,90,8|6,2:0|1:3,2:0:0:0:
250,172,118106,5,2,2:0:0:0:
250,172,118217,2,0,P|313:184|317:87,1,180,6|10,3:2|2:0,2:0:0:0:
341,256,118879,6,0,L|361:153,1,90,6|0,3:2|2:0,2:0:0:0:
267,322,119320,1,2,3:2:0:0:
457,272,119540,1,10,2:0:0:0:
226,176,119761,6,0,L|414:209,1,180,6|0,3:2|3:0,2:0:0:0:
475,118,120423,2,0,P|459:159|420:179,1,90,12|0,2:0|2:0,2:0:0:0:
356,141,120754,1,8,2:0:0:0:
356,141,120864,2,0,P|312:119|271:124,1,90,0|0,3:0|3:0,2:0:0:0:
219,183,121195,1,8,2:0:0:0:
263,178,121305,1,8,2:0:0:0:
308,174,121415,1,8,2:0:0:0:
353,169,121526,1,0,3:0:0:0:
398,165,121636,1,0,3:0:0:0:
442,160,121746,1,6,3:1:0:0:
