osu file format v14

[General]
AudioFilename: audio.mp3
AudioLeadIn: 0
PreviewTime: 75864
Countdown: 0
SampleSet: Soft
StackLeniency: 0.5
Mode: 0
LetterboxInBreaks: 0
WidescreenStoryboard: 1

[Editor]
DistanceSpacing: 0.7
BeatDivisor: 4
GridSize: 16
TimelineZoom: 0.8999999

[Metadata]
Title:Yume ni Kakeru Rainbow
TitleUnicode:夢にかけるRainbow
Artist:765 MILLION ALLSTARS
ArtistUnicode:765 MILLION ALLSTARS
Creator:TsumugiP
Version:Mocaotic's Hard
Source:アイドルマスター ミリオンライブ!
Tags:japanese video game w_m gears _Meep_ Mrgglock Usaha Hanasaka Yui Nana Abe takekii Mocaotic The Rainbow for Dreams 5th Anniversary シアターデイズ ミリシタ idolmaster idol idolm@ster million live! theater days the@ter mltd pop imas im@s jpop j-pop idols アイマス ミリマス anime 765PRO 765プロ 765
BeatmapID:3710078
BeatmapSetID:1799740

[Difficulty]
HPDrainRate:4.5
CircleSize:3.8
OverallDifficulty:6
ApproachRate:8
SliderMultiplier:1.42
SliderTickRate:1

[Events]
//Background and Video events
0,0,"anniversary.jpg",0,0
Video,-500,"video.mp4"
//Break Periods
//Storyboard Layer 0 (Background)
//Storyboard Layer 1 (Fail)
//Storyboard Layer 2 (Pass)
//Storyboard Layer 3 (Foreground)
//Storyboard Layer 4 (Overlay)
//Storyboard Sound Samples

[TimingPoints]
-18,441.176470588235,4,2,1,15,1,0
1746,-125,4,2,1,17,0,0
2187,-125,4,2,1,19,0,0
3070,-125,4,2,1,23,0,0
3510,-125,4,2,1,25,0,0
4173,-125,4,2,1,27,0,0
4393,-125,4,2,1,29,0,0
5276,-125,4,2,1,31,0,0
10129,-125,4,2,1,70,0,0
10570,-100,4,2,1,65,0,0
26452,-125,4,2,1,40,0,0
38474,-125,4,2,1,48,0,0
38584,-125,4,2,1,60,0,0
39467,-125,4,2,1,35,0,0
40349,-125,4,2,0,35,0,0
40570,-100,4,2,1,65,0,0
54687,-100,4,2,1,35,0,0
56452,-125,4,2,1,35,0,0
56893,-125,4,2,1,15,0,0
57334,-125,4,2,1,35,0,0
61746,-111.111111111111,4,2,1,35,0,0
62629,-111.111111111111,4,2,1,45,0,0
63511,-111.111111111111,4,2,1,57,0,0
64393,-111.111111111111,4,2,1,70,0,0
65276,-111.111111111111,4,2,1,35,0,0
68364,-99.9999999999999,4,2,1,85,0,0
68805,-99.9999999999999,4,2,1,60,0,0
69026,-99.9999999999999,4,2,1,45,0,0
69467,-99.9999999999999,4,2,1,49,0,0
69908,-99.9999999999999,4,2,1,54,0,0
70349,-99.9999999999999,4,2,1,59,0,0
70790,-99.9999999999999,4,2,1,64,0,0
71231,-99.9999999999999,4,2,1,70,0,0
71672,-99.9999999999999,4,2,1,78,0,0
71893,-99.9999999999999,4,2,1,80,0,0
72003,-99.9999999999999,4,2,1,81,0,0
72113,-99.9999999999999,4,2,1,83,0,0
72223,-99.9999999999999,4,2,1,85,0,0
72334,-99.9999999999999,4,2,1,90,0,0
74099,-83.3333333333333,4,2,1,90,0,0
75423,-83.3333333333333,4,2,1,50,0,0
75864,-83.3333333333333,4,2,1,80,0,0
100570,-83.3333333333333,4,2,1,90,0,0
102114,-83.3333333333333,4,2,1,70,0,0
102334,-83.3333333333333,4,2,1,90,0,0
102996,-83.3333333333333,4,2,1,70,0,0
103217,-83.3333333333333,4,2,1,80,0,0
103548,-83.3333333333333,4,2,1,66,0,0
103768,-83.3333333333333,4,2,1,55,0,0
103879,-83.3333333333333,4,2,1,47,0,0
104099,-83.3333333333333,4,2,1,77,0,0
104320,-83.3333333333333,4,2,1,38,0,0
104540,-83.3333333333333,4,2,1,41,0,0
104761,-83.3333333333333,4,2,1,44,0,0
104981,-83.3333333333333,4,2,1,48,0,0
105201,-83.3333333333333,4,2,1,54,0,0
105423,-83.3333333333333,4,2,1,70,0,0
105643,-83.3333333333333,4,2,1,93,0,0
105864,-83.3333333333333,4,2,1,80,0,0
106084,-83.3333333333333,4,2,1,70,0,0
106746,-83.3333333333333,4,2,1,55,0,0
107077,-83.3333333333333,4,2,1,45,0,0
107629,-100,4,2,1,65,0,0
121746,-100,4,2,1,45,0,0
122187,-100,4,2,1,35,0,0
122849,-100,4,2,1,25,0,0
123731,476.190476190476,4,2,1,15,1,0
123969,444.444444444444,4,2,1,15,1,0
124192,468.75,4,2,1,15,1,0
124426,618.556701030927,4,2,1,15,1,0
124619,530.973451327433,4,2,1,15,1,0
124884,869.565217391304,4,2,1,15,1,0
125318,-100,4,2,1,17,0,0

[Colours]
Combo1 : 136,255,187
Combo2 : 253,174,255
Combo3 : 201,191,255
Combo4 : 147,201,255
Combo5 : 157,240,244

[HitObjects]
0,354,1746,6,0,P|41:324|159:313,1,170.4,2|2,2:0|2:0,2:0:0:0:
162,318,3070,1,0,2:0:0:0:
229,378,3290,2,0,P|233:357|243:335,2,28.4,2|0|2,2:0|2:0|2:0,2:0:0:0:
221,379,4173,2,0,P|237:315|279:216,1,170.4,2|0,2:0|2:0,2:0:0:0:
232,39,5276,6,0,P|243:89|348:140,1,170.4,2|2,2:0|2:0,2:0:0:0:
418,168,6158,2,0,P|458:149|511:147,2,85.2,2|2|2,2:0|2:0|2:0,2:0:0:0:
370,231,7040,1,2,2:0:0:0:
256,192,7261,12,2,8805,2:0:0:0:
393,295,10129,5,14,2:0:0:0:
393,295,10570,6,0,P|354:280|298:265,1,71,6|4,3:1|1:3,2:0:0:0:
299,281,10901,1,0,2:0:0:0:
299,281,11011,1,8,2:0:0:0:
209,238,11231,1,4,1:3:0:0:
147,316,11452,2,0,P|160:359|167:390,1,71,0|4,3:0|1:3,2:0:0:0:
54,288,11893,2,0,P|41:245|34:214,1,71,10|4,2:0|1:3,2:0:0:0:
56,197,12224,1,0,2:0:0:0:
56,197,12334,6,0,P|133:181|208:159,1,142,2|10,3:2|2:0,2:0:0:0:
265,91,12996,1,4,1:3:0:0:
351,144,13217,2,0,P|342:202|342:231,1,71,2|4,3:2|1:3,2:0:0:0:
444,116,13658,2,0,P|453:58|453:29,1,71,10|4,2:0|1:3,2:0:0:0:
436,22,13989,1,0,2:0:0:0:
436,22,14099,6,0,P|366:8|295:0,1,142,2|8,3:2|2:0,2:0:0:0:
208,48,14761,1,4,1:3:0:0:
268,126,14981,2,0,P|307:114|364:115,1,71,0|4,3:0|1:3,2:0:0:0:
431,145,15423,1,10,2:0:0:0:
431,145,15864,6,0,P|420:205|420:233,1,71,2|4,3:2|1:3,2:0:0:0:
436,245,16195,1,0,2:0:0:0:
436,245,16305,2,0,P|468:237|497:232,2,35.5,8|0|6,2:0|2:0|1:3,2:0:0:0:
382,328,16746,2,0,P|331:312|292:308,1,71,2|8,3:2|2:0,2:0:0:0:
287,293,17077,1,8,2:0:0:0:
255,296,17187,1,8,2:0:0:0:
230,317,17298,1,8,2:0:0:0:
221,347,17408,1,0,3:0:0:0:
115,383,17629,6,0,P|95:311|84:281,1,106.5,6|2,3:2|2:0,2:0:0:0:
65,256,18070,1,8,2:0:0:0:
130,180,18290,1,6,1:3:0:0:
226,218,18511,2,0,P|263:225|300:240,1,71,2|4,3:2|1:3,2:0:0:0:
385,194,18952,2,0,P|408:153|379:86,1,106.5,10|0,2:0|2:0,2:0:0:0:
372,76,19393,6,0,P|326:86|275:103,1,71,2|4,3:2|1:3,2:0:0:0:
280,113,19724,1,0,2:0:0:0:
280,113,19834,1,8,2:0:0:0:
198,61,20055,1,4,1:3:0:0:
118,120,20276,2,0,P|110:159|106:198,1,71,0|4,3:0|1:3,2:0:0:0:
60,54,20717,1,8,2:0:0:0:
0,262,21158,6,0,P|49:276|89:303,1,71,6|2,3:2|2:0,2:0:0:0:
88,314,21489,1,8,2:0:0:0:
88,314,21599,1,10,2:0:0:0:
193,381,21820,2,0,P|182:315|162:229,1,142,6|2,3:2|3:2,2:0:0:0:
91,179,22481,1,10,2:0:0:0:
177,97,22702,6,0,P|247:148|228:225,1,142,6|0,3:2|3:0,2:0:0:0:
315,266,23364,2,0,P|355:254|396:249,1,71,12|0,2:0|2:0,2:0:0:0:
469,296,23805,2,0,P|464:319|458:342,2,35.5,0|8|0,3:0|2:0|3:0,2:0:0:0:
494,277,24136,1,8,2:0:0:0:
488,246,24246,1,8,2:0:0:0:
481,215,24356,1,8,2:0:0:0:
475,184,24467,1,0,3:0:0:0:
512,86,24687,5,6,3:1:0:0:
512,86,26452,6,0,B|455:76|470:40|392:29,1,113.6,4|2,3:2|3:2,2:0:0:0:
345,73,27114,1,0,2:0:0:0:
345,73,27334,2,0,P|360:139|367:191,1,113.6,0|0,3:0|3:0,2:0:0:0:
273,315,28217,1,0,3:0:0:0:
273,315,28658,6,0,P|211:292|151:282,1,113.6,2|0,3:2|3:0,2:0:0:0:
95,248,29320,1,2,2:0:0:0:
26,311,29540,2,0,P|17:271|11:249,1,56.8,8|0,2:0|2:0,2:0:0:0:
46,171,29981,6,0,P|101:159|154:139,1,113.6,0|2,3:0|3:2,2:0:0:0:
233,174,30643,1,2,2:0:0:0:
233,174,30864,2,0,P|220:217|216:243,2,56.8,2|2|2,3:2|2:0|3:2,2:0:0:0:
294,123,31526,1,2,2:0:0:0:
366,166,31746,6,0,P|415:161|457:139,1,85.2,2|2,3:2|2:0,2:0:0:0:
431,18,32408,2,0,P|367:24|312:53,1,113.6,2|0,2:0|2:0,2:0:0:0:
236,50,33070,2,0,P|251:86|258:112,1,56.8,8|0,2:0|2:0,2:0:0:0:
198,183,33511,6,0,P|262:189|317:218,1,113.6,4|2,3:2|3:2,2:0:0:0:
373,264,34173,1,0,2:0:0:0:
373,264,34393,2,0,P|349:335|344:387,1,113.6,0|0,3:0|3:0,2:0:0:0:
512,384,35276,1,0,3:0:0:0:
512,384,35717,6,0,P|508:327|492:272,1,113.6,2|0,3:2|3:0,2:0:0:0:
436,216,36379,1,2,2:0:0:0:
490,145,36599,2,0,P|455:139|422:130,1,56.8,8|0,2:0|2:0,2:0:0:0:
359,72,37040,6,0,P|346:144|329:206,1,113.6,0|2,3:0|3:2,2:0:0:0:
383,249,37702,1,2,2:0:0:0:
323,305,37923,2,0,P|287:310|251:331,1,56.8,0|2,3:0|2:0,2:0:0:0:
206,369,38364,1,2,3:2:0:0:
182,361,38474,1,8,2:0:0:0:
158,353,38584,1,14,2:0:0:0:
158,353,39467,5,0,3:0:0:0:
73,384,39687,1,8,2:0:0:0:
73,384,39798,1,8,2:0:0:0:
12,313,40018,1,8,0:3:0:0:
68,241,40239,1,8,0:3:0:0:
68,241,40349,1,4,0:3:0:0:
159,271,40570,6,0,P|197:277|245:297,1,71,4|0,3:2|2:0,2:0:0:0:
311,352,41011,2,0,P|349:346|421:310,1,106.5,10|2,2:0|3:2,2:0:0:0:
432,289,41452,2,0,P|421:255|415:220,1,71,0|2,2:0|3:2,2:0:0:0:
476,141,41893,1,8,2:0:0:0:
402,80,42114,1,0,3:0:0:0:
309,121,42334,6,0,P|233:131|165:151,1,142,0|10,3:0|2:0,2:0:0:0:
76,124,42996,1,0,2:0:0:0:
76,124,43106,1,2,3:2:0:0:
76,124,43217,2,0,P|59:90|66:43,1,71,0|6,2:0|3:2,2:0:0:0:
145,6,43658,2,0,P|188:18|230:22,1,71,8|0,2:0|3:0,2:0:0:0:
287,96,44099,6,0,P|240:115|176:153,1,106.5,0|0,3:0|2:0,2:0:0:0:
162,163,44540,2,0,P|122:143|74:136,1,71,10|2,2:0|2:0,2:0:0:0:
24,193,44981,1,2,2:0:0:0:
75,267,45202,1,2,3:2:0:0:
13,342,45423,2,0,P|47:350|78:367,1,71,10|2,2:0|3:2,2:0:0:0:
167,324,45864,6,0,P|176:270|199:207,1,106.5,2|2,3:2|3:2,2:0:0:0:
215,193,46305,1,8,2:0:0:0:
160,111,46526,2,0,P|129:86|81:88,2,71,2|2|0,3:2|2:0|3:0,2:0:0:0:
259,78,47187,1,8,2:0:0:0:
259,78,47298,1,8,2:0:0:0:
259,78,47408,1,10,2:0:0:0:
345,129,47629,6,0,P|387:111|433:103,1,71,4|0,3:2|2:0,2:0:0:0:
512,85,48070,2,0,P|499:127|490:207,1,106.5,10|2,2:0|3:2,2:0:0:0:
469,218,48511,2,0,P|486:269|489:298,1,71,0|2,2:0|3:2,2:0:0:0:
443,375,48952,1,8,2:0:0:0:
356,328,49173,1,0,3:0:0:0:
272,384,49393,6,0,P|228:371|121:365,1,142,0|10,3:0|2:0,2:0:0:0:
45,323,50055,1,0,2:0:0:0:
45,323,50165,1,2,3:2:0:0:
45,323,50276,2,0,P|34:270|58:235,1,71,0|2,2:0|3:2,2:0:0:0:
122,200,50717,2,0,P|159:211|276:234,1,142,8|0,2:0|3:0,2:0:0:0:
354,197,51379,6,0,P|356:157|341:120,1,71,2|10,2:0|2:0,2:0:0:0:
374,28,51820,2,0,P|337:39|220:62,1,142,2|2,2:0|3:2,2:0:0:0:
147,24,52481,1,10,2:0:0:0:
101,99,52702,1,2,3:2:0:0:
0,61,52923,6,0,P|23:126|33:211,1,142,6|8,3:2|2:0,2:0:0:0:
151,328,53805,1,10,2:0:0:0:
151,328,53915,2,0,P|181:313|202:311,2,35.5,8|8|0,2:0|2:0|3:0,2:0:0:0:
112,349,54246,2,0,P|82:334|61:332,3,35.5,10|8|0|0,2:0|2:0|3:0|2:0,2:0:0:0:
35,337,54687,1,2,2:0:0:0:
35,337,56452,6,0,P|94:304|261:243,1,227.2,0|0,2:0|2:0,2:0:0:0:
251,251,58217,1,2,2:0:0:0:
251,251,59981,2,0,B|341:263|304:339|411:344,1,170.4,0|0,2:0|2:0,2:0:0:0:
440,278,60864,2,0,P|479:281|514:313,2,85.2,2|2|2,2:0|2:0|2:0,2:0:0:0:
373,234,61746,6,0,P|300:271|264:284,1,95.8500000000001,2|2,3:2|3:2,2:0:0:0:
263,302,62187,2,0,P|224:286|183:281,1,63.9000000000001,0|2,3:0|3:2,2:0:0:0:
141,332,62629,1,0,3:0:0:0:
21,291,62959,1,0,3:0:0:0:
21,291,63070,2,0,P|34:243|40:205,1,63.9000000000001,2|2,3:2|3:2,2:0:0:0:
98,176,63511,6,0,P|82:120|56:75,1,95.8500000000001,0|0,3:0|3:0,2:0:0:0:
35,66,63952,1,0,3:0:0:0:
88,7,64173,1,0,3:0:0:0:
163,44,64393,1,0,3:0:0:0:
163,44,64504,2,0,P|202:50|267:71,1,95.8500000000001,0|2,3:0|3:2,2:0:0:0:
285,94,64945,1,8,2:0:0:0:
285,94,65055,1,8,2:0:0:0:
347,31,65276,5,6,2:1:0:0:
347,31,68364,6,0,P|399:53|416:113,1,106.5,10|0,2:0|2:0,2:0:0:0:
401,128,68805,1,14,2:0:0:0:
467,201,69026,2,0,P|497:190|515:189,2,35.5,8|8|8,2:0|2:0|2:0,2:0:0:0:
407,277,69467,2,0,P|426:302|433:318,2,35.5,8|8|8,2:0|2:0|2:0,2:0:0:0:
316,243,69908,2,0,P|298:269|284:280,2,35.5,8|8|10,2:0|2:0|2:0,2:0:0:0:
319,146,70349,2,0,P|288:137|273:127,2,35.5,8|8|10,2:0|2:0|2:0,2:0:0:0:
314,46,70790,6,0,P|344:54|359:64,2,35.5,8|8|8,2:0|2:0|2:0,2:0:0:0:
238,0,71231,1,8,2:0:0:0:
238,0,71342,1,8,2:0:0:0:
238,0,71452,2,0,P|221:6|204:10,3,35.5,8|8|8|8,2:0|2:0|2:0|2:0,2:0:0:0:
176,35,71893,2,0,P|159:28|142:24,3,35.5,10|8|8|8,2:0|2:0|2:0|2:0,2:0:0:0:
110,8,72334,5,14,2:0:0:0:
43,115,72665,1,2,2:0:0:0:
150,196,72996,1,2,3:2:0:0:
150,196,73217,5,10,2:0:0:0:
231,149,73437,1,8,2:0:0:0:
300,212,73658,1,8,2:0:0:0:
260,297,73879,1,10,2:0:0:0:
169,287,74099,2,0,L|135:281,1,21.3,10|0,3:2|2:0,2:0:0:0:
80,325,75423,5,2,3:2:0:0:
80,325,75864,6,0,P|132:329|170:359,1,85.2,6|4,3:2|1:3,2:0:0:0:
199,371,76195,1,2,2:0:0:0:
199,371,76305,1,8,2:0:0:0:
285,315,76526,2,0,P|271:258|268:210,1,85.2,6|0,1:3|3:0,2:0:0:0:
268,107,76967,2,0,P|225:147|185:174,1,85.2,6|8,1:3|2:0,2:0:0:0:
97,226,77408,1,6,1:3:0:0:
97,226,77518,1,0,2:0:0:0:
97,226,77629,6,0,P|153:242|196:263,1,85.2,2|4,3:2|1:3,2:0:0:0:
215,282,77959,1,2,2:0:0:0:
215,282,78070,1,8,2:0:0:0:
307,254,78290,1,6,1:3:0:0:
380,327,78511,2,0,P|423:305|466:293,1,85.2,0|4,3:0|1:3,2:0:0:0:
512,210,78952,1,8,2:0:0:0:
440,135,79173,1,6,1:3:0:0:
440,135,79283,1,2,2:0:0:0:
440,135,79393,6,0,P|383:131|332:240,1,170.4,2|8,3:2|2:0,2:0:0:0:
254,301,80055,1,6,1:3:0:0:
254,301,80165,1,2,2:0:0:0:
254,301,80276,2,0,P|242:242|228:194,1,85.2,2|4,3:2|1:3,2:0:0:0:
209,190,80606,1,2,2:0:0:0:
209,190,80717,1,8,2:0:0:0:
283,115,80937,1,6,1:3:0:0:
218,31,81158,6,0,P|162:36|78:70,1,127.8,2|0,3:2|2:0,2:0:0:0:
64,89,81599,2,0,P|79:135|87:183,1,85.2,8|4,2:0|1:3,2:0:0:0:
148,249,82040,1,0,3:0:0:0:
148,249,82151,1,8,2:0:0:0:
66,310,82371,1,8,2:0:0:0:
66,310,82481,2,0,P|35:296|9:291,2,42.6,8|8|10,2:0|2:0|2:0,2:0:0:0:
145,383,82923,6,0,P|197:367|274:355,1,127.8,6|2,3:2|2:0,2:0:0:0:
302,329,83364,1,8,2:0:0:0:
388,384,83584,1,6,1:3:0:0:
480,333,83805,2,0,P|485:266|436:168,1,170.4,2|8,3:2|2:0,2:0:0:0:
368,114,84467,1,6,1:3:0:0:
420,15,84687,6,0,P|357:31|286:38,1,127.8,2|2,3:2|2:0,2:0:0:0:
256,57,85129,1,8,2:0:0:0:
166,9,85349,1,6,1:3:0:0:
82,76,85570,2,0,P|110:139|122:180,1,85.2,2|4,3:2|1:3,2:0:0:0:
189,230,86011,2,0,P|148:244|110:263,1,85.2,10|4,2:0|1:3,2:0:0:0:
1,330,86452,6,0,P|83:348|174:391,1,170.4,2|8,3:2|2:0,2:0:0:0:
161,383,87334,2,0,P|176:331|192:293,1,85.2,2|4,3:2|1:3,2:0:0:0:
218,272,87665,1,2,2:0:0:0:
218,272,87776,1,8,2:0:0:0:
305,311,87996,1,6,1:3:0:0:
381,247,88217,6,0,P|366:195|350:157,2,85.2,2|4|8,3:2|1:3|2:0,2:0:0:0:
482,297,88879,1,6,1:3:0:0:
405,372,89099,1,2,3:2:0:0:
312,334,89320,1,8,2:0:0:0:
312,334,89430,1,10,2:0:0:0:
312,334,89540,2,0,P|275:349|252:366,3,42.6,8|8|10|8,2:0|2:0|2:0|2:0,2:0:0:0:
243,381,89981,6,0,P|183:359|100:351,1,127.8,6|0,3:2|2:0,2:0:0:0:
82,372,90423,1,10,2:0:0:0:
0,307,90643,2,0,P|17:232|24:142,1,127.8,2|0,3:2|2:0,2:0:0:0:
4,142,91084,1,2,3:2:0:0:
70,67,91305,1,10,2:0:0:0:
159,118,91526,6,0,P|213:94|291:81,1,127.8,2|2,3:2|2:0,2:0:0:0:
320,96,91967,1,2,3:2:0:0:
384,18,92187,1,8,2:0:0:0:
384,18,92298,2,0,P|437:30|470:45,1,85.2,0|0,3:0|2:0,2:0:0:0:
490,77,92629,2,0,P|532:69|545:53,2,42.6,0|8|8,3:0|2:0|2:0,2:0:0:0:
432,163,93070,1,12,2:0:0:0:
512,230,93290,1,2,3:2:0:0:
455,322,93511,6,0,P|393:335|305:368,1,127.8,6|0,3:2|2:0,2:0:0:0:
296,380,93952,1,10,2:0:0:0:
219,317,94173,2,0,P|218:249|250:215,1,85.2,2|0,3:2|2:0,2:0:0:0:
303,180,94614,1,2,3:2:0:0:
376,239,94834,1,10,2:0:0:0:
463,183,95055,6,0,P|461:131|427:50,1,127.8,2|2,3:2|2:0,2:0:0:0:
403,31,95496,1,2,3:2:0:0:
312,70,95717,1,8,2:0:0:0:
312,70,95827,2,0,P|243:48|212:44,1,85.2,0|0,3:0|2:0,2:0:0:0:
188,40,96158,2,0,P|181:11|186:-12,2,42.6,0|8|0,3:0|2:0|3:0,2:0:0:0:
119,108,96599,1,8,2:0:0:0:
119,108,96709,1,8,2:0:0:0:
119,108,96820,1,0,3:0:0:0:
0,50,97040,6,0,P|24:110|33:192,1,127.8,4|0,3:2|2:0,2:0:0:0:
12,209,97481,1,10,2:0:0:0:
68,297,97702,2,0,P|115:305|156:279,1,85.2,2|0,3:2|2:0,2:0:0:0:
234,230,98143,1,2,3:2:0:0:
302,307,98364,1,10,2:0:0:0:
391,252,98584,6,0,P|373:185|367:114,1,127.8,2|0,3:2|2:0,2:0:0:0:
374,84,99026,1,2,3:2:0:0:
462,23,99246,2,0,P|472:66|475:114,1,85.2,8|2,2:0|3:2,2:0:0:0:
512,202,99687,1,10,2:0:0:0:
436,270,99908,1,2,3:2:0:0:
436,270,100018,1,8,2:0:0:0:
436,270,100129,2,0,P|406:282|387:298,3,42.6,8|8|0|0,2:0|2:0|3:0|3:0,2:0:0:0:
369,320,100570,5,4,3:2:0:0:
369,320,102114,2,0,P|316:332|271:341,1,85.2,2|6,3:2|3:2,2:0:0:0:
285,338,102996,5,0,3:0:0:0:
203,384,103217,1,10,2:0:0:0:
203,384,103327,1,8,2:0:0:0:
121,338,103548,1,0,3:0:0:0:
42,384,103768,1,0,3:0:0:0:
42,384,103879,1,0,3:0:0:0:
0,278,104099,6,0,P|73:294|177:317,1,170.4,6|8,3:2|2:0,2:0:0:0:
257,272,104761,1,8,2:0:0:0:
257,272,104871,1,8,2:0:0:0:
257,272,104981,2,0,P|247:244|243:224,3,42.6,8|8|8|8,2:0|2:0|2:0|2:0,2:0:0:0:
212,202,105423,2,0,P|222:174|226:154,3,42.6,8|8|8|8,2:0|2:0|2:0|2:0,2:0:0:0:
247,124,105864,5,4,3:2:0:0:
256,192,105974,12,0,107187,2:0:0:0:
106,159,107629,6,0,P|145:144|201:129,1,71,6|4,3:1|1:3,2:0:0:0:
202,120,107959,1,0,2:0:0:0:
202,120,108070,1,8,2:0:0:0:
288,158,108290,1,4,1:3:0:0:
351,84,108511,2,0,P|338:41|326:10,1,71,0|4,3:0|1:3,2:0:0:0:
450,126,108952,2,0,P|463:169|475:200,1,71,10|4,2:0|1:3,2:0:0:0:
502,215,109283,1,0,2:0:0:0:
502,215,109393,6,0,P|494:289|423:323,1,142,2|10,3:2|2:0,2:0:0:0:
365,384,110055,1,4,1:3:0:0:
278,339,110276,2,0,P|220:330|191:330,1,71,2|4,3:2|1:3,2:0:0:0:
302,246,110717,2,0,P|360:255|389:255,1,71,10|4,2:0|1:3,2:0:0:0:
404,243,111048,1,0,2:0:0:0:
404,243,111158,6,0,P|413:168|428:100,1,142,2|8,3:2|2:0,2:0:0:0:
363,24,111820,1,4,1:3:0:0:
270,67,112040,2,0,P|258:106|285:148,1,71,0|4,3:0|1:3,2:0:0:0:
333,209,112481,1,10,2:0:0:0:
333,209,112923,6,0,P|295:219|263:239,1,71,2|4,3:2|1:3,2:0:0:0:
246,258,113254,1,0,2:0:0:0:
246,258,113364,2,0,P|238:290|233:319,2,35.5,8|0|6,2:0|2:0|1:3,2:0:0:0:
171,193,113805,2,0,P|120:209|81:213,1,71,2|8,3:2|2:0,2:0:0:0:
76,228,114136,1,8,2:0:0:0:
44,225,114246,1,8,2:0:0:0:
19,204,114356,1,8,2:0:0:0:
10,174,114467,1,0,3:0:0:0:
52,84,114687,6,0,P|102:87|158:97,1,106.5,6|2,3:2|2:0,2:0:0:0:
186,111,115129,1,8,2:0:0:0:
254,49,115349,1,6,1:3:0:0:
326,127,115570,2,0,P|313:163|304:201,1,71,2|4,3:2|1:3,2:0:0:0:
221,247,116011,2,0,P|244:291|258:350,1,106.5,10|0,2:0|2:0,2:0:0:0:
234,367,116452,6,0,P|188:377|137:394,1,71,2|4,3:2|1:3,2:0:0:0:
140,372,116783,1,0,2:0:0:0:
140,372,116893,1,8,2:0:0:0:
41,384,117114,1,4,1:3:0:0:
0,294,117334,2,0,P|8:255|12:216,1,71,0|4,3:0|1:3,2:0:0:0:
69,143,117776,1,8,2:0:0:0:
69,143,118217,6,0,P|118:157|158:184,1,71,6|2,3:2|2:0,2:0:0:0:
167,184,118548,1,8,2:0:0:0:
167,184,118658,1,10,2:0:0:0:
230,261,118879,2,0,P|290:237|376:217,1,142,6|2,3:2|3:2,2:0:0:0:
444,271,119540,1,10,2:0:0:0:
512,198,119761,6,0,P|499:146|424:101,1,142,6|0,3:2|3:0,2:0:0:0:
350,44,120423,2,0,P|310:56|269:61,1,71,12|0,2:0|2:0,2:0:0:0:
259,84,120754,1,8,2:0:0:0:
259,84,120864,1,0,3:0:0:0:
184,147,121084,1,0,3:0:0:0:
187,160,121195,1,8,2:0:0:0:
190,174,121305,1,8,2:0:0:0:
194,187,121415,1,8,2:0:0:0:
197,201,121526,1,0,3:0:0:0:
133,277,121746,5,6,3:1:0:0:
133,277,122187,5,2,2:0:0:0:
60,250,122408,1,2,2:0:0:0:
11,311,122849,5,2,2:0:0:0:
54,375,123070,1,2,2:0:0:0:
129,355,123290,1,2,2:0:0:0:
256,192,123511,12,6,125318,2:0:0:0:
