osu file format v14

[General]
AudioFilename: audio.mp3
AudioLeadIn: 0
PreviewTime: 75864
Countdown: 0
SampleSet: Soft
StackLeniency: 0.4
Mode: 0
LetterboxInBreaks: 0
WidescreenStoryboard: 1

[Editor]
Bookmarks: 12776,14209
DistanceSpacing: 0.8
BeatDivisor: 4
GridSize: 32
TimelineZoom: 2.2

[Metadata]
Title:Yume ni Kakeru Rainbow
TitleUnicode:夢にかけるRainbow
Artist:765 MILLION ALLSTARS
ArtistUnicode:765 MILLION ALLSTARS
Creator:TsumugiP
Version:Meep's Mirai
Source:アイドルマスター ミリオンライブ!
Tags:japanese video game w_m gears _Meep_ Mrgglock Usaha Hanasaka Yui Nana Abe takekii Mocaotic The Rainbow for Dreams 5th Anniversary シアターデイズ ミリシタ idolmaster idol idolm@ster million live! theater days the@ter mltd pop imas im@s jpop j-pop idols アイマス ミリマス anime 765PRO 765プロ 765
BeatmapID:3689577
BeatmapSetID:1799740

[Difficulty]
HPDrainRate:6
CircleSize:4.4
OverallDifficulty:8.5
ApproachRate:9.4
SliderMultiplier:2.4
SliderTickRate:1

[Events]
//Background and Video events
0,0,"anniversary.jpg",0,0
Video,-500,"video.mp4"
//Break Periods
//Storyboard Layer 0 (Background)
//Storyboard Layer 1 (Fail)
//Storyboard Layer 2 (Pass)
//Storyboard Layer 3 (Foreground)
//Storyboard Layer 4 (Overlay)
//Storyboard Sound Samples

[TimingPoints]
-18,441.176470588235,4,2,1,15,1,0
1746,-166.666666666667,4,2,1,17,0,0
2187,-166.666666666667,4,2,1,19,0,0
2629,-166.666666666667,4,2,1,21,0,0
3070,-166.666666666667,4,2,1,23,0,0
3511,-166.666666666667,4,2,1,25,0,0
3952,-166.666666666667,4,2,1,27,0,0
4393,-166.666666666667,4,2,1,29,0,0
5276,-166.666666666667,4,2,1,31,0,0
7040,-1000,4,2,1,31,0,0
10129,-83.3333333333334,4,2,1,70,0,0
10570,-83.3333333333334,4,2,1,65,0,0
12223,-83.3333333333334,4,2,1,5,0,0
12334,-83.3333333333334,4,2,1,65,0,0
13988,-83.3333333333334,4,2,1,5,0,0
14099,-83.3333333333334,4,2,1,65,0,0
15753,-83.3333333333334,4,2,1,5,0,0
15864,-83.3333333333334,4,2,1,65,0,0
19282,-83.3333333333334,4,2,1,5,0,0
19393,-83.3333333333334,4,2,1,65,0,0
21709,-83.3333333333334,4,2,1,5,0,0
21820,-83.3333333333334,4,2,1,65,0,0
22150,-83.3333333333334,4,2,1,5,0,0
22261,-83.3333333333334,4,2,1,65,0,0
22371,-83.3333333333334,4,2,1,5,0,0
22481,-83.3333333333334,4,2,1,65,0,0
22591,-83.3333333333334,4,2,1,5,0,0
22702,-83.3333333333334,4,2,1,65,0,0
23032,-83.3333333333334,4,2,1,5,0,0
23143,-83.3333333333334,4,2,1,65,0,0
24798,-83.3333333333334,4,2,1,30,0,0
26452,-83.3333333333334,4,2,1,40,0,0
27004,-125,4,2,1,40,0,0
38474,-125,4,2,1,48,0,0
38584,-250,4,2,1,60,0,0
38695,-250,4,2,1,35,0,0
39798,-100,4,2,1,35,0,0
40349,-100,4,2,0,35,0,0
40570,-100,4,2,1,65,0,0
54356,-125,4,2,1,65,0,0
54687,-166.666666666667,4,2,1,35,0,0
56893,-166.666666666667,4,2,1,15,0,0
57334,-166.666666666667,4,2,1,35,0,0
61195,-200,4,2,1,35,0,0
61526,-250.000000000001,4,2,1,35,0,0
61746,-90.9090909090909,4,2,1,35,0,0
62629,-90.9090909090909,4,2,1,45,0,0
63511,-90.9090909090909,4,2,1,57,0,0
64173,-83.3333333333333,4,2,1,57,0,0
64393,-76.9230769230769,4,2,1,70,0,0
64614,-71.4285714285714,4,2,1,70,0,0
65276,-66.6666666666667,4,2,1,35,0,0
68254,-66.6666666666667,4,2,1,5,0,0
68364,-111.111111111111,4,2,1,85,0,0
68805,-76.9230769230769,4,2,1,60,0,0
69026,-76.9230769230769,4,2,1,45,0,0
69136,-71.4285714285714,4,2,1,45,0,0
69467,-66.6666666666667,4,2,1,49,0,0
69908,-66.6666666666667,4,2,1,54,0,0
70349,-66.6666666666667,4,2,1,59,0,0
70790,-66.6666666666667,4,2,1,64,0,0
71231,-66.6666666666667,4,2,1,70,0,0
71673,-66.6666666666667,4,2,1,78,0,0
71893,-66.6666666666667,4,2,1,80,0,0
72003,-66.6666666666667,4,2,1,81,0,0
72114,-66.6666666666667,4,2,1,83,0,0
72224,-66.6666666666667,4,2,1,85,0,0
72334,-100,4,2,1,90,0,0
73217,-83.3333333333333,4,2,1,90,0,0
73382,-83.3333333333333,4,2,1,5,0,0
73437,-71.4285714285714,4,2,1,90,0,0
73602,-71.4285714285714,4,2,1,5,0,0
73658,-62.5,4,2,1,90,0,0
73823,-62.5,4,2,1,5,0,0
73879,-55.5555555555556,4,2,1,90,0,0
74044,-55.5555555555556,4,2,1,5,0,0
74099,-55.5555555555556,4,2,1,90,0,0
74209,-55.5555555555556,4,2,1,50,0,0
74540,-142.857142857143,4,2,1,50,0,0
74870,-142.857142857143,4,2,1,5,0,0
74981,-111.111111111111,4,2,1,50,0,0
75311,-111.111111111111,4,2,1,5,0,0
75423,-111.111111111111,4,2,1,50,0,0
75864,-76.9230769230769,4,2,1,80,0,1
78511,-62.5,4,2,1,80,0,1
79393,-76.9230769230769,4,2,1,80,0,1
100570,-76.9230769230769,4,2,1,90,0,0
100680,-76.9230769230769,4,2,1,70,0,0
101231,-76.9230769230769,4,2,1,70,0,0
101452,-111.111111111111,4,2,1,70,0,0
102334,-111.111111111111,4,2,1,90,0,0
102445,-111.111111111111,4,2,1,70,0,0
102996,-111.111111111111,4,2,1,70,0,0
103217,-111.111111111111,4,2,1,80,0,0
103437,-111.111111111111,4,2,1,66,0,0
103658,-111.111111111111,4,2,1,55,0,0
103879,-111.111111111111,4,2,1,47,0,0
104099,-99.9999999999999,4,2,1,77,0,0
104319,-99.9999999999999,4,2,1,38,0,0
104430,-83.3333333333333,4,2,1,38,0,0
104540,-83.3333333333333,4,2,1,41,0,0
104761,-71.4285714285714,4,2,1,44,0,0
104981,-71.4285714285714,4,2,1,48,0,0
105202,-71.4285714285714,4,2,1,54,0,0
105423,-71.4285714285714,4,2,1,70,0,0
105643,-71.4285714285714,4,2,1,93,0,0
105864,-71.4285714285714,4,2,1,80,0,0
106084,-83.3333333333333,4,2,1,70,0,0
106415,-100,4,2,1,70,0,0
106746,-125,4,2,1,55,0,0
107077,-166.666666666667,4,2,1,45,0,0
107408,-166.666666666667,4,2,1,35,0,0
107629,-83.3333333333333,4,2,1,65,0,1
107739,-83.3333333333333,4,2,1,65,0,0
109282,-83.3333333333333,4,2,1,5,0,0
109393,-83.3333333333334,4,2,1,65,0,0
111047,-83.3333333333334,4,2,1,5,0,0
111158,-83.3333333333334,4,2,1,65,0,0
112811,-83.3333333333334,4,2,1,5,0,0
112923,-83.3333333333334,4,2,1,65,0,0
116341,-83.3333333333334,4,2,1,5,0,0
116452,-83.3333333333334,4,2,1,65,0,0
121746,-125,4,2,1,45,0,0
121856,-125,4,2,1,35,0,0
122628,-125,4,2,1,25,0,0
123511,-125,4,2,1,15,0,0
123731,476.190476190476,4,2,1,15,1,0
123969,444.444444444444,4,2,1,15,1,0
124192,468.75,4,2,1,15,1,0
124426,618.556701030927,4,2,1,10,1,0
124619,530.973451327433,4,2,1,15,1,0
124884,869.565217391304,4,2,1,15,1,0
125318,-125,4,2,1,17,0,0
126622,-125,4,2,1,22,0,0
127057,-125,4,2,1,28,0,0
127492,-125,4,2,1,22,0,0
127927,-125,4,2,1,17,0,0
128361,-125,4,2,1,12,0,0
128797,-125,4,2,1,8,0,0
129231,-125,4,2,1,5,0,0

[Colours]
Combo1 : 136,255,187
Combo2 : 253,174,255
Combo3 : 201,191,255
Combo4 : 147,201,255
Combo5 : 157,240,244

[HitObjects]
94,367,1084,5,2,0:0:0:0:
252,325,1305,1,2,0:0:0:0:
398,286,1526,1,2,0:0:0:0:
242,229,1746,6,0,P|247:168|256:133,1,71.9999999999999,2|0,0:0|0:0,0:0:0:0:
177,82,2077,2,0,P|141:76|108:62,1,71.9999999999999,2|0,0:0|0:0,0:0:0:0:
288,41,2408,2,0,P|349:43|444:90,1,144,2|2,0:0|0:0,0:0:0:0:
288,41,3070,1,0,0:0:0:0:
348,143,3290,1,2,0:0:0:0:
174,123,3511,6,0,L|157:216,1,71.9999999999999,2|0,0:0|0:0,0:0:0:0:
303,284,3842,2,0,P|267:267|230:241,1,71.9999999999999,2|0,0:0|0:0,0:0:0:0:
57,163,4173,2,0,L|69:307,1,144,2|0,0:0|0:0,0:0:0:0:
158,383,4834,1,0,0:0:0:0:
269,307,5055,6,0,P|273:324|263:311,1,35.9999999999999,2|2,0:0|0:0,0:0:0:0:
269,307,5276,2,0,L|426:281,1,144,2|0,0:0|0:0,0:0:0:0:
461,104,5937,6,0,P|461:120|455:111,1,35.9999999999999,2|2,0:0|0:0,0:0:0:0:
461,104,6158,2,0,B|424:92|424:92|375:97,1,71.9999999999999,2|0,0:0|0:0,0:0:0:0:
283,35,6489,2,0,P|257:58|262:119,1,71.9999999999999,2|0,0:0|0:0,0:0:0:0:
209,184,6820,2,0,P|238:205|254:204,1,35.9999999999999,2|0,0:0|0:0,0:0:0:0:
339,259,7040,6,0,B|392:271|377:237|436:255,1,96,2|0,0:0|0:0,0:0:0:0:
161,345,10055,5,2,0:0:0:0:
161,345,10129,2,2,P|181:376|205:400,2,48,14|2|2,0:0|0:0|0:0,0:0:0:0:
239,324,10349,2,2,P|256:290|264:257,2,48,2|2|2,0:0|0:0|0:0,0:0:0:0:
95,283,10570,6,0,L|88:134,1,144,6|4,3:1|1:3,0:0:0:0:
0,144,10901,1,0,0:0:0:0:
50,65,11011,2,0,P|107:55|171:125,1,143.999995605469,8|4,0:0|1:3,0:0:0:0:
304,187,11342,1,0,0:0:0:0:
319,98,11452,2,0,P|279:107|248:126,1,71.9999999999999,0|0,3:0|0:0,0:0:0:0:
171,206,11673,2,0,P|209:223|260:235,1,71.9999999999999,4|0,1:3|0:0,0:0:0:0:
434,174,11893,6,0,B|408:152|384:150|384:150|313:199|312:313,1,215.999993408203,10|0,0:0|0:0,0:0:0:0:
326,305,12334,6,0,B|380:269|428:301|428:301|408:354,1,143.999995605469,2|4,3:2|1:3,0:0:0:0:
300,384,12665,1,0,0:0:0:0:
216,305,12776,1,10,0:0:0:0:
207,297,12996,2,0,P|201:261|201:225,1,71.9999978027344,4|0,1:3|0:0,0:0:0:0:
370,295,13217,2,0,P|342:319|312:336,1,71.9999999999999,2|0,3:2|0:0,0:0:0:0:
290,148,13437,2,0,P|324:159|354:177,1,71.9999999999999,4|0,1:3|0:0,0:0:0:0:
203,45,13658,6,0,B|155:60|141:127|141:127|109:70|23:70,1,215.999993408203,10|0,0:0|0:0,0:0:0:0:
0,131,14099,6,0,L|11:282,1,143.999995605469,2|4,3:2|1:3,0:0:0:0:
107,252,14430,1,0,0:0:0:0:
51,359,14540,2,0,P|88:354|119:338,1,71.9999978027344,8|0,0:0|0:0,0:0:0:0:
193,150,14761,2,0,L|204:301,1,143.999995605469,4|0,1:3|3:0,0:0:0:0:
316,259,15092,1,0,0:0:0:0:
257,370,15202,2,0,P|297:364|348:342,1,71.9999978027344,4|0,1:3|0:0,0:0:0:0:
423,282,15423,6,0,B|468:157|364:184|394:76,1,216,10|0,0:0|0:0,0:0:0:0:
474,111,15864,5,2,3:2:0:0:
275,152,16084,2,0,P|239:145|205:129,2,71.9999978027344,4|0|8,1:3|0:0|0:0,0:0:0:0:
270,57,16415,1,0,0:0:0:0:
150,187,16526,2,0,P|132:148|129:108,1,71.9999978027344,6|0,1:3|0:0,0:0:0:0:
64,0,16746,5,2,3:2:0:0:
49,27,16856,2,0,B|35:79|35:79|44:177,1,143.999995605469,0|8,0:0|0:0,0:0:0:0:
141,229,17187,1,8,0:0:0:0:
53,188,17298,1,8,0:0:0:0:
15,278,17408,2,0,L|24:355,1,71.9999978027344,0|0,3:0|3:0,0:0:0:0:
117,366,17629,6,0,L|315:342,1,144,6|4,3:2|1:3,0:0:0:0:
328,267,17959,1,2,0:0:0:0:
429,294,18070,2,0,P|434:327|437:366,1,71.9999978027344,8|0,0:0|0:0,0:0:0:0:
322,245,18290,2,0,P|322:203|326:173,1,71.9999978027344,6|0,1:3|0:0,0:0:0:0:
325,85,18511,2,0,P|394:120|409:183,1,143.999995605469,2|4,3:2|1:3,0:0:0:0:
247,103,18842,1,0,0:0:0:0:
267,12,18952,6,0,B|381:-18|383:50|500:24,1,215.999993408203,10|0,0:0|0:0,0:0:0:0:
502,38,19393,6,0,B|503:86|480:127|480:127|485:166|514:208|514:208|478:250|491:311,2,287.999991210938,2|8|0,3:2|0:0|3:0,0:0:0:0:
90,265,20606,1,0,0:0:0:0:
115,283,20717,2,0,L|261:269,1,143.999995605469,8|6,0:0|1:3,0:0:0:0:
348,180,21048,1,2,0:0:0:0:
341,319,21158,6,0,P|361:254|343:168,1,143.999995605469,6|2,3:2|0:0,0:0:0:0:
286,118,21489,1,8,0:0:0:0:
375,59,21599,2,0,L|305:46,1,71.9999999999999,10|0,0:0|0:0,0:0:0:0:
84,1,21820,6,0,L|96:224,1,216,6|0,3:2|0:0,0:0:0:0:
92,309,22261,2,0,P|126:299|158:283,1,71.9999999999999,2|0,3:2|0:0,0:0:0:0:
265,103,22481,2,0,P|249:149|247:184,1,71.9999999999999,10|0,0:0|0:0,0:0:0:0:
314,306,22702,6,0,B|396:339|485:299|485:299|446:283|438:238,1,215.999993408203,6|0,3:2|0:0,0:0:0:0:
413,187,23143,6,0,P|382:200|384:234,1,71.9999999999999,0|0,3:0|0:0,0:0:0:0:
471,131,23364,1,12,0:0:0:0:
338,129,23474,2,0,P|408:107|486:145,1,143.999995605469,0|8,0:0|0:0,0:0:0:0:
468,277,23805,2,0,B|413:270|413:270|382:285|382:285|302:277,1,144,0|0,3:0|3:0,0:0:0:0:
175,248,24136,5,8,0:0:0:0:
143,288,24246,1,8,0:0:0:0:
141,339,24356,1,8,0:0:0:0:
171,380,24467,1,0,3:0:0:0:
247,322,24577,5,0,3:0:0:0:
239,317,24687,2,0,P|228:311|216:308,1,24,6|0,3:1|0:0,0:0:0:0:
256,192,24798,12,4,26452,3:2:0:0:
153,204,26893,5,2,3:2:0:0:
80,241,27004,2,0,L|208:231,1,96,2|2,0:0|0:0,0:0:0:0:
235,284,27334,1,0,3:0:0:0:
265,279,27445,1,2,0:0:0:0:
299,276,27555,1,2,0:0:0:0:
148,349,27776,1,0,3:0:0:0:
437,368,28217,5,0,3:0:0:0:
478,171,28658,1,2,3:2:0:0:
420,119,28768,2,0,L|300:131,1,96,2|2,0:0|0:0,0:0:0:0:
256,151,29099,2,0,P|251:118|262:88,1,48,0|2,3:0|0:0,0:0:0:0:
357,45,29320,1,2,0:0:0:0:
377,202,29540,2,0,B|385:275|385:275|381:273|381:273|388:355,1,144,8|0,0:0|0:0,0:0:0:0:
440,384,29981,5,0,3:0:0:0:
165,302,30423,1,2,3:2:0:0:
68,354,30643,1,2,0:0:0:0:
73,248,30864,1,2,3:2:0:0:
209,191,31084,1,2,0:0:0:0:
199,87,31305,1,2,3:2:0:0:
125,141,31526,1,2,0:0:0:0:
364,157,31746,6,0,P|386:115|379:57,1,96,2|0,3:2|0:0,0:0:0:0:
308,21,32077,1,2,0:0:0:0:
300,104,32187,1,0,3:0:0:0:
502,58,32408,2,0,L|479:200,1,144,2|0,0:0|0:0,0:0:0:0:
375,187,32849,2,0,L|389:297,1,96,0|8,0:0|0:0,0:0:0:0:
283,253,33180,2,0,L|262:380,1,96
179,318,33511,5,4,3:2:0:0:
67,236,33952,1,2,3:2:0:0:
108,167,34062,2,0,P|158:146|213:157,1,96,2|2,0:0|0:0,0:0:0:0:
285,179,34393,1,0,3:0:0:0:
287,139,34504,1,2,0:0:0:0:
272,101,34614,1,2,0:0:0:0:
168,233,34834,1,0,3:0:0:0:
360,279,35276,1,0,3:0:0:0:
449,135,35717,5,2,3:2:0:0:
384,83,35827,2,0,P|429:54|491:68,1,96,2|2,0:0|0:0,0:0:0:0:
333,162,36158,1,0,3:0:0:0:
297,152,36268,1,2,0:0:0:0:
258,140,36379,1,2,0:0:0:0:
79,112,36599,2,0,B|84:179|84:179|86:182|86:182|95:280,1,144,8|0,0:0|0:0,0:0:0:0:
117,325,37040,5,0,3:0:0:0:
230,229,37261,1,2,0:0:0:0:
254,377,37481,1,2,3:2:0:0:
407,329,37702,2,0,P|400:279|309:266,1,144,2|0,0:0|0:0,0:0:0:0:
309,274,38143,1,2,0:0:0:0:
475,256,38364,2,0,P|482:278|485:302,1,48,2|8,3:2|0:0,0:0:0:0:
363,147,38584,6,0,B|329:75|373:12|373:12|406:39|386:62|363:50,1,192,14|0,0:0|3:0,0:0:0:0:
189,52,39687,5,8,0:2:0:0:
113,129,39798,2,0,L|29:123,1,60,8|0,0:2|0:2,0:2:0:0:
196,198,40018,2,0,L|281:187,1,60,8|0,0:3|0:2,0:2:0:0:
58,280,40239,1,8,0:3:0:0:
139,290,40349,1,4,0:3:0:0:
40,276,40459,1,4,0:3:0:0:
165,299,40570,6,0,L|333:280,1,120,4|0,3:2|0:0,0:0:0:0:
442,349,41011,1,10,0:0:0:0:
502,286,41121,2,0,L|493:203,1,60,2|0,0:0|0:0,0:0:0:0:
414,199,41342,2,0,L|428:72,1,120,2|2,3:2|0:0,0:0:0:0:
478,19,41673,1,2,3:2:0:0:
219,154,41893,2,0,L|211:81,1,60,8|0,0:0|0:0,0:0:0:0:
131,42,42114,2,0,L|120:134,1,60,0|0,3:0|0:0,0:0:0:0:
98,309,42334,5,0,3:0:0:0:
109,317,42555,2,0,L|167:304,1,60,0|0,3:0|0:0,0:0:0:0:
239,232,42776,1,10,0:0:0:0:
290,312,42886,2,0,L|277:393,1,60,2|0,0:0|0:0,0:0:0:0:
342,203,43106,2,0,L|325:44,1,120,2|2,3:2|0:0,0:0:0:0:
433,262,43437,2,0,L|422:342,1,60,6|0,3:2|0:0,0:0:0:0:
481,152,43658,1,8,0:0:0:0:
329,83,43879,1,0,3:0:0:0:
254,134,43989,1,0,0:0:0:0:
232,215,44099,6,0,L|94:195,1,120,0|0,3:0|0:0,0:0:0:0:
11,319,44430,1,0,0:0:0:0:
11,319,44540,2,0,P|61:277|139:292,1,120,10|2,0:0|0:0,0:0:0:0:
190,346,44871,1,0,3:0:0:0:
232,244,44981,2,0,P|190:294|205:372,1,120,2|2,0:0|3:2,0:0:0:0:
273,321,45312,1,0,0:0:0:0:
400,263,45423,2,0,P|371:255|341:259,1,60,10|0,0:0|0:0,0:0:0:0:
301,184,45643,2,0,P|312:155|330:131,1,60,2|0,3:2|0:0,0:0:0:0:
442,57,45864,6,0,P|443:117|473:173,1,120,2|0,3:2|0:0,0:0:0:0:
434,247,46195,2,0,P|374:241|317:258,1,120,2|0,3:2|0:0,0:0:0:0:
272,172,46526,2,0,P|279:134|279:110,1,60,2|0,3:2|0:0,0:0:0:0:
351,19,46746,6,0,P|359:52|368:113,1,60,2|0,0:0|0:0,0:0:0:0:
265,192,46967,1,0,3:2:0:0:
179,20,47077,2,0,P|168:52|165:97,1,60,2|8,0:0|0:0,0:0:0:0:
257,212,47298,5,8,0:0:0:0:
172,104,47408,1,10,0:0:0:0:
315,152,47518,1,0,3:0:0:0:
147,212,47629,2,0,L|20:200,1,120,4|0,3:2|0:0,0:0:0:0:
0,370,48070,5,10,0:0:0:0:
60,331,48180,2,0,L|151:341,1,60,2|0,0:0|0:0,0:0:0:0:
186,384,48401,2,0,L|203:251,1,120,2|2,3:2|0:0,0:0:0:0:
138,213,48731,1,2,3:2:0:0:
284,179,48952,2,0,L|376:193,1,60,8|0,0:0|0:0,0:0:0:0:
365,287,49173,2,0,L|270:273,1,60,0|0,3:0|0:0,0:0:0:0:
455,147,49393,5,0,3:0:0:0:
465,137,49614,2,0,L|454:67,1,60,0|0,3:0|0:0,0:0:0:0:
358,8,49834,1,10,0:0:0:0:
306,66,49945,2,0,L|313:147,1,60,2|0,0:0|0:0,0:0:0:0:
370,225,50165,2,0,L|249:208,1,120,2|2,3:2|0:0,0:0:0:0:
172,144,50496,2,0,L|160:239,1,60,2|0,3:2|0:0,0:0:0:0:
40,321,50717,1,8,0:0:0:0:
200,290,50937,1,0,3:0:0:0:
257,110,51158,5,0,3:0:0:0:
294,205,51379,2,0,P|334:177|345:165,1,60,2|0,0:0|0:0,0:0:0:0:
160,92,51599,2,0,P|164:140|169:156,1,60,10|0,0:0|0:0,0:0:0:0:
348,56,51820,2,0,P|279:11|241:6,1,120,2|0,0:0|0:0,0:0:0:0:
261,122,52261,1,2,3:2:0:0:
422,90,52481,1,10,0:0:0:0:
107,83,52702,1,2,3:2:0:0:
255,221,52923,6,0,B|273:301|227:285|247:361|247:361|269:387|352:355|308:290,2,240,6|8|10,3:2|0:0|0:0,0:0:0:0:
269,53,53915,5,8,0:0:0:0:
297,133,54026,2,0,L|363:117,1,60,8|0,0:0|3:0,0:0:0:0:
120,116,54246,5,10,0:0:0:0:
109,202,54356,2,0,L|61:187,1,48,8|0,0:0|3:0,0:0:0:0:
244,217,54577,5,0,0:0:0:0:
271,289,54687,2,0,P|341:266|398:264,2,108,2|2|2,0:0|0:0|0:0,0:0:0:0:
268,304,56011,1,2,0:0:0:0:
158,350,56231,1,2,0:0:0:0:
68,290,56452,2,0,P|61:244|135:230,1,108
134,235,56893,1,2,0:0:0:0:
96,125,57114,1,2,0:0:0:0:
176,50,57334,2,0,P|222:43|236:117,1,108
243,120,57776,2,0,P|284:99|356:117,1,108,2|0,0:0|0:0,0:0:0:0:
371,130,58217,6,0,L|382:266,2,108,2|2|2,0:0|0:0|0:0,0:0:0:0:
140,56,59540,1,2,0:0:0:0:
113,168,59761,2,0,L|35:162,1,71.9999999999999,2|0,0:0|0:0,0:0:0:0:
9,239,60092,1,2,0:0:0:0:
37,260,60202,2,0,L|203:242,1,144,2|0,0:0|0:0,0:0:0:0:
248,287,60754,1,0,0:0:0:0:
174,315,60864,6,0,P|173:267|187:229,1,71.9999999999999,2|0,0:0|0:0,0:0:0:0:
256,257,61195,6,0,P|286:238|316:233,1,60,2|0,0:0|0:0,0:0:0:0:
363,292,61526,6,0,P|378:300|388:312,1,23.9999999999999,2|0,0:0|0:0,0:0:0:0:
455,369,61746,6,0,P|474:310|441:228,1,132,2|0,3:2|0:0,0:0:0:0:
412,169,62077,1,2,3:2:0:0:
478,99,62187,2,0,P|496:132|505:159,1,66,0|0,3:0|0:0,0:0:0:0:
352,238,62408,2,0,P|335:213|320:160,1,66,2|0,3:2|0:0,0:0:0:0:
219,14,62629,6,0,L|191:162,1,132,0|0,3:0|0:0,0:0:0:0:
104,205,62959,1,0,3:0:0:0:
9,172,63070,2,0,P|1:127|-1:101,1,66,2|0,3:2|0:0,0:0:0:0:
127,224,63290,2,0,P|128:274|119:316,1,66,2|0,3:2|0:0,0:0:0:0:
15,376,63511,6,0,L|169:361,1,132,0|0,3:0|0:0,0:0:0:0:
233,291,63842,1,0,3:0:0:0:
285,378,63952,2,0,L|359:373,1,66,0|0,3:0|0:0,0:0:0:0:
444,311,64173,6,0,L|462:239,1,72,0|0,3:0|0:0,0:0:0:0:
434,100,64393,6,0,L|367:58,1,78,0|0,3:0|3:0,0:0:0:0:
210,32,64614,6,0,L|134:95,1,84,0|0,0:0|3:0,0:0:0:0:
80,209,64834,5,2,3:2:0:0:
80,209,64945,1,8,0:0:0:0:
80,209,65055,2,0,P|122:224|158:253,1,83.9999974365235,8|0,0:0|0:0,0:0:0:0:
254,334,65276,5,6,0:1:0:0:
270,357,66158,5,2,0:0:0:0:
297,384,67040,5,2,0:0:0:0:
256,192,67151,12,0,68254,0:0:0:0:
174,249,68364,6,0,P|195:179|264:201,1,161.999995056153,10|0,0:0|0:0,0:0:0:0:
324,278,68805,6,0,L|340:189,1,77.9999964294435,14|0,0:0|0:0,0:0:0:0:
364,0,69026,5,8,0:0:0:0:
394,79,69136,1,8,0:0:0:0:
316,112,69246,2,0,L|232:92,1,83.9999974365235,8|0,0:0|0:0,0:0:0:0:
64,138,69467,5,8,0:0:0:0:
27,217,69577,1,8,0:0:0:0:
100,258,69687,2,0,L|189:236,1,90.0000034332277,8|0,0:0|0:0,0:0:0:0:
419,257,69908,5,8,0:0:0:0:
460,333,70018,1,8,0:0:0:0:
388,375,70129,2,0,L|298:353,1,90.0000034332277,10|0,0:0|0:0,0:0:0:0:
255,188,70349,2,0,P|268:235|247:297,1,90.0000034332277,8|8,0:0|0:0,0:0:0:0:
58,383,70570,6,0,P|42:342|50:287,1,90.0000034332277,10|0,0:0|0:0,0:0:0:0:
114,104,70790,1,8,0:0:0:0:
220,362,70901,2,0,P|224:317|209:276,1,90.0000034332277,8|0,0:0|0:0,0:0:0:0:
112,77,71121,1,8,0:0:0:0:
22,207,71231,2,0,L|122:193,1,90.0000034332277,8|0,0:0|0:0,0:0:0:0:
293,209,71452,5,8,0:0:0:0:
270,99,71562,2,0,P|239:119|220:173,1,90.0000034332277,8|0,0:0|0:0,0:0:0:0:
256,336,71783,1,8,0:0:0:0:
71,177,71893,2,0,P|78:221|96:262,1,90.0000034332277,10|8,0:0|0:0,0:0:0:0:
421,261,72114,2,0,P|437:220|443:175,1,90.0000034332277,8|8,0:0|0:0,0:0:0:0:
260,22,72334,6,0,P|262:89|255:165,1,120,14|0,0:0|0:0,0:0:0:0:
294,242,72665,2,0,P|234:222|170:227,1,120,2|0,0:0|0:0,0:0:0:0:
82,133,72996,2,0,P|112:133|140:145,1,60,2|0,3:2|0:0,0:0:0:0:
183,75,73217,6,0,B|237:53|237:53|298:58,1,108,10|0,0:2|0:0,0:0:0:0:
444,190,73437,6,0,B|386:163|386:163|325:173,1,126,8|0,0:2|0:0,0:0:0:0:
125,283,73658,6,0,B|185:254|185:254|261:268,1,144,8|0,0:2|0:0,0:0:0:0:
477,382,73879,6,0,B|405:343|405:343|327:358,1,162,10|0,0:2|0:0,0:0:0:0:
82,384,74099,5,10,3:2:0:0:
100,347,74540,6,0,P|152:298|217:306,1,126,2|0,0:0|0:0,0:0:0:0:
203,299,74981,6,0,P|143:246|43:266,1,162,2|0,0:0|0:0,0:0:0:0:
65,251,75423,5,2,3:2:0:0:
84,227,75496,1,2,0:0:0:0:
108,207,75570,1,2,0:0:0:0:
135,192,75643,1,2,0:0:0:0:
164,184,75717,1,2,0:0:0:0:
194,180,75790,1,2,0:0:0:0:
224,186,75864,6,0,B|207:70|207:70|183:95|144:106,1,156,6|4,3:2|1:3,0:0:0:0:
129,0,76195,1,2,0:0:0:0:
99,102,76305,2,0,P|138:103|176:93,1,78,8|0,0:0|0:0,0:0:0:0:
0,178,76526,1,6,1:3:0:0:
0,178,76636,1,0,0:0:0:0:
0,178,76746,2,0,P|35:207|48:245,1,78,0|0,3:0|0:0,0:0:0:0:
119,369,76967,2,0,P|159:246|179:211,1,156,6|8,1:3|0:0,0:0:0:0:
316,295,77298,1,0,0:0:0:0:
316,295,77408,2,0,P|273:310|247:341,1,78,6|0,1:3|0:0,0:0:0:0:
319,179,77629,6,0,P|370:190|407:217,1,78,2|0,3:2|0:0,0:0:0:0:
441,342,77849,1,4,1:3:0:0:
495,278,77959,2,0,L|479:193,1,78,2|8,0:0|0:0,0:0:0:0:
422,32,78180,1,0,0:0:0:0:
336,82,78290,2,0,P|285:76|248:58,1,78,6|0,1:3|0:0,0:0:0:0:
121,230,78511,6,0,B|111:207|114:187|114:187|128:168|127:141|127:141|145:160|169:164|169:164|187:178|192:198|192:198|196:218,1,192,0|4,3:0|1:3,0:0:0:0:
342,154,78842,1,0,0:0:0:0:
269,177,78952,6,0,B|259:154|262:134|262:134|276:115|275:88|275:88|293:107|317:111|317:111|335:125|340:145|340:145|342:154,1,192,8|6,0:0|1:3,0:0:0:0:
193,206,79283,1,2,0:0:0:0:
478,95,79393,6,0,P|438:173|433:247,1,156,2|4,3:2|1:3,0:0:0:0:
460,329,79724,1,0,0:0:0:0:
460,329,79834,2,0,P|419:329|363:301,1,78,8|0,0:0|0:0,0:0:0:0:
295,232,80055,5,6,1:3:0:0:
295,232,80165,1,2,0:0:0:0:
295,232,80276,2,0,L|302:314,1,78,2|0,3:2|0:0,0:0:0:0:
152,165,80496,1,4,1:3:0:0:
152,165,80606,2,0,L|135:251,1,78,2|8,0:0|0:0,0:0:0:0:
360,45,80827,1,0,0:0:0:0:
360,45,80937,2,0,L|371:137,1,78,6|0,1:3|0:0,0:0:0:0:
109,12,81158,6,0,B|90:60|100:121|100:121|118:96|160:93,1,156,2|4,3:2|1:3,0:0:0:0:
211,182,81489,1,0,0:0:0:0:
308,108,81599,2,0,P|264:99|212:185,1,155.999992858887,8|4,0:0|1:3,0:0:0:0:
315,234,81930,1,0,0:0:0:0:
168,260,82040,5,0,3:0:0:0:
151,251,82151,2,0,P|137:215|129:177,1,78,8|4,0:0|1:3,0:0:0:0:
270,26,82371,2,0,P|292:33|309:39,2,39,8|0|8,0:0|0:0|0:0,0:0:0:0:
118,71,82592,1,8,0:0:0:0:
299,127,82702,1,10,0:0:0:0:
186,0,82812,1,2,3:2:0:0:
107,149,82923,6,0,B|163:169|224:131|224:131|180:102,1,156,6|4,3:2|1:3,0:0:0:0:
0,70,83254,2,0,P|25:141|31:222,1,156,2|0,0:0|0:0,0:0:0:0:
185,244,83584,2,0,P|146:263|110:291,1,78,6|0,1:3|0:0,0:0:0:0:
0,362,83805,2,0,P|49:355|151:385,2,156,2|4|8,3:2|1:3|0:0,0:0:0:0:
256,358,84467,1,6,1:3:0:0:
359,250,84687,6,0,B|373:199|353:164|353:164|338:137|357:83,1,156,2|4,3:2|1:3,0:0:0:0:
446,38,85018,2,0,P|484:100|423:126,1,156,2|0,0:0|0:0,0:0:0:0:
325,25,85349,2,0,P|292:54|272:111,1,78,6|0,1:3|0:0,0:0:0:0:
201,242,85570,6,0,P|162:184|215:105,1,156,2|4,3:2|1:3,0:0:0:0:
312,94,85901,1,0,0:0:0:0:
397,180,86011,2,0,P|388:254|323:291,1,156,10|4,0:0|1:3,0:0:0:0:
68,348,86452,6,0,P|43:262|67:16,1,312,2|8,3:2|0:0,0:0:0:0:
57,42,87114,1,4,1:3:0:0:
235,184,87334,2,0,P|307:164|339:89,1,156,2|4,3:2|1:3,0:0:0:0:
512,150,87665,2,0,P|486:76|491:-8,1,156,2|0,0:0|0:0,0:0:0:0:
338,35,87996,2,0,P|355:84|353:126,1,78,6|0,1:3|0:0,0:0:0:0:
259,308,88217,2,0,B|208:353|149:341|149:341|73:325|79:211|212:212|191:334|127:320|108:278,1,312,2|8,3:2|0:0,0:0:0:0:
350,362,88879,1,6,1:3:0:0:
343,355,89099,6,0,P|324:321|310:268,1,78,2|0,3:2|0:0,0:0:0:0:
410,165,89320,1,8,0:0:0:0:
213,207,89430,2,0,P|217:158|229:122,1,78,10|8,0:0|0:0,0:0:0:0:
268,29,89651,1,8,0:0:0:0:
215,227,89761,1,10,0:0:0:0:
137,83,89871,1,8,0:0:0:0:
326,187,89981,2,0,P|324:237|291:349,1,156,6|0,3:2|0:0,0:0:0:0:
146,374,90423,5,10,0:0:0:0:
219,62,90643,2,0,B|250:54|275:63|275:63|320:114|394:90|394:90|350:86|326:58,1,234,2|0,3:2|0:0,0:0:0:0:
238,136,91084,1,2,3:2:0:0:
390,9,91305,1,10,0:0:0:0:
482,317,91526,6,0,P|388:347|401:249,1,234,2|2,3:2|0:0,0:0:0:0:
484,225,91967,2,0,L|399:216,1,78,2|0,3:2|0:0,0:0:0:0:
339,158,92187,1,8,0:0:0:0:
512,93,92298,2,0,L|345:73,1,156,0|0,3:0|0:0,0:0:0:0:
166,171,92629,1,0,3:0:0:0:
235,224,92739,1,8,0:0:0:0:
245,134,92849,1,8,0:0:0:0:
65,5,93070,2,0,L|48:171,1,156,12|2,0:0|3:2,0:0:0:0:
26,335,93511,6,0,P|86:282|232:304,1,234,6|0,3:2|0:0,0:0:0:0:
99,365,93952,2,0,P|147:364|197:350,1,78,10|0,0:0|0:0,0:0:0:0:
325,379,94173,2,0,P|312:300|350:218,1,156,2|0,3:2|0:0,0:0:0:0:
433,308,94614,1,2,3:2:0:0:
356,102,94834,1,10,0:0:0:0:
193,202,95055,6,0,L|19:193,1,156,2|0,3:2|0:0,0:0:0:0:
0,89,95386,1,2,0:0:0:0:
60,40,95496,2,0,L|156:44,1,78,2|0,3:2|0:0,0:0:0:0:
294,153,95717,1,8,0:0:0:0:
244,95,95827,2,0,B|199:91|199:91|191:220,1,156,0|0,3:0|0:0,0:0:0:0:
141,267,96158,6,0,P|179:283|220:282,1,78,0|8,3:0|0:0,0:0:0:0:
339,143,96379,2,0,P|314:177|309:227,1,78,0|0,3:0|0:0,0:0:0:0:
380,353,96599,1,8,0:0:0:0:
462,333,96709,1,8,0:0:0:0:
465,250,96820,1,0,3:0:0:0:
387,216,96930,1,0,3:0:0:0:
333,282,97040,6,0,B|250:296|178:264|178:264|218:261|259:227,1,234,4|0,3:2|0:0,0:0:0:0:
213,161,97481,2,0,P|177:188|125:180,1,78,10|0,0:0|0:0,0:0:0:0:
40,70,97702,2,0,P|62:157|58:319,1,234,2|0,3:2|0:0,0:0:0:0:
17,355,98143,2,0,P|59:341|111:336,1,78,2|0,3:2|0:0,0:0:0:0:
158,222,98364,2,0,P|196:237|224:262,1,78,10|0,0:0|0:0,0:0:0:0:
308,351,98584,6,0,B|318:275|378:236|378:236|359:193|282:204,1,233.999989288331,2|0,3:2|0:0,0:0:0:0:
436,176,99026,2,0,P|389:144|283:129,1,155.999992858887,2|8,3:2|0:0,0:0:0:0:
177,199,99356,1,0,0:0:0:0:
278,283,99467,2,0,P|272:234|256:199,1,77.9999964294435,2|0,3:2|0:0,0:0:0:0:
70,165,99687,5,10,0:0:0:0:
225,99,99798,1,2,0:0:0:0:
164,214,99908,2,0,P|146:248|133:285,1,78,2|8,3:2|0:0,0:0:0:0:
238,87,100129,5,8,0:0:0:0:
278,283,100239,1,8,0:0:0:0:
348,161,100349,1,0,3:0:0:0:
156,207,100459,1,0,3:0:0:0:
251,186,100570,5,4,3:2:0:0:
251,186,101231,5,2,0:0:0:0:
327,341,101452,2,0,P|271:343|215:300,1,108,2|0,0:0|0:0,0:0:0:0:
132,338,101783,2,0,P|149:262|180:228,1,108,2|0,0:0|0:0,0:0:0:0:
251,186,102114,2,0,L|244:260,1,54.0000000000001,2|0,3:2|0:0,0:0:0:0:
261,49,102334,5,6,3:2:0:0:
261,49,102996,1,0,3:0:0:0:
375,112,103217,5,10,0:0:0:0:
280,200,103327,2,0,L|346:197,1,54.0000000000001,8|0,0:0|3:0,0:0:0:0:
420,277,103548,5,0,3:0:0:0:
315,297,103658,1,2,3:2:0:0:
438,274,103768,1,0,3:0:0:0:
304,301,103879,2,0,L|251:295,1,54.0000000000001,0|0,3:0|3:0,0:0:0:0:
87,224,104099,6,0,P|83:195|89:152,2,60.0000000000001,6|0|8,3:2|0:0|0:0,0:0:0:0:
168,284,104430,6,0,P|170:311|165:357,2,72,8|8|8,0:0|0:0|0:0,0:0:0:0:
256,198,104761,6,0,P|230:120|252:21,1,167.999994873047,8|8,0:0|0:0,0:0:0:0:
386,105,105092,5,8,0:0:0:0:
314,145,105202,2,0,P|304:104|315:64,1,83.9999974365235,8|8,0:0|0:0,0:0:0:0:
512,62,105423,5,8,0:0:0:0:
368,192,105533,1,8,0:0:0:0:
419,0,105643,1,8,0:0:0:0:
487,190,105754,1,8,0:0:0:0:
327,65,105864,1,4,3:2:0:0:
327,65,106084,6,0,P|345:139|321:222,1,143.999995605469,0|0,3:0|0:0,0:0:0:0:
352,309,106415,6,0,B|299:277|299:277|230:292,1,120,0|0,3:0|0:0,0:0:0:0:
214,188,106746,6,0,B|173:205|173:205|148:254,1,96,0|0,3:0|0:0,0:0:0:0:
62,257,107077,6,0,B|56:289|56:289|69:316,1,59.9999981689454,0|0,3:0|0:0,0:0:0:0:
176,384,107334,5,2,0:0:0:0:
178,372,107408,1,2,3:0:0:0:
177,360,107481,1,2,0:0:0:0:
174,349,107555,1,2,0:0:0:0:
165,339,107629,6,0,L|337:354,1,144,6|4,3:1|1:3,0:0:0:0:
390,304,107959,1,0,0:0:0:0:
346,226,108070,2,0,P|300:288|313:361,1,144,8|4,0:0|1:3,0:0:0:0:
412,308,108401,1,0,0:0:0:0:
346,226,108511,2,0,P|316:219|274:222,1,72,0|0,3:0|0:0,0:0:0:0:
132,257,108731,2,0,P|167:212|176:177,1,72,4|0,1:3|0:0,0:0:0:0:
327,119,108952,6,0,B|193:166|250:74|118:115,1,216,10|0,0:0|0:0,0:0:0:0:
120,114,109393,6,0,P|63:166|76:260,1,144,2|4,3:2|1:3,0:0:0:0:
185,311,109724,1,0,0:0:0:0:
158,207,109834,1,10,0:0:0:0:
158,207,110055,2,0,L|229:216,1,71.9999999999999,4|0,1:3|0:0,0:0:0:0:
373,248,110276,2,0,L|293:255,1,71.9999999999999,2|0,3:2|0:0,0:0:0:0:
115,275,110496,2,0,L|207:287,1,71.9999999999999,4|0,1:3|0:0,0:0:0:0:
389,326,110717,6,0,B|315:332|315:332|269:379|269:379|180:386,1,216,10|0,0:0|0:0,0:0:0:0:
193,384,111158,6,0,P|178:307|211:233,1,144,2|4,3:2|1:3,0:0:0:0:
290,208,111489,1,0,0:0:0:0:
384,254,111599,2,0,L|390:350,1,71.9999999999999,8|0,0:0|0:0,0:0:0:0:
84,263,111820,2,0,L|105:97,1,144,4|0,1:3|3:0,0:0:0:0:
185,38,112151,1,0,0:0:0:0:
270,95,112261,2,0,L|278:198,1,71.9999999999999,4|0,1:3|0:0,0:0:0:0:
148,332,112481,6,0,P|214:249|315:276,1,216,10|0,0:0|0:0,0:0:0:0:
362,338,112923,5,2,3:2:0:0:
421,176,113143,2,0,P|432:128|452:92,2,71.9999978027344,4|0|8,1:3|0:0|0:0,0:0:0:0:
504,215,113474,1,0,0:0:0:0:
352,250,113584,2,0,P|334:216|324:164,1,71.9999978027344,6|0,1:3|0:0,0:0:0:0:
251,100,113805,5,2,3:2:0:0:
230,89,113915,2,0,B|143:72|143:72|112:91|99:127,1,144,0|8,0:0|0:0,0:0:0:0:
183,200,114246,1,8,0:0:0:0:
100,132,114356,1,8,0:0:0:0:
71,237,114467,2,0,L|85:313,1,71.9999999999999,0|0,3:0|3:0,0:0:0:0:
189,375,114687,6,0,P|259:359|312:278,1,144,6|4,3:2|1:3,0:0:0:0:
250,155,115018,1,2,0:0:0:0:
184,224,115129,2,0,P|191:258|223:302,1,71.9999999999999,8|0,0:0|0:0,0:0:0:0:
366,227,115349,2,0,P|358:192|326:148,1,71.9999999999999,6|0,1:3|0:0,0:0:0:0:
197,80,115570,2,0,L|183:224,1,144,2|4,3:2|1:3,0:0:0:0:
109,287,115901,1,0,0:0:0:0:
236,343,116011,6,0,B|306:323|336:263|336:263|364:296|405:311,1,216,10|0,0:0|0:0,0:0:0:0:
483,369,116452,6,0,B|534:197|420:262|473:75,2,288,2|8|0,3:2|0:0|3:0,0:0:0:0:
310,267,117665,1,0,0:0:0:0:
293,254,117776,2,0,P|207:245|158:313,1,144,8|6,0:0|1:3,0:0:0:0:
116,353,118106,1,2,0:0:0:0:
46,307,118217,6,0,P|27:227|41:143,1,144,6|2,3:2|0:0,0:0:0:0:
107,111,118548,1,8,0:0:0:0:
119,238,118658,2,0,P|142:210|168:186,1,71.9999999999999,10|0,0:0|0:0,0:0:0:0:
320,159,118879,2,0,B|268:115|268:115|243:285,1,216,6|0,3:2|0:0,0:0:0:0:
313,315,119320,2,0,L|325:241,1,71.9999999999999,2|0,3:2|0:0,0:0:0:0:
477,226,119540,2,0,L|456:158,1,71.9999978027344,10|0,0:0|0:0,0:0:0:0:
363,27,119761,6,0,B|281:-6|192:33|192:33|249:67|239:95,1,216,6|0,3:2|0:0,0:0:0:0:
285,113,120202,6,0,L|381:105,1,71.9999999999999,0|0,3:0|0:0,0:0:0:0:
401,192,120423,1,12,0:0:0:0:
258,202,120533,2,0,L|418:191,1,144,0|8,0:0|0:0,0:0:0:0:
401,305,120864,2,0,B|346:298|346:298|315:313|315:313|235:305,1,144,0|0,3:0|3:0,0:0:0:0:
148,237,121195,5,8,0:0:0:0:
101,255,121305,1,8,0:0:0:0:
81,301,121415,1,8,0:0:0:0:
98,348,121526,1,0,3:0:0:0:
171,360,121636,5,0,3:0:0:0:
179,350,121746,2,0,L|156:172,1,144,6|0,3:1|0:0,0:0:0:0:
174,179,122187,1,2,0:0:0:0:
93,133,122408,2,0,P|53:139|4:168,1,96,2|0,0:0|0:0,0:0:0:0:
189,69,122849,1,2,0:0:0:0:
77,226,123070,1,2,0:0:0:0:
321,173,123290,2,0,B|355:187|410:250|410:250|410:221|420:199,1,144,2|0,0:0|0:0,0:0:0:0:
400,200,123731,5,2,0:0:0:0:
338,105,123969,1,2,0:0:0:0:
331,0,124192,1,2,0:0:0:0:
468,108,124426,5,2,0:0:0:0:
327,92,124619,1,2,0:0:0:0:
230,210,124884,1,2,0:0:0:0:
281,354,125101,1,2,0:0:0:0:
414,364,125318,6,0,P|436:356|452:357,2,24,6|0|0,0:0|0:0|0:0,0:0:0:0:
256,192,125644,12,0,128797,0:0:0:0:
