osu file format v14

[General]
AudioFilename: audio.mp3
AudioLeadIn: 0
PreviewTime: 75864
Countdown: 0
SampleSet: Soft
StackLeniency: 0.4
Mode: 0
LetterboxInBreaks: 0
WidescreenStoryboard: 1

[Editor]
Bookmarks: 73658
DistanceSpacing: 0.6
BeatDivisor: 4
GridSize: 32
TimelineZoom: 1.5

[Metadata]
Title:Yume ni Kakeru Rainbow
TitleUnicode:夢にかけるRainbow
Artist:765 MILLION ALLSTARS
ArtistUnicode:765 MILLION ALLSTARS
Creator:TsumugiP
Version:Gears' Insane
Source:アイドルマスター ミリオンライブ!
Tags:japanese video game w_m gears _Meep_ Mrgglock Usaha Hanasaka Yui Nana Abe takekii Mocaotic The Rainbow for Dreams 5th Anniversary シアターデイズ ミリシタ idolmaster idol idolm@ster million live! theater days the@ter mltd pop imas im@s jpop j-pop idols アイマス ミリマス anime 765PRO 765プロ 765
BeatmapID:3929511
BeatmapSetID:1799740

[Difficulty]
HPDrainRate:5
CircleSize:3.8
OverallDifficulty:8
ApproachRate:9
SliderMultiplier:2.6
SliderTickRate:1

[Events]
//Background and Video events
Video,-500,"video.mp4"
0,0,"anniversary.jpg",0,0
//Break Periods
2,54887,61146
//Storyboard Layer 0 (Background)
//Storyboard Layer 1 (Fail)
//Storyboard Layer 2 (Pass)
//Storyboard Layer 3 (Foreground)
//Storyboard Layer 4 (Overlay)
//Storyboard Sound Samples

[TimingPoints]
-18,441.176470588235,4,2,1,15,1,0
1746,-100,4,2,1,17,0,0
2187,-100,4,2,1,19,0,0
2629,-100,4,2,1,21,0,0
3070,-100,4,2,1,23,0,0
3511,-100,4,2,1,25,0,0
3952,-100,4,2,1,27,0,0
4393,-100,4,2,1,29,0,0
5276,-100,4,2,1,31,0,0
10129,-333.333333333333,4,2,1,70,0,0
10570,-100,4,2,1,65,0,0
21158,-90.9090909090909,4,2,1,65,0,0
22702,-100,4,2,1,65,0,0
24798,-100,4,2,1,30,0,0
26452,-133.333333333333,4,2,1,40,0,0
26782,-133.333333333333,4,2,1,5,0,0
26893,-133.333333333333,4,2,1,40,0,0
28547,-133.333333333333,4,2,1,5,0,0
28658,-133.333333333333,4,2,1,40,0,0
29870,-133.333333333333,4,2,1,5,0,0
29981,-133.333333333333,4,2,1,40,0,0
31966,-133.333333333333,4,2,1,5,0,0
32077,-133.333333333333,4,2,1,40,0,0
32297,-133.333333333333,4,2,1,5,0,0
32408,-133.333333333333,4,2,1,40,0,0
33841,-133.333333333333,4,2,1,5,0,0
33952,-133.333333333333,4,2,1,40,0,0
35606,-133.333333333333,4,2,1,5,0,0
35717,-133.333333333333,4,2,1,40,0,0
36929,-133.333333333333,4,2,1,5,0,0
37040,-133.333333333333,4,2,1,40,0,0
38474,-133.333333333333,4,2,1,48,0,0
38584,-200,4,2,1,60,0,0
38695,-200,4,2,1,35,0,0
39798,-133.333333333333,4,2,1,35,0,0
40353,-133.333333333333,4,2,0,35,0,0
40570,-100,4,2,1,65,0,0
46746,-86.9565217391304,4,2,1,65,0,0
47629,-100,4,2,1,65,0,0
54687,-100,4,2,1,35,0,0
56893,-100,4,2,1,15,0,0
57334,-100,4,2,1,35,0,0
61746,-133.333333333333,4,2,1,35,0,0
62629,-133.333333333333,4,2,1,45,0,0
63511,-133.333333333333,4,2,1,57,0,0
64393,-133.333333333333,4,2,1,70,0,0
65276,-133.333333333333,4,2,1,35,0,0
68364,-133.333333333333,4,2,1,85,0,0
68694,-133.333333333333,4,2,1,5,0,0
68805,-100,4,2,1,60,0,0
69025,-100,4,2,1,45,0,0
69466,-100,4,2,1,49,0,0
69907,-100,4,2,1,54,0,0
70349,-100,4,2,1,59,0,0
70790,-100,4,2,1,64,0,0
71231,-100,4,2,1,70,0,0
71672,-100,4,2,1,78,0,0
71893,-100,4,2,1,80,0,0
72003,-100,4,2,1,81,0,0
72114,-100,4,2,1,83,0,0
72224,-100,4,2,1,85,0,0
72334,-117.647058823529,4,2,1,90,0,0
72554,-117.647058823529,4,2,1,5,0,0
72665,-117.647058823529,4,2,1,90,0,0
73217,-100,4,2,1,90,0,0
74209,-100,4,2,1,50,0,0
74540,-200,4,2,1,50,0,0
75753,-200,4,2,1,5,0,0
75864,-200,4,2,1,80,0,1
76305,-80,4,2,1,80,0,1
89981,-100,4,2,1,80,0,0
100570,-100,4,2,1,90,0,0
100680,-100,4,2,1,70,0,0
101231,-133.333333333333,4,2,1,70,0,0
102334,-133.333333333333,4,2,1,90,0,0
102445,-133.333333333333,4,2,1,70,0,0
103217,-133.333333333333,4,2,1,80,0,0
103437,-133.333333333333,4,2,1,66,0,0
103658,-133.333333333333,4,2,1,55,0,0
103878,-133.333333333333,4,2,1,47,0,0
104099,-111.111111111111,4,2,1,77,0,0
104320,-111.111111111111,4,2,1,38,0,0
104540,-111.111111111111,4,2,1,41,0,0
104761,-111.111111111111,4,2,1,44,0,0
104981,-111.111111111111,4,2,1,48,0,0
105202,-111.111111111111,4,2,1,54,0,0
105423,-111.111111111111,4,2,1,70,0,0
105643,-111.111111111111,4,2,1,93,0,0
105864,-111.111111111111,4,2,1,80,0,0
106084,-111.111111111111,4,2,1,70,0,0
106746,-111.111111111111,4,2,1,55,0,0
107077,-111.111111111111,4,2,1,45,0,0
107408,-111.111111111111,4,2,1,35,0,0
107629,-100,4,2,1,65,0,0
118217,-90.9090909090909,4,2,1,65,0,0
120423,-100,4,2,1,65,0,0
121746,-100,4,2,1,45,0,0
121856,-100,4,2,1,35,0,0
122629,-100,4,2,1,25,0,0
123511,-100,4,2,1,15,0,0
123731,476.190476190476,4,2,1,15,1,0
123969,444.444444444444,4,2,1,15,1,0
124192,468.75,4,2,1,15,1,0
124426,618.556701030927,4,2,1,10,1,0
124619,530.973451327433,4,2,1,15,1,0
124884,869.565217391304,4,2,1,15,1,0
125318,-100,4,2,1,17,0,0
126623,-100,4,2,1,22,0,0
127057,-100,4,2,1,28,0,0
127492,-100,4,2,1,22,0,0
127927,-100,4,2,1,17,0,0
128362,-100,4,2,1,12,0,0
128797,-100,4,2,1,8,0,0
129231,-100,4,2,1,5,0,0

[Colours]
Combo1 : 136,255,187
Combo2 : 253,174,255
Combo3 : 201,191,255
Combo4 : 147,201,255
Combo5 : 157,240,244

[HitObjects]
72,166,10129,6,0,L|60:238,1,58.5000000000001,14|2,0:0|0:0,0:0:0:0:
11,290,10570,2,0,P|71:307|131:271,1,130,6|4,3:1|1:3,0:0:0:0:
275,276,11011,2,0,L|193:261,1,65,8|0,0:0|0:0,0:0:0:0:
152,198,11231,2,0,L|234:183,1,65,4|0,1:3|0:0,0:0:0:0:
273,123,11452,2,0,L|336:134,1,65,0|0,3:0|0:0,0:0:0:0:
403,205,11673,5,4,1:3:0:0:
403,205,11783,1,0,0:0:0:0:
403,205,11893,2,0,P|433:145|410:72,1,130,10|4,0:0|1:3,0:0:0:0:
290,3,12224,1,0,0:0:0:0:
290,3,12334,2,0,P|260:63|283:136,1,130,2|4,3:2|1:3,0:0:0:0:
403,205,12776,6,0,L|395:271,1,65,10|0,0:0|0:0,0:0:0:0:
319,315,12996,2,0,L|311:250,1,65,4|0,1:3|0:0,0:0:0:0:
227,204,13217,2,0,L|219:268,1,65,2|0,3:2|0:0,0:0:0:0:
129,333,13437,5,4,1:3:0:0:
121,348,13548,1,0,0:0:0:0:
114,363,13658,2,0,L|259:345,1,130,10|4,0:0|1:3,0:0:0:0:
441,316,13989,1,0,0:0:0:0:
448,331,14099,2,0,L|303:313,1,130,2|4,3:2|1:3,0:0:0:0:
133,244,14540,6,0,P|125:212|131:180,1,65,8|0,0:0|0:0,0:0:0:0:
225,110,14761,2,0,L|158:104,1,65,4|0,1:3|0:0,0:0:0:0:
55,114,14981,1,0,3:0:0:0:
180,7,15202,1,4,1:3:0:0:
180,7,15312,1,0,0:0:0:0:
180,7,15423,2,0,B|269:15|269:15|299:41,1,130,10|4,0:0|1:3,0:0:0:0:
354,165,15864,5,2,3:2:0:0:
413,12,16084,1,4,1:3:0:0:
382,4,16195,1,0,0:0:0:0:
350,5,16305,1,8,0:0:0:0:
321,18,16415,1,0,0:0:0:0:
299,41,16526,2,0,L|292:117,1,65,6|0,1:3|0:0,0:0:0:0:
192,183,16746,2,0,B|205:181|222:160|222:160|253:199|303:194,1,130,2|8,3:2|0:0,0:0:0:0:
435,304,17187,1,8,0:0:0:0:
413,288,17298,1,8,0:0:0:0:
398,266,17408,2,0,P|389:235|398:181,1,65,0|0,3:0|3:0,0:0:0:0:
496,130,17629,6,0,B|426:144|439:101|363:116,1,130,6|4,3:2|1:3,0:0:0:0:
302,194,17959,1,2,0:0:0:0:
302,194,18070,2,0,L|308:286,1,65,8|0,0:0|0:0,0:0:0:0:
222,284,18290,2,0,L|226:348,1,65,6|0,1:3|0:0,0:0:0:0:
144,237,18511,2,0,P|117:182|135:96,1,130,2|4,3:2|1:3,0:0:0:0:
20,318,18952,2,0,B|53:317|77:294|77:294|103:325|153:325,1,130,10|4,0:0|1:3,0:0:0:0:
25,224,19283,5,0,0:0:0:0:
25,224,19393,2,0,P|83:208|155:252,1,130,2|4,3:2|1:3,0:0:0:0:
191,74,19834,1,8,0:0:0:0:
191,74,19945,1,0,0:0:0:0:
191,74,20055,2,0,P|198:108|197:153,1,65,4|0,1:3|0:0,0:0:0:0:
287,193,20276,2,0,P|287:160|294:128,1,65,0|0,3:0|0:0,0:0:0:0:
357,47,20496,2,0,L|446:63,1,65,4|0,1:3|0:0,0:0:0:0:
512,93,20717,1,8,0:0:0:0:
442,265,20937,5,6,1:3:0:0:
442,265,21048,1,2,0:0:0:0:
442,265,21158,2,0,L|515:252,1,71.5,6|0,3:2|0:0,0:0:0:0:
355,379,21379,2,0,L|282:366,1,71.5,2|8,0:0|0:0,0:0:0:0:
297,183,21599,2,0,P|313:216|314:253,1,71.5,10|0,0:0|0:0,0:0:0:0:
154,378,21820,2,0,B|90:325|136:232|136:232|185:296,1,214.5,6|0,3:2|0:0,0:0:0:0:
69,315,22261,2,0,L|0:300,1,71.5,2|0,3:2|0:0,0:0:0:0:
140,200,22481,2,0,L|70:214,1,71.5,10|0,0:0|0:0,0:0:0:0:
291,135,22702,6,0,B|268:104|264:65|264:65|233:215,1,195,6|0,3:2|0:0,0:0:0:0:
269,271,23143,1,0,3:0:0:0:
146,84,23364,2,0,P|202:54|283:78,1,130,12|0,0:0|0:0,0:0:0:0:
386,140,23695,1,8,0:0:0:0:
374,155,23805,2,0,L|365:71,1,65,0|0,3:0|0:0,0:0:0:0:
494,188,24026,2,0,L|485:272,1,65,0|8,3:0|0:0,0:0:0:0:
416,375,24246,5,8,0:0:0:0:
355,330,24356,1,8,0:0:0:0:
378,260,24467,1,0,3:0:0:0:
452,261,24577,1,0,3:0:0:0:
474,330,24687,5,6,3:1:0:0:
487,349,26452,6,0,L|330:331,1,146.25,4|0,3:2|0:0,0:0:0:0:
263,371,26893,2,0,L|223:280,1,97.5000000000002,2|0,3:2|0:0,0:0:0:0:
133,231,27334,2,0,L|191:151,1,97.5000000000002,0|2,3:0|0:0,0:0:0:0:
189,48,27776,2,0,L|287:59,1,97.5000000000002,0|0,3:0|0:0,0:0:0:0:
334,255,28217,6,0,P|340:193|265:146,1,146.25,0|0,3:0|0:0,0:0:0:0:
190,152,28658,2,0,L|92:163,1,97.5000000000002,2|0,3:2|0:0,0:0:0:0:
8,245,29099,2,0,L|106:256,1,97.5000000000002,0|2,3:0|0:0,0:0:0:0:
234,333,29540,2,0,L|70:352,1,146.25,8|0,0:0|0:0,0:0:0:0:
12,363,29981,5,0,3:0:0:0:
303,377,30423,2,0,P|313:346|316:312,1,48.7500000000001,2|0,3:2|0:0,0:0:0:0:
272,267,30643,2,0,P|261:236|259:202,1,48.7500000000001,2|0,0:0|0:0,0:0:0:0:
301,155,30864,2,0,P|323:163|347:167,1,48.7500000000001,2|0,3:2|0:0,0:0:0:0:
394,233,31084,2,0,P|417:228|440:220,1,48.7500000000001,2|0,0:0|0:0,0:0:0:0:
511,169,31305,1,2,3:2:0:0:
438,119,31526,1,2,0:0:0:0:
491,39,31746,6,0,P|439:42|388:19,1,97.5000000000002,2|0,3:2|0:0,0:0:0:0:
329,0,32077,2,0,P|345:45|342:93,1,97.5000000000002,2|0,0:0|0:0,0:0:0:0:
301,155,32408,2,0,B|170:133|170:133|226:185,1,195,2|0,0:0|0:0,0:0:0:0:
257,57,33070,1,8,0:0:0:0:
26,21,33511,6,0,P|1:97|29:176,1,146.25,4|0,3:2|0:0,0:0:0:0:
129,155,33952,2,0,P|144:202|130:262,1,97.5000000000002,2|0,3:2|0:0,0:0:0:0:
58,364,34393,2,0,P|42:316|57:257,1,97.5000000000002,0|2,3:0|0:0,0:0:0:0:
224,260,34834,2,0,P|239:307|225:367,1,97.5000000000002,0|0,3:0|0:0,0:0:0:0:
129,155,35276,2,0,B|188:158|225:119|225:119|263:160,1,146.25,0|0,3:0|0:0,0:0:0:0:
319,202,35717,2,0,P|338:153|325:103,1,97.5000000000002,2|0,3:2|0:0,0:0:0:0:
236,28,36158,2,0,P|216:76|229:126,1,97.5000000000002,0|2,3:0|0:0,0:0:0:0:
458,96,36599,2,0,P|382:76|317:133,1,146.25,8|0,0:0|0:0,0:0:0:0:
319,202,37040,5,0,3:0:0:0:
467,233,37261,2,0,L|461:180,1,48.7500000000001,2|0,0:0|0:0,0:0:0:0:
384,263,37481,2,0,L|378:311,1,48.7500000000001,2|0,3:2|0:0,0:0:0:0:
436,384,37702,2,0,P|406:353|341:348,1,97.5000000000002,2|0,0:0|3:0,0:0:0:0:
200,371,38143,2,0,L|194:322,1,48.7500000000001,2|0,0:0|0:0,0:0:0:0:
251,236,38364,5,2,3:2:0:0:
251,236,38474,1,8,0:0:0:0:
251,236,38584,2,0,B|271:214|303:210|303:210|237:154|180:182|215:196|162:220|104:200,1,260,14|0,0:0|3:0,0:0:0:0:
19,93,39687,1,8,0:0:0:0:
12,80,39798,2,0,L|72:86,1,48.7500000000001,8|0,0:0|0:0,0:0:0:0:
144,125,40018,1,8,0:3:0:0:
113,0,40239,1,8,0:3:0:0:
146,3,40349,1,4,0:3:0:0:
179,7,40459,1,4,3:3:0:0:
224,11,40570,6,0,L|241:142,1,130,4|0,3:2|0:0,0:0:0:0:
393,136,41011,1,10,0:0:0:0:
393,136,41121,2,0,P|355:137|324:129,1,65,2|0,0:0|0:0,0:0:0:0:
409,33,41342,2,0,P|440:26|473:27,1,65,2|0,3:2|0:0,0:0:0:0:
503,198,41562,1,2,0:0:0:0:
512,182,41673,2,0,P|479:180|447:187,1,65,2|0,3:2|0:0,0:0:0:0:
311,267,41893,2,0,P|376:258|450:283,1,130,8|0,0:0|3:0,0:0:0:0:
220,282,42334,6,0,B|197:240|197:240|207:138,1,130,0|0,3:0|3:0,0:0:0:0:
81,38,42776,1,10,0:0:0:0:
81,38,42886,2,0,L|88:108,1,65,2|0,0:0|0:0,0:0:0:0:
185,0,43106,2,0,L|178:64,1,65,2|0,3:2|0:0,0:0:0:0:
257,179,43327,1,2,0:0:0:0:
269,164,43437,2,0,L|204:157,1,65,6|0,3:2|0:0,0:0:0:0:
90,268,43658,2,0,L|247:284,1,130,8|0,0:0|3:0,0:0:0:0:
400,318,44099,6,0,B|375:341|375:341|349:299|367:246,1,130,0|0,3:0|0:0,0:0:0:0:
472,190,44540,2,0,P|484:220|485:261,1,65,10|0,0:0|0:0,0:0:0:0:
370,165,44761,1,2,0:0:0:0:
370,165,44871,1,0,3:0:0:0:
370,165,44981,2,0,P|372:132|384:102,1,65,2|0,0:0|0:0,0:0:0:0:
503,50,45202,2,0,P|470:47|440:35,1,65,2|0,3:2|0:0,0:0:0:0:
293,34,45423,2,0,L|366:17,1,65,10|0,0:0|0:0,0:0:0:0:
218,136,45643,2,0,L|291:119,1,65,2|0,3:2|0:0,0:0:0:0:
366,248,45864,6,0,B|322:258|322:258|286:248|286:248|239:259,1,130,2|0,3:2|0:0,0:0:0:0:
198,341,46195,2,0,P|226:284|199:228,1,130,2|0,3:2|0:0,0:0:0:0:
168,210,46526,1,2,3:2:0:0:
48,28,46746,6,0,B|135:11|120:73|200:54,1,149.5,2|0,0:0|3:0,0:0:0:0:
339,0,47077,2,0,L|329:80,1,74.75,2|8,0:0|0:0,0:0:0:0:
268,205,47298,1,8,0:0:0:0:
327,194,47408,1,10,0:0:0:0:
386,185,47518,1,0,3:0:0:0:
437,177,47629,6,0,L|421:323,1,130,4|0,3:2|0:0,0:0:0:0:
478,76,48070,1,10,0:0:0:0:
335,107,48290,1,0,0:0:0:0:
335,107,48401,2,0,P|325:75|325:28,1,65,2|0,3:2|0:0,0:0:0:0:
278,222,48621,1,2,0:0:0:0:
268,205,48731,2,0,P|236:195|189:195,1,65,2|0,3:2|0:0,0:0:0:0:
174,335,48952,2,0,P|198:313|216:286,1,65,8|0,0:0|0:0,0:0:0:0:
109,192,49173,2,0,P|115:223|130:252,1,65,0|0,3:0|0:0,0:0:0:0:
296,332,49393,6,0,P|355:302|429:318,1,130,0|0,3:0|3:0,0:0:0:0:
471,147,49834,1,10,0:0:0:0:
471,147,49945,2,0,L|461:70,1,65,2|0,0:0|0:0,0:0:0:0:
382,16,50165,2,0,L|317:24,1,65,2|0,3:2|0:0,0:0:0:0:
217,144,50386,1,2,0:0:0:0:
234,154,50496,2,0,L|242:89,1,65,2|0,3:2|0:0,0:0:0:0:
112,32,50717,2,0,P|141:21|176:22,1,65,8|0,0:0|0:0,0:0:0:0:
73,133,50937,2,0,P|43:143|8:142,1,65,0|0,3:0|0:0,0:0:0:0:
161,206,51158,5,0,3:0:0:0:
151,182,51379,2,0,P|137:211|138:256,1,65,2|0,0:0|0:0,0:0:0:0:
308,384,51599,2,0,P|322:355|321:310,1,65,10|0,0:0|0:0,0:0:0:0:
137,328,51820,2,0,B|178:325|202:296|202:296|228:306|242:338,1,130,2|0,0:0|0:0,0:0:0:0:
432,292,52261,2,0,L|511:309,1,65,2|0,3:2|0:0,0:0:0:0:
328,216,52481,2,0,L|249:233,1,65,10|0,0:0|0:0,0:0:0:0:
393,122,52702,2,0,L|472:139,1,65,2|0,3:2|0:0,0:0:0:0:
323,322,52923,6,0,B|261:348|212:294|212:294|158:235|70:274,1,260,6|8,3:2|0:0,0:0:0:0:
12,89,53805,1,10,0:0:0:0:
54,105,53915,1,8,0:0:0:0:
99,100,54026,1,8,0:0:0:0:
137,76,54136,1,0,3:0:0:0:
121,55,54246,1,10,0:0:0:0:
97,45,54356,1,8,0:0:0:0:
70,42,54467,1,0,3:0:0:0:
133,346,54687,5,2,0:0:0:0:
52,326,61746,6,0,P|99:308|149:312,1,97.5000000000002,2|0,3:2|0:0,0:0:0:0:
255,364,62077,1,2,3:2:0:0:
241,378,62187,2,0,L|231:313,1,48.7500000000001,0|0,3:0|0:0,0:0:0:0:
292,215,62408,2,0,L|282:280,1,48.7500000000001,2|0,3:2|0:0,0:0:0:0:
471,210,62629,6,0,P|425:192|377:195,1,97.5000000000002,0|0,3:0|0:0,0:0:0:0:
261,248,62959,1,0,3:0:0:0:
275,262,63070,2,0,L|285:197,1,48.7500000000001,2|0,3:2|0:0,0:0:0:0:
224,99,63290,2,0,L|234:164,1,48.7500000000001,2|0,3:2|0:0,0:0:0:0:
46,93,63511,6,0,P|91:75|139:78,1,97.5000000000002,0|0,3:0|0:0,0:0:0:0:
253,149,63842,1,0,3:0:0:0:
239,163,63952,2,0,L|229:98,1,48.7500000000001,0|0,3:0|0:0,0:0:0:0:
290,0,64173,2,0,L|280:65,1,48.7500000000001,0|0,3:0|0:0,0:0:0:0:
377,194,64393,5,0,3:0:0:0:
389,179,64504,2,0,P|366:167|329:167,1,48.7500000000001,0|0,3:0|0:0,0:0:0:0:
135,186,64724,1,0,3:0:0:0:
148,232,64834,1,2,3:2:0:0:
184,265,64945,1,8,0:0:0:0:
231,273,65055,1,8,0:0:0:0:
385,65,65276,5,6,0:1:0:0:
75,237,68364,2,0,P|72:314|0:349,1,146.25,10|0,0:0|0:0,0:0:0:0:
19,348,68805,6,0,L|152:334,1,130,14|8,0:0|0:0,0:0:0:0:
399,292,69136,1,8,0:0:0:0:
404,317,69246,2,0,L|271:303,1,130,8|8,0:0|0:0,0:0:0:0:
80,212,69577,1,8,0:0:0:0:
75,237,69687,2,0,L|208:223,1,130,8|8,0:0|0:0,0:0:0:0:
284,157,70018,1,8,0:0:0:0:
289,182,70129,1,10,0:0:0:0:
503,37,70349,5,8,0:0:0:0:
498,62,70459,1,8,0:0:0:0:
491,87,70570,2,0,P|431:51|349:74,1,130,10|8,0:0|0:0,0:0:0:0:
189,238,70901,1,8,0:0:0:0:
171,210,71011,2,0,P|231:174|313:197,1,130,8|8,0:0|0:0,0:0:0:0:
457,367,71342,1,8,0:0:0:0:
475,339,71452,2,0,P|415:303|333:326,1,130,8|8,0:0|0:0,0:0:0:0:
197,358,71783,1,8,0:0:0:0:
228,381,71893,2,0,P|242:346|241:295,1,65,10|8,0:0|0:0,0:0:0:0:
171,103,72114,5,8,0:0:0:0:
119,106,72224,1,8,0:0:0:0:
75,110,72334,2,0,P|54:158|59:226,1,110.5,14|0,0:0|0:0,0:0:0:0:
83,296,72665,1,2,0:0:0:0:
452,211,72996,2,0,P|465:241|490:267,1,55.2500000000002,2|0,3:2|0:0,0:0:0:0:
352,330,73217,2,0,P|367:301|396:275,1,65,10|0,0:2|0:0,0:0:0:0:
309,137,73437,2,0,P|329:162|361:182,1,65,8|2,0:2|0:0,0:0:0:0:
220,299,73658,2,0,P|244:277|279:263,1,65,8|0,0:2|0:0,0:0:0:0:
171,103,73879,2,0,P|198:120|236:127,1,65,10|0,0:2|0:0,0:0:0:0:
83,296,74099,5,10,3:2:0:0:
83,296,74540,2,0,L|17:307,1,65,2|0,0:0|0:0,0:0:0:0:
79,211,74981,2,0,L|145:222,1,65,2|0,0:0|0:0,0:0:0:0:
234,117,75423,2,0,L|122:135,1,97.5,2|0,3:2|0:0,0:0:0:0:
131,136,75864,5,6,3:2:0:0:
289,48,76084,1,4,1:3:0:0:
289,48,76195,1,2,0:0:0:0:
289,48,76305,2,0,P|312:78|321:134,1,81.25,8|0,0:0|0:0,0:0:0:0:
214,239,76526,2,0,B|257:232|275:194|275:194|307:219|358:203,1,162.5,6|0,1:3|3:0,0:0:0:0:
408,311,76967,2,0,P|323:341|301:288,1,162.5,6|8,1:3|0:0,0:0:0:0:
354,204,77298,1,0,0:0:0:0:
354,204,77408,2,0,L|452:184,1,81.25,6|0,1:3|0:0,0:0:0:0:
512,90,77629,6,0,P|444:50|354:64,1,162.5,2|4,3:2|1:3,0:0:0:0:
280,120,77959,2,0,L|182:99,1,81.25,2|8,0:0|0:0,0:0:0:0:
140,276,78290,1,6,1:3:0:0:
140,276,78401,1,0,0:0:0:0:
140,276,78511,2,0,P|162:242|164:185,1,81.25,0|0,3:0|0:0,0:0:0:0:
63,97,78731,2,0,P|41:130|35:170,1,81.25,4|0,1:3|0:0,0:0:0:0:
27,303,78952,1,8,0:0:0:0:
293,298,79173,5,6,1:3:0:0:
293,298,79283,1,2,0:0:0:0:
293,298,79393,2,0,B|234:216|139:275|139:275|182:279|212:310,1,243.75,2|0,3:2|0:0,0:0:0:0:
252,384,79834,1,8,0:0:0:0:
58,195,80055,1,6,1:3:0:0:
58,195,80165,1,2,0:0:0:0:
58,195,80276,2,0,P|131:158|229:146,1,162.5,2|4,3:2|1:3,0:0:0:0:
338,99,80606,2,0,P|303:84|257:77,1,81.25,2|8,0:0|0:0,0:0:0:0:
264,216,80827,1,0,0:0:0:0:
264,216,80937,2,0,P|304:209|341:194,1,81.25,6|0,1:3|0:0,0:0:0:0:
448,95,81158,6,0,B|416:141|416:141|433:272,1,162.5,2|4,3:2|1:3,0:0:0:0:
367,362,81599,1,8,0:0:0:0:
254,296,81820,2,0,L|263:215,1,81.25,4|0,1:3|0:0,0:0:0:0:
338,99,82040,1,0,3:0:0:0:
325,77,82151,1,8,0:0:0:0:
312,56,82261,2,0,L|302:136,1,81.25,4|8,1:3|0:0,0:0:0:0:
127,108,82481,2,0,P|165:94|205:96,1,81.25,8|8,0:0|0:0,0:0:0:0:
254,296,82702,5,10,0:0:0:0:
241,316,82812,1,2,3:2:0:0:
219,327,82923,2,0,B|178:325|156:289|156:289|111:300|99:349,1,162.5,6|4,3:2|1:3,0:0:0:0:
8,206,83254,1,2,0:0:0:0:
8,206,83364,2,0,P|45:242|54:279,1,81.25,8|0,0:0|0:0,0:0:0:0:
162,136,83584,2,0,P|131:177|129:215,1,81.25,6|0,1:3|0:0,0:0:0:0:
14,59,83805,2,0,B|63:57|90:87|90:87|117:50|183:48,1,162.5,2|4,3:2|1:3,0:0:0:0:
242,144,84246,2,0,L|130:132,1,81.25,8|0,0:0|0:0,0:0:0:0:
321,47,84467,2,0,L|209:59,1,81.25,6|0,1:3|0:0,0:0:0:0:
397,136,84687,6,0,P|430:211|397:288,1,162.5,2|4,3:2|1:3,0:0:0:0:
285,239,85018,1,2,0:0:0:0:
285,239,85129,2,0,P|306:272|314:321,1,81.25,8|0,0:0|0:0,0:0:0:0:
399,379,85349,2,0,P|438:371|472:349,1,81.25,6|0,1:3|0:0,0:0:0:0:
512,258,85570,2,0,B|529:144|529:144|514:168|491:192,1,162.5,2|4,3:2|1:3,0:0:0:0:
320,131,86011,2,0,B|336:80|404:75|404:75|455:119,1,162.5,10|4,0:0|1:3,0:0:0:0:
402,282,86452,6,0,B|315:272|315:272|268:303|268:303|155:287,1,243.75,2|0,3:2|0:0,0:0:0:0:
224,138,86893,1,8,0:0:0:0:
224,138,87004,1,0,0:0:0:0:
224,138,87114,2,0,P|242:172|243:221,1,81.25,4|0,1:3|0:0,0:0:0:0:
113,365,87334,2,0,P|74:285|120:209,1,162.5,2|4,3:2|1:3,0:0:0:0:
169,288,87665,2,0,P|89:327|13:281,1,162.5,2|0,0:0|0:0,0:0:0:0:
68,161,87996,2,0,P|88:198|92:249,1,81.25,6|0,1:3|0:0,0:0:0:0:
228,377,88217,6,0,P|272:302|265:198,1,162.5,2|4,3:2|1:3,0:0:0:0:
192,57,88658,2,0,L|181:137,1,81.25,8|0,0:0|0:0,0:0:0:0:
385,220,88879,2,0,L|395:140,1,81.25,6|0,1:3|0:0,0:0:0:0:
198,250,89099,2,0,P|239:247|279:223,1,81.25,2|0,3:2|0:0,0:0:0:0:
330,65,89320,1,8,0:0:0:0:
296,29,89430,1,10,0:0:0:0:
247,31,89540,1,8,0:0:0:0:
213,67,89651,1,8,0:0:0:0:
164,73,89761,1,10,0:0:0:0:
121,49,89871,1,8,0:0:0:0:
111,0,89981,6,0,L|98:137,1,130,6|0,3:2|0:0,0:0:0:0:
11,178,90423,2,0,P|2:144|0:112,1,65,10|0,0:0|0:0,0:0:0:0:
98,129,90643,2,0,P|109:193|80:251,1,130,2|0,3:2|0:0,0:0:0:0:
108,338,91084,2,0,P|147:333|183:308,1,65,2|0,3:2|0:0,0:0:0:0:
189,235,91305,2,0,P|228:240|264:265,1,65,10|0,0:0|0:0,0:0:0:0:
290,341,91526,6,0,P|372:356|425:319,1,130,2|0,3:2|0:0,0:0:0:0:
453,232,91856,1,2,0:0:0:0:
453,232,91967,2,0,P|371:217|318:254,1,130,2|8,3:2|0:0,0:0:0:0:
192,189,92408,1,0,0:0:0:0:
232,70,92629,1,0,3:0:0:0:
232,70,92739,1,8,0:0:0:0:
232,70,92849,2,0,L|307:102,1,65,8|0,0:0|3:0,0:0:0:0:
374,54,93070,2,0,L|383:134,1,65,12|0,0:0|0:0,0:0:0:0:
332,237,93290,2,0,L|324:172,1,65,2|0,3:2|0:0,0:0:0:0:
512,190,93511,6,0,P|469:230|406:197,1,130,6|0,3:2|0:0,0:0:0:0:
192,189,93952,1,10,0:0:0:0:
304,360,94173,2,0,P|329:304|323:207,1,130,2|0,3:2|0:0,0:0:0:0:
232,70,94614,2,0,L|158:94,1,65,2|0,3:2|0:0,0:0:0:0:
67,75,94834,2,0,L|50:151,1,65,10|0,0:0|0:0,0:0:0:0:
142,302,95055,6,0,B|174:273|174:273|195:171,1,130,2|0,3:2|0:0,0:0:0:0:
0,204,95386,1,2,0:0:0:0:
0,204,95496,2,0,P|45:247|115:210,1,130,2|8,3:2|0:0,0:0:0:0:
132,365,95937,1,0,0:0:0:0:
132,365,96048,1,0,0:0:0:0:
132,365,96158,2,0,P|142:330|140:296,2,65,0|8|0,3:0|0:0|3:0,0:0:0:0:
310,234,96599,1,8,0:0:0:0:
285,224,96709,1,8,0:0:0:0:
259,218,96820,2,0,L|184:231,1,65,0|0,3:0|3:0,0:0:0:0:
239,32,97040,6,0,L|374:56,1,130,4|0,3:2|0:0,0:0:0:0:
432,189,97481,2,0,P|445:160|443:125,1,65,10|0,0:0|0:0,0:0:0:0:
335,244,97702,2,0,P|386:291|464:296,1,130,2|0,3:2|0:0,0:0:0:0:
281,354,98143,2,0,L|199:331,1,65,2|0,3:2|0:0,0:0:0:0:
194,229,98364,2,0,L|131:246,1,65,10|0,0:0|0:0,0:0:0:0:
19,250,98584,6,0,P|-8:191|7:123,1,130,2|0,3:2|0:0,0:0:0:0:
114,206,98915,1,0,0:0:0:0:
114,206,99026,2,0,L|176:188,1,65,2|0,3:2|0:0,0:0:0:0:
252,120,99246,2,0,L|189:102,1,65,8|0,0:0|0:0,0:0:0:0:
96,103,99467,1,2,3:2:0:0:
280,219,99687,5,10,0:0:0:0:
280,219,99798,1,2,0:0:0:0:
280,219,99908,2,0,P|317:215|356:195,1,65,2|8,3:2|0:0,0:0:0:0:
429,129,100129,1,8,0:0:0:0:
434,160,100239,1,8,0:0:0:0:
440,192,100349,1,0,3:0:0:0:
446,224,100459,1,0,3:0:0:0:
452,256,100570,1,4,3:2:0:0:
429,129,101231,6,0,L|378:134,1,48.7500000000001,2|0,0:0|0:0,0:0:0:0:
327,198,101452,2,0,P|300:156|312:86,1,97.5000000000002,2|0,0:0|0:0,0:0:0:0:
365,56,101783,2,0,P|323:29|253:41,1,97.5000000000002,2|0,0:0|0:0,0:0:0:0:
224,87,102114,1,2,3:2:0:0:
327,198,102334,6,0,P|252:248|209:171,1,195,6|0,3:2|0:0,0:0:0:0:
224,87,102996,1,0,3:0:0:0:
138,107,103217,2,0,L|75:97,3,48.7500000000001,10|8|0|0,0:0|0:0|3:0|3:0,0:0:0:0:
50,182,103658,2,0,L|1:189,3,48.7500000000001,2|0|0|0,3:2|3:0|3:0|3:0,0:0:0:0:
120,275,104099,6,0,P|193:224|283:255,1,175.5,6|8,3:2|0:0,0:0:0:0:
422,343,104540,1,8,0:0:0:0:
419,313,104651,1,8,0:0:0:0:
417,283,104761,2,0,L|411:206,1,58.5000000000001,8|8,0:0|0:0,0:0:0:0:
262,372,104981,1,8,0:0:0:0:
265,337,105092,1,8,0:0:0:0:
267,302,105202,2,0,L|273:212,1,58.5000000000001,8|8,0:0|0:0,0:0:0:0:
368,96,105423,5,8,0:0:0:0:
382,152,105533,1,8,0:0:0:0:
332,193,105643,1,8,0:0:0:0:
269,160,105754,1,8,0:0:0:0:
293,88,105864,5,4,3:2:0:0:
185,121,106084,1,0,3:0:0:0:
0,168,106415,1,0,3:0:0:0:
99,5,106746,2,0,L|98:130,1,116.999996429443,0|0,3:0|0:0,0:0:0:0:
0,168,107077,2,0,L|23:345,1,175.499994644165,0|0,3:0|3:0,0:0:0:0:
122,351,107518,5,0,0:0:0:0:
122,351,107629,2,0,L|265:333,1,130,6|4,3:1|1:3,0:0:0:0:
349,294,108070,2,0,P|361:260|357:219,1,65,8|0,0:0|0:0,0:0:0:0:
286,179,108290,2,0,P|274:145|278:104,1,65,4|0,1:3|0:0,0:0:0:0:
370,49,108511,2,0,L|280:35,1,65,0|0,3:0|0:0,0:0:0:0:
146,136,108731,1,4,1:3:0:0:
146,136,108842,1,0,0:0:0:0:
146,136,108952,6,0,L|283:115,1,130,10|4,0:0|1:3,0:0:0:0:
481,143,109283,1,0,0:0:0:0:
488,168,109393,2,0,L|351:147,1,130,2|4,3:2|1:3,0:0:0:0:
349,294,109834,6,0,P|361:260|361:219,1,65,10|0,0:0|0:0,0:0:0:0:
269,324,110055,2,0,P|236:321|206:310,1,65,4|0,1:3|0:0,0:0:0:0:
373,377,110276,2,0,P|405:374|435:363,1,65,2|0,3:2|0:0,0:0:0:0:
275,238,110496,5,4,1:3:0:0:
275,238,110606,1,0,0:0:0:0:
275,238,110717,2,0,P|204:212|136:237,1,130,10|4,0:0|1:3,0:0:0:0:
0,97,111048,1,0,0:0:0:0:
10,134,111158,2,0,P|72:146|131:121,1,130,2|4,3:2|1:3,0:0:0:0:
67,225,111599,6,0,P|74:263|92:288,1,65,8|0,0:0|0:0,0:0:0:0:
184,369,111820,2,0,P|200:341|205:309,1,65,4|0,1:3|0:0,0:0:0:0:
153,225,112040,1,0,3:0:0:0:
349,294,112261,1,4,1:3:0:0:
349,294,112371,1,0,0:0:0:0:
349,294,112481,2,0,L|363:150,1,130,10|4,0:0|1:3,0:0:0:0:
231,15,112923,5,2,3:2:0:0:
156,98,113143,1,4,1:3:0:0:
189,118,113254,1,0,0:0:0:0:
226,126,113364,1,8,0:0:0:0:
264,121,113474,1,0,0:0:0:0:
299,104,113584,2,0,L|293:168,1,65,6|0,1:3|0:0,0:0:0:0:
448,61,113805,2,0,B|442:117|442:117|463:149|452:204,1,130,2|8,3:2|0:0,0:0:0:0:
260,323,114246,1,8,0:0:0:0:
260,323,114356,1,8,0:0:0:0:
260,323,114467,2,0,P|282:302|323:293,1,65,0|0,3:0|3:0,0:0:0:0:
512,263,114687,6,0,P|447:282|381:246,1,130,6|4,3:2|1:3,0:0:0:0:
309,120,115018,1,2,0:0:0:0:
299,104,115129,2,0,L|291:192,1,65,8|0,0:0|0:0,0:0:0:0:
182,255,115349,2,0,L|176:190,1,65,6|0,1:3|0:0,0:0:0:0:
230,35,115570,2,0,P|193:84|105:80,1,130,2|4,3:2|1:3,0:0:0:0:
11,240,116011,2,0,L|148:256,1,130,10|4,0:0|1:3,0:0:0:0:
260,323,116342,5,0,0:0:0:0:
239,356,116452,2,0,P|220:287|240:214,1,130,2|4,3:2|1:3,0:0:0:0:
426,162,116893,1,8,0:0:0:0:
426,162,117004,1,0,0:0:0:0:
426,162,117114,2,0,P|439:192|437:230,1,65,4|0,1:3|0:0,0:0:0:0:
351,334,117334,2,0,P|338:303|340:266,1,65,0|0,3:0|0:0,0:0:0:0:
456,314,117555,1,4,1:3:0:0:
323,178,117776,1,8,0:0:0:0:
444,67,117996,5,6,1:3:0:0:
444,67,118106,1,2,0:0:0:0:
444,67,118217,2,0,L|357:53,1,71.5,6|0,3:2|0:0,0:0:0:0:
150,112,118437,2,0,L|220:100,1,71.5,2|8,0:0|0:0,0:0:0:0:
306,246,118658,2,0,P|319:210|319:151,1,71.5,10|0,0:0|0:0,0:0:0:0:
99,321,118879,2,0,B|174:327|219:275|219:275|233:327|293:341,1,214.5,6|0,3:2|0:0,0:0:0:0:
408,190,119320,2,0,P|378:171|339:163,1,71.5,2|0,3:2|0:0,0:0:0:0:
85,138,119540,2,0,P|119:130|149:111,1,71.5,10|0,0:0|0:0,0:0:0:0:
243,0,119761,6,0,B|224:76|271:68|251:155,1,143,6|0,3:2|0:0,0:0:0:0:
129,227,120202,1,0,3:0:0:0:
219,275,120423,2,0,P|282:241|360:248,1,130,12|0,0:0|0:0,0:0:0:0:
457,334,120754,1,8,0:0:0:0:
437,360,120864,2,0,L|432:293,1,65,0|0,3:0|0:0,0:0:0:0:
403,125,121084,2,0,L|408:192,1,65,0|8,3:0|0:0,0:0:0:0:
285,303,121305,5,8,0:0:0:0:
219,275,121415,1,8,0:0:0:0:
216,203,121526,1,0,3:0:0:0:
269,155,121636,1,0,3:0:0:0:
324,224,121746,5,6,3:1:0:0:
