osu file format v14

[General]
AudioFilename: audio.mp3
AudioLeadIn: 0
PreviewTime: 65132
Countdown: 0
SampleSet: Soft
StackLeniency: 0.7
Mode: 2
LetterboxInBreaks: 0
WidescreenStoryboard: 0

[Editor]
Bookmarks: 68010,126614,171266,213126,257777,325452
DistanceSpacing: 0.5
BeatDivisor: 4
GridSize: 32
TimelineZoom: 2.599999

[Metadata]
Title:UNION!!
TitleUnicode:UNION!!
Artist:765 MILLION ALLSTARS
ArtistUnicode:765 MILLION ALLSTARS
Creator:Spectator
Version:COLLAB MASTER!!
Source:アイドルマスター ミリオンライブ!
Tags:Ascendance AJamez Jemzuu SeiraN- Fu3ya_ Video Game アイマス ミリマス ミリシタ idolmaster 堀江晶太 imas im@s 765pro idolm@ster million live the@ter generation 11 mltd japanese idol
BeatmapID:2511070
BeatmapSetID:1205919

[Difficulty]
HPDrainRate:7
CircleSize:4
OverallDifficulty:9.3
ApproachRate:9.3
SliderMultiplier:1.9
SliderTickRate:2

[Events]
//Background and Video events
0,0,"union.jpg",0,0
//Break Periods
2,62628,63793
2,118442,120479
//Storyboard Layer 0 (Background)
//Storyboard Layer 1 (Fail)
//Storyboard Layer 2 (Pass)
//Storyboard Layer 3 (Foreground)
//Storyboard Layer 4 (Overlay)
//Storyboard Sound Samples

[TimingPoints]
6609,348.837209302326,4,2,1,50,1,0
10446,-100,4,2,1,30,0,0
10795,-100,4,2,1,80,0,0
10801,348.837209302326,4,2,1,80,1,0
10975,-100,4,2,1,80,0,0
12108,-100,4,2,1,80,0,0
12196,-100,4,2,1,80,0,0
16032,-100,4,2,1,80,0,0
16207,-100,4,2,1,80,0,0
20218,-100,4,2,1,80,0,0
20394,-100,4,2,1,80,0,0
20916,-100,4,2,1,80,0,0
21091,-100,4,2,1,80,0,0
21614,-100,4,2,1,80,0,0
21788,-100,4,2,1,80,0,0
22050,-100,4,2,1,80,0,0
22312,-100,4,2,1,80,0,0
22486,-100,4,2,1,80,0,0
22574,-100,4,2,1,80,0,0
23353,-100,4,2,1,60,0,0
56841,-100,4,2,1,50,0,0
57108,-100,4,2,1,50,0,0
57370,-100,4,2,1,50,0,0
57544,-100,4,2,1,50,0,0
57719,-100,4,2,1,50,0,0
57893,-100,4,2,1,50,0,0
58068,-100,4,2,1,50,0,0
59114,-100,4,2,1,50,0,0
59202,-100,4,2,1,50,0,0
59986,-100,4,2,1,50,0,0
60161,-100,4,2,1,50,0,0
60335,-100,4,2,1,50,0,0
60597,-100,4,2,1,50,0,0
60684,-100,4,2,1,50,0,0
60771,-100,4,2,1,50,0,0
61033,-100,4,2,1,60,0,0
61725,-100,4,2,1,60,0,0
65213,-100,4,2,1,80,0,0
66614,-100,4,2,1,80,0,0
66789,-100,4,2,1,80,0,0
67742,-100,4,2,1,30,0,0
68004,-100,4,2,1,80,0,0
68010,-86.9565217391304,4,2,1,80,0,1
68707,-86.9565217391304,4,2,1,80,0,1
69056,-86.9565217391304,4,2,1,80,0,1
69230,-86.9565217391304,4,2,1,80,0,1
69405,-86.9565217391304,4,2,1,80,0,1
80916,-86.9565217391304,4,2,1,80,0,1
81091,-86.9565217391304,4,2,1,80,0,1
81614,-86.9565217391304,4,2,1,80,0,1
81963,-86.9565217391304,4,2,1,80,0,1
84754,-100,4,2,1,80,0,0
85626,-100,4,2,1,80,0,0
85801,-100,4,2,1,80,0,0
85975,-100,4,2,1,80,0,0
86410,-100,4,2,1,80,0,0
86498,-100,4,2,1,80,0,0
86760,-100,4,2,1,80,0,0
88416,-100,4,2,1,80,0,0
88591,-100,4,2,1,80,0,0
88765,-100,4,2,1,80,0,0
88940,-100,4,2,1,80,0,0
89114,-100,4,2,1,80,0,0
89289,-100,4,2,1,80,0,0
89463,-100,4,2,1,80,0,0
89638,-100,4,2,1,80,0,0
89981,-100,4,2,1,60,0,0
90329,-100,4,2,1,80,0,0
90335,-86.9565217391304,4,2,1,80,0,1
93736,-86.9565217391304,4,2,1,80,0,1
93824,-86.9565217391304,4,2,1,80,0,1
94869,-86.9565217391304,4,2,1,80,0,1
95045,-86.9565217391304,4,2,1,80,0,1
98707,-86.9565217391304,4,2,1,80,0,1
98968,-86.9565217391304,4,2,1,80,0,1
101846,-86.9565217391304,4,2,1,80,0,1
102021,-86.9565217391304,4,2,1,80,0,1
102544,-86.9565217391304,4,2,1,80,0,1
102719,-86.9565217391304,4,2,1,80,0,1
103242,-86.9565217391304,4,2,1,80,0,1
104201,-86.9565217391304,4,2,1,80,0,1
104637,-86.9565217391304,4,2,1,80,0,1
104812,-86.9565217391304,4,2,1,80,0,1
105335,-86.9565217391304,4,2,1,80,0,1
105510,-86.9565217391304,4,2,1,80,0,1
109695,-86.9565217391304,4,2,1,80,0,1
109870,-86.9565217391304,4,2,1,80,0,1
110742,-86.9565217391304,4,2,1,80,0,1
110917,-86.9565217391304,4,2,1,80,0,1
111614,-86.9565217391304,4,2,1,80,0,1
111789,-86.9565217391304,4,2,1,80,0,1
112661,-100,4,2,1,80,0,0
113707,-100,4,2,1,80,0,0
113882,-100,4,2,1,80,0,0
115539,-100,4,2,1,85,0,0
121027,-100,4,2,1,80,0,0
121556,-100,4,2,1,80,0,0
121731,-100,4,2,1,80,0,0
122079,-100,4,2,1,80,0,0
122254,-100,4,2,1,80,0,0
122428,-100,4,2,1,80,0,0
122952,-100,4,2,1,80,0,0
125044,-100,4,2,1,80,0,0
125132,-100,4,2,1,80,0,0
125829,-100,4,2,1,80,0,0
125917,-100,4,2,1,80,0,0
126609,-100,4,2,1,60,0,0
143359,-90.9090909090909,4,2,1,60,0,0
143707,-100,4,2,1,60,0,0
149638,-90.9090909090909,4,2,1,60,0,0
149987,-100,4,2,1,60,0,0
160097,-100,4,2,1,50,0,0
160364,-100,4,2,1,50,0,0
160626,-100,4,2,1,50,0,0
160800,-100,4,2,1,50,0,0
160975,-100,4,2,1,50,0,0
161149,-100,4,2,1,50,0,0
161324,-100,4,2,1,50,0,0
161759,-100,4,2,1,50,0,0
162021,-100,4,2,1,50,0,0
162195,-100,4,2,1,50,0,0
162370,-100,4,2,1,50,0,0
162544,-100,4,2,1,50,0,0
162719,-100,4,2,1,50,0,0
163242,-100,4,2,1,50,0,0
163503,-100,4,2,1,50,0,0
163591,-100,4,2,1,50,0,0
163853,-100,4,2,1,50,0,0
163940,-100,4,2,1,50,0,0
164202,-100,4,2,1,50,0,0
164283,-100,4,2,1,60,0,0
164987,-90.9090909090909,4,2,1,60,0,0
165335,-100,4,2,1,60,0,0
167777,-90.9090909090909,4,2,1,60,0,0
168469,-90.9090909090909,4,2,1,70,0,0
170044,-90.9090909090909,4,2,1,70,0,0
170219,-90.9090909090909,4,2,1,70,0,0
170475,-90.9090909090909,4,2,1,5,0,0
170562,-90.9090909090909,4,2,1,30,0,0
170911,-90.9090909090909,4,2,1,40,0,0
170998,-90.9090909090909,4,2,1,50,0,0
171085,-90.9090909090909,4,2,1,60,0,0
171172,-90.9090909090909,4,2,1,70,0,0
171260,-90.9090909090909,4,2,1,80,0,0
171266,-86.9565217391304,4,2,1,80,0,1
171963,-86.9565217391304,4,2,1,80,0,1
172312,-86.9565217391304,4,2,1,80,0,1
172486,-86.9565217391304,4,2,1,80,0,1
172661,-86.9565217391304,4,2,1,80,0,1
173707,-86.9565217391304,4,2,1,80,0,1
174580,-86.9565217391304,4,2,1,80,0,1
182428,-86.9565217391304,4,2,1,80,0,1
182689,-86.9565217391304,4,2,1,80,0,1
183649,-86.9565217391304,4,2,1,80,0,1
184173,-86.9565217391304,4,2,1,80,0,1
184521,-86.9565217391304,4,2,1,80,0,1
185219,-86.9565217391304,4,2,1,80,0,1
187486,-86.9565217391304,4,2,1,80,0,1
187661,-86.9565217391304,4,2,1,80,0,1
188010,-100,4,2,1,80,0,0
188707,-100,4,2,1,80,0,0
189492,-100,4,2,1,80,0,0
189579,-100,4,2,1,80,0,0
190015,-100,4,2,1,80,0,0
192021,-100,4,2,1,80,0,0
192196,-100,4,2,1,80,0,0
192893,-100,4,2,1,80,0,0
192981,-100,4,2,1,80,0,0
193236,-100,4,2,1,60,0,0
193585,-100,4,2,1,80,0,0
193591,-86.9565217391304,4,2,1,80,0,1
203707,-86.9565217391304,4,2,1,80,0,1
204318,-86.9565217391304,4,2,1,80,0,1
205102,-86.9565217391304,4,2,1,80,0,1
205277,-86.9565217391304,4,2,1,80,0,1
205800,-86.9565217391304,4,2,1,80,0,1
205887,-86.9565217391304,4,2,1,80,0,1
206149,-86.9565217391304,4,2,1,80,0,1
207457,-86.9565217391304,4,2,1,80,0,1
208242,-86.9565217391304,4,2,1,80,0,1
208766,-86.9565217391304,4,2,1,80,0,1
210335,-86.9565217391304,4,2,1,80,0,1
210684,-86.9565217391304,4,2,1,80,0,1
211207,-86.9565217391304,4,2,1,80,0,1
211382,-86.9565217391304,4,2,1,80,0,1
212422,-86.9565217391304,4,2,1,60,0,1
212771,-86.9565217391304,4,2,1,50,0,1
212946,-86.9565217391304,4,2,1,60,0,1
212951,-86.9565217391304,4,2,1,60,0,1
213120,-86.9565217391304,4,2,1,70,0,1
213126,-90.9090909090909,4,2,1,70,0,0
221847,-86.9565217391304,4,2,1,70,0,0
222196,-83.3333333333333,4,2,1,70,0,0
222545,-80,4,2,1,70,0,0
222894,-76.9230769230769,4,2,1,70,0,0
223242,-74.0740740740741,4,2,1,70,0,0
223591,-83.3333333333333,4,2,1,70,0,0
229864,-83.3333333333333,4,2,1,80,0,0
229870,-83.3333333333333,4,2,1,80,0,1
230044,-83.3333333333333,4,2,1,80,0,1
230219,-83.3333333333333,4,2,1,80,0,1
230394,-80,4,2,1,80,0,1
230568,-80,4,2,1,80,0,1
230917,-76.9230769230769,4,2,1,80,0,1
231091,-76.9230769230769,4,2,1,80,0,1
231266,-76.9230769230769,4,2,1,80,0,1
231440,-74.0740740740741,4,2,1,80,0,1
231614,-74.0740740740741,4,2,1,80,0,1
231789,-74.0740740740741,4,2,1,80,0,1
231963,-80,4,2,1,80,0,1
232655,-80,4,2,1,90,0,1
233004,-80,4,2,1,50,0,1
233009,-80,4,2,1,50,0,1
233178,-80,4,2,1,55,0,1
233184,-80,4,2,1,55,0,1
233353,-80,4,2,1,60,0,1
233527,-80,4,2,1,65,0,1
233702,-80,4,2,1,70,0,1
233876,-80,4,2,1,75,0,1
234050,-80,4,2,1,60,0,1
234225,-80,4,2,1,65,0,1
234399,-80,4,2,1,70,0,1
234574,-80,4,2,1,75,0,1
234748,-80,4,2,1,80,0,1
234922,-80,4,2,1,85,0,1
235097,-80,4,2,1,90,0,1
235271,-80,4,2,1,95,0,1
235446,-80,4,2,1,100,0,1
235452,-100,4,3,1,50,0,0
244864,-100,4,2,1,60,0,0
245044,-100,4,2,1,60,0,0
245132,-100,4,2,1,60,0,0
246609,-100,4,2,1,50,0,0
246614,-100,4,2,1,50,0,0
247138,-100,4,2,1,50,0,0
248707,-100,4,2,1,50,0,0
248969,-100,4,2,1,50,0,0
249056,-100,4,2,1,50,0,0
249405,-100,4,2,1,50,0,0
252190,-100,4,2,1,60,0,0
252196,-90.9090909090909,4,2,1,60,0,0
252539,-90.9090909090909,4,2,1,30,0,0
252713,-90.9090909090909,4,2,1,35,0,0
252888,-90.9090909090909,4,2,1,40,0,0
253062,-90.9090909090909,4,2,1,45,0,0
253236,-90.9090909090909,4,2,1,50,0,0
253242,-90.9090909090909,4,2,1,50,0,0
253411,-90.9090909090909,4,2,1,55,0,0
253416,-90.9090909090909,4,2,1,55,0,0
253585,-90.9090909090909,4,2,1,40,0,0
253591,-90.9090909090909,4,2,1,40,0,0
253760,-90.9090909090909,4,2,1,45,0,0
253765,-90.9090909090909,4,2,1,45,0,0
253934,-90.9090909090909,4,2,1,50,0,0
253940,-90.9090909090909,4,2,1,50,0,0
254109,-90.9090909090909,4,2,1,55,0,0
254114,-90.9090909090909,4,2,1,55,0,0
254283,-90.9090909090909,4,2,1,60,0,0
254289,-90.9090909090909,4,2,1,60,0,0
254457,-90.9090909090909,4,2,1,65,0,0
254632,-90.9090909090909,4,2,1,70,0,0
254806,-90.9090909090909,4,2,1,75,0,0
254981,-90.9090909090909,4,2,1,85,0,0
256207,-90.9090909090909,4,2,1,90,0,0
256382,-90.9090909090909,4,2,1,90,0,0
256725,-90.9090909090909,4,2,1,60,0,0
257074,-90.9090909090909,4,2,1,50,0,0
257510,-90.9090909090909,4,2,1,60,0,0
257515,-90.9090909090909,4,2,1,60,0,0
257597,-90.9090909090909,4,2,1,70,0,0
257603,-90.9090909090909,4,2,1,70,0,0
257684,-90.9090909090909,4,2,1,80,0,0
257771,-90.9090909090909,4,2,1,90,0,0
257777,-86.9565217391304,4,2,1,90,0,1
267539,-86.9565217391304,4,2,1,70,0,1
267888,-86.9565217391304,4,2,1,50,0,1
268236,-86.9565217391304,4,2,1,90,0,1
268242,-86.9565217391304,4,2,1,90,0,1
268591,-86.9565217391304,4,2,1,90,0,1
270335,-86.9565217391304,4,2,1,90,0,1
270596,-86.9565217391304,4,2,1,90,0,1
270684,-86.9565217391304,4,2,1,90,0,1
270859,-86.9565217391304,4,2,1,90,0,1
271033,-86.9565217391304,4,2,1,90,0,1
271643,-86.9565217391304,4,2,1,90,0,1
272428,-86.9565217391304,4,2,1,90,0,1
272603,-86.9565217391304,4,2,1,90,0,1
274428,-86.9565217391304,4,2,1,5,0,1
274515,-86.9565217391304,4,2,1,90,0,1
274521,-86.9565217391304,4,2,1,90,0,1
274870,-86.9565217391304,4,2,1,90,0,1
277137,-86.9565217391304,4,2,1,90,0,1
277312,-86.9565217391304,4,2,1,90,0,1
277486,-86.9565217391304,4,2,1,90,0,1
277661,-86.9565217391304,4,2,1,90,0,1
278184,-86.9565217391304,4,2,1,90,0,1
278359,-86.9565217391304,4,2,1,90,0,1
278707,-86.9565217391304,4,2,1,90,0,1
279056,-66.6666666666667,4,2,1,90,0,1
279405,-55.5555555555556,4,2,1,90,0,1
279579,-55.5555555555556,4,2,1,90,0,1
279667,-55.5555555555556,4,2,1,90,0,1
279754,-62.5,4,2,1,90,0,1
280103,-86.9565217391304,4,2,1,90,0,1
281149,-86.9565217391304,4,2,1,90,0,1
281498,-86.9565217391304,4,2,1,90,0,1
281672,-86.9565217391304,4,2,1,90,0,1
281847,-86.9565217391304,4,2,1,90,0,1
282196,-68.9655172413793,4,2,1,90,0,1
282894,-83.3333333333333,4,2,1,90,0,1
283939,-83.3333333333333,4,2,1,90,0,1
284114,-83.3333333333333,4,2,1,90,0,1
285329,-83.3333333333333,4,2,1,60,0,1
285678,-83.3333333333333,4,2,1,90,0,1
285684,-100,4,2,1,90,0,0
286731,-80,4,2,1,90,0,0
287777,-74.0740740740741,4,2,1,90,0,0
288469,-74.0740740740741,4,2,1,100,0,0
288475,-74.0740740740741,4,2,1,100,0,1
288562,-74.0740740740741,4,2,1,80,0,0
291260,-74.0740740740741,4,2,1,70,0,0
293707,-74.0740740740741,4,2,1,66,0,0
294050,-74.0740740740741,4,2,1,80,0,0
294056,-80,4,2,1,80,0,0
296847,-80,4,2,1,90,0,0
298242,-86.9565217391304,4,2,1,90,0,0
298416,-86.9565217391304,4,2,1,80,0,0
298504,-86.9565217391304,4,2,1,80,0,0
298765,-80,4,2,1,80,0,0
298853,-80,4,2,1,80,0,0
299114,-80,4,2,1,80,0,0
299283,-80,4,2,1,80,0,0
299289,-80,4,2,1,80,0,0
299632,-80,4,2,1,90,0,0
302428,-83.3333333333333,4,2,1,90,0,0
302602,-80,4,2,1,90,0,0
302690,-80,4,2,1,90,0,0
303469,-80,4,2,1,60,0,0
303818,-80,4,2,1,90,0,0
305219,-80,4,2,1,95,0,0
308707,-80,4,2,1,95,0,0
309231,-80,4,2,1,95,0,0
309579,-80,4,2,1,95,0,0
309754,-80,4,2,1,95,0,0
309928,-80,4,2,1,95,0,0
310097,-80,4,2,1,60,0,0
310103,-80,4,2,1,60,0,0
310446,-80,4,2,1,70,0,0
310533,-80,4,2,1,75,0,0
310620,-80,4,2,1,80,0,0
310707,-80,4,2,1,85,0,0
310795,-80,4,2,1,90,0,0
310801,-74.0740740740741,4,2,1,100,0,1
311323,-74.0740740740741,4,2,1,100,0,1
311498,-74.0740740740741,4,2,1,100,0,1
312021,-74.0740740740741,4,2,1,100,0,1
312196,-74.0740740740741,4,2,1,100,0,1
314463,-74.0740740740741,4,2,1,100,0,1
314638,-74.0740740740741,4,2,1,100,0,1
314812,-74.0740740740741,4,2,1,100,0,1
314987,-74.0740740740741,4,2,1,100,0,1
315161,-74.0740740740741,4,2,1,100,0,1
315335,-74.0740740740741,4,2,1,100,0,1
315684,-76.9230769230769,4,2,1,100,0,1
316027,-76.9230769230769,4,2,1,100,0,1
316376,-74.0740740740741,4,2,1,100,0,1
316556,-74.0740740740741,4,2,1,100,0,1
316731,-74.0740740740741,4,2,1,100,0,1
316905,-74.0740740740741,4,2,1,100,0,1
317080,-74.0740740740741,4,2,1,100,0,1
317602,-74.0740740740741,4,2,1,100,0,1
317777,-74.0740740740741,4,2,1,100,0,1
317951,-74.0740740740741,4,2,1,100,0,1
318126,-74.0740740740741,4,2,1,100,0,1
318300,-74.0740740740741,4,2,1,100,0,1
318475,-74.0740740740741,4,2,1,100,0,1
318997,-74.0740740740741,4,2,1,100,0,1
319173,-74.0740740740741,4,2,1,100,0,1
319515,-74.0740740740741,4,2,1,50,0,1
319521,-74.0740740740741,4,2,1,50,0,1
319690,-74.0740740740741,4,2,1,55,0,1
319696,-74.0740740740741,4,2,1,55,0,1
319864,-74.0740740740741,4,2,1,60,0,1
319870,-74.0740740740741,4,2,1,60,0,1
320039,-74.0740740740741,4,2,1,65,0,1
320045,-74.0740740740741,4,2,1,65,0,1
320213,-74.0740740740741,4,2,1,70,0,1
320388,-74.0740740740741,4,2,1,75,0,1
320562,-80,4,2,1,80,0,1
320911,-80,4,2,1,85,0,1
321260,-76.9230769230769,4,2,1,90,0,1
321614,-76.9230769230769,4,2,1,90,0,1
321789,-76.9230769230769,4,2,1,90,0,1
321957,-76.9230769230769,4,2,1,100,0,0
321963,-100,4,2,1,100,0,1
321992,-100,4,2,1,100,0,0
322138,-100,4,2,1,60,0,0
323184,-100,4,2,1,50,0,0

[Colours]
Combo1 : 123,150,242
Combo2 : 242,113,135
Combo3 : 252,231,131

[HitObjects]
339,48,10795,5,12,0:1:0:0:
458,104,10975,2,8,L|468:165,2,47.5
173,48,11324,5,12,0:1:0:0:
54,104,11499,2,8,L|44:165,2,47.5
306,48,11847,6,0,L|361:38,1,47.5,10|10,0:3|0:3,0:0:0:0:
149,173,12021,2,0,L|94:165,1,47.5,6|6,0:3|0:3,0:0:0:0:
386,347,12196,6,0,P|445:308|381:212,1,190,14|8,0:1|0:0,0:0:0:0:
261,214,12719,1,0,0:0:0:0:
380,89,12894,2,0,L|390:208,1,95,8|0,0:1|0:0,0:0:0:0:
246,61,13242,1,10,0:0:0:0:
421,24,13417,1,2,0:0:0:0:
155,41,13591,6,0,L|35:28,1,95,10|0,0:1|0:0,0:0:0:0:
210,163,13940,2,0,L|318:148,1,95,10|0,0:0|0:0,0:0:0:0:
127,251,14289,2,0,L|7:238,1,95,10|0,0:1|0:0,0:0:0:0:
182,373,14638,2,0,L|290:358,1,95,10|0,0:0|0:0,0:0:0:0:
328,356,14899,1,8,0:0:0:0:
131,339,14987,6,0,P|69:281|130:215,1,190,10|8,0:1|0:0,0:0:0:0:
246,218,15510,1,2,0:0:0:0:
447,214,15684,2,0,P|509:177|437:82,1,190,10|8,0:1|0:0,0:0:0:0:
342,57,16207,2,0,L|285:49,1,47.5,2|0,0:0|0:0,0:0:0:0:
102,149,16382,6,0,L|74:48,1,95,8|0,0:1|0:0,0:0:0:0:
230,322,16731,2,0,L|260:218,1,95,10|0,0:0|0:0,0:0:0:0:
77,263,17080,2,0,L|28:271,2,47.5,10|8|8,0:1|0:0|0:1,0:0:0:0:
219,240,17428,1,10,0:0:0:0:
71,172,17603,2,8,L|144:163,1,47.5,8|8,0:1|0:1,0:0:0:0:
330,222,17777,6,0,P|395:158|322:88,1,190,14|8,0:1|0:0,0:0:0:0:
209,91,18301,1,2,0:0:0:0:
358,30,18475,2,0,L|361:136,1,95,10|0,0:1|0:0,0:0:0:0:
188,72,18824,2,0,L|51:72,1,95,8|10,0:0|0:1,0:0:0:0:
142,54,19085,1,10,0:1:0:0:
339,15,19173,6,0,L|126:15,1,190,10|8,0:1|0:0,0:0:0:0:
26,17,19696,1,2,0:0:0:0:
271,14,19870,2,0,P|338:67|259:128,1,190,10|8,0:1|0:0,0:0:0:0:
135,134,20394,2,0,L|188:134,1,47.5,8|8,0:1|0:1,0:0:0:0:
376,275,20568,6,0,P|446:226|396:142,1,190,14|8,0:1|0:0,0:0:0:0:
271,146,21091,1,2,0:0:0:0:
420,52,21266,2,0,L|423:170,1,95,10|0,0:1|0:0,0:0:0:0:
173,60,21614,2,0,L|48:60,1,95,12|0,0:0|0:0,0:0:0:0:
124,85,21876,1,0,0:0:0:0:
326,198,21963,5,10,0:3:0:0:
375,173,22050,1,8,0:3:0:0:
375,124,22137,1,4,0:3:0:0:
330,95,22224,1,8,0:0:0:0:
156,90,22312,2,0,L|35:91,1,95,6|8,0:3|0:1,0:0:0:0:
108,68,22574,1,8,0:0:0:0:
356,90,22661,2,0,L|477:91,1,95,10|8,0:1|0:1,0:0:0:0:
404,68,22923,1,8,0:1:0:0:
178,54,23010,2,8,L|107:54,1,47.5,10|8,0:0|0:0,0:0:0:0:
346,113,23184,2,8,L|426:113,1,47.5
190,349,23359,6,8,L|185:232,1,95,14|8,0:1|0:1,0:0:0:0:
325,228,23707,1,10,0:0:0:0:
189,167,23882,2,0,L|86:156,1,95,2|8,0:0|0:1,0:0:0:0:
240,321,24231,2,0,L|337:310,1,95,10|8,0:1|0:0,0:0:0:0:
168,250,24580,1,2,0:0:0:0:
426,363,24754,6,0,P|497:324|440:222,1,190,8|8,0:1|0:0,0:0:0:0:
328,129,25277,2,0,L|331:242,1,95,2|8,0:0|0:1,0:0:0:0:
475,98,25626,1,8,0:1:0:0:
313,25,25801,2,0,L|442:1,1,95,8|2,0:0|0:0,0:0:0:0:
140,79,26149,5,10,0:1:0:0:
270,110,26324,2,0,L|276:214,1,95,8|10,0:1|0:0,0:0:0:0:
125,207,26673,2,0,L|128:314,1,95,2|8,0:0|0:1,0:0:0:0:
417,237,27021,2,0,L|310:222,1,95,10|8,0:1|0:0,0:0:0:0:
200,208,27370,1,2,0:0:0:0:
341,107,27545,6,8,L|346:208,1,95,8|8,0:1|0:1,0:0:0:0:
191,70,27894,1,8,0:0:0:0:
342,108,28068,2,0,L|403:98,2,47.5,2|0|10,0:0|0:0|0:1,0:0:0:0:
208,217,28417,2,0,L|334:230,1,95,10|10,0:1|0:0,0:0:0:0:
54,330,28766,1,2,0:0:0:0:
192,365,28940,6,0,L|196:265,1,95,0|8,0:0|0:1,0:0:0:0:
61,213,29289,1,10,0:0:0:0:
212,242,29463,1,2,0:0:0:0:
259,235,29550,1,0,0:0:0:0:
306,229,29637,1,8,0:1:0:0:
456,344,29812,2,0,L|334:323,1,95,10|10,0:1|0:0,0:0:0:0:
181,213,30161,6,0,L|392:181,1,190,2|8,0:0|0:1,0:0:0:0:
223,108,30684,1,8,0:0:0:0:
355,54,30859,2,0,L|425:65,2,47.5,0|0|10,0:0|0:0|0:1,0:0:0:0:
223,108,31207,1,8,0:1:0:0:
366,197,31382,2,0,L|372:81,1,95,10|0,0:0|0:0,0:0:0:0:
124,349,31731,6,0,P|55:288|126:201,1,190,10|8,0:1|0:0,0:0:0:0:
241,202,32254,2,0,L|258:133,2,47.5,0|0|8,0:0|0:0|0:1,0:0:0:0:
93,74,32603,2,0,L|205:52,2,95,10|10|2,0:1|0:0|0:0,0:0:0:0:
258,119,33126,6,0,L|374:97,1,95,8|8,0:1|0:1,0:0:0:0:
65,327,33475,2,0,L|62:207,1,95,12|0,0:0|0:0,0:0:0:0:
113,218,33737,1,0,0:0:0:0:
330,211,33824,2,0,L|458:211,1,95,8|8,0:3|0:0,0:0:0:0:
375,195,34085,1,8,0:0:0:0:
170,144,34173,2,0,L|229:143,1,47.5,4|0,0:3|0:0,0:0:0:0:
391,70,34347,2,0,L|306:70,1,47.5,8|8,0:0|0:0,0:0:0:0:
85,18,34521,6,8,L|78:128,1,95,14|8,0:1|0:1,0:0:0:0:
200,152,34870,1,10,0:0:0:0:
345,156,35045,2,0,L|443:156,1,95,2|0,0:0|0:0,0:0:0:0:
285,343,35394,2,0,L|278:237,1,95,10|8,0:1|0:0,0:0:0:0:
430,354,35742,1,2,0:0:0:0:
121,216,35917,6,0,L|346:206,1,190,8|8,0:1|0:0,0:0:0:0:
145,67,36440,2,0,L|145:186,1,95,0|8,0:0|0:1,0:0:0:0:
298,27,36789,2,0,L|298:132,1,95,8|8,0:1|0:0,0:0:0:0:
142,37,37138,1,2,0:0:0:0:
425,47,37312,6,8,L|314:30,1,95,10|8,0:1|0:1,0:0:0:0:
210,99,37661,1,10,0:0:0:0:
368,238,37835,2,0,L|371:127,1,95,2|8,0:0|0:1,0:0:0:0:
73,214,38184,2,0,L|71:326,1,95,10|8,0:1|0:0,0:0:0:0:
209,343,38533,1,2,0:0:0:0:
340,248,38707,6,8,L|356:363,1,95,8|8,0:1|0:1,0:0:0:0:
209,217,39056,1,8,0:0:0:0:
363,144,39231,1,2,0:0:0:0:
315,139,39318,1,0,0:0:0:0:
268,134,39405,1,10,0:1:0:0:
116,60,39580,2,0,L|112:156,1,95,10|10,0:1|0:0,0:0:0:0:
254,33,39928,2,0,L|310:21,1,47.5,2|0,0:0|0:0,0:0:0:0:
102,21,40103,6,0,P|37:79|120:142,1,190,8|10,2:1|0:0,0:0:0:0:
239,224,40626,2,0,L|247:111,1,95,2|8,0:0|0:1,0:0:0:0:
106,257,40975,1,8,0:1:0:0:
393,328,41149,1,10,0:0:0:0:
264,364,41324,6,0,P|203:321|252:225,1,190,2|8,0:0|0:1,0:0:0:0:
374,217,41847,1,10,0:0:0:0:
233,87,42021,2,0,L|227:204,1,95,2|8,0:0|0:1,0:0:0:0:
364,70,42370,1,8,0:1:0:0:
202,74,42545,2,0,L|97:64,1,95,10|0,0:0|0:0,0:0:0:0:
360,196,42894,6,8,L|466:176,2,95,10|0|10,0:1|0:0|0:0,0:0:0:0:
223,280,43417,1,2,0:0:0:0:
219,232,43504,1,0,0:0:0:0:
215,185,43591,1,8,0:1:0:0:
348,303,43766,1,8,0:1:0:0:
194,316,43940,2,0,L|311:314,1,95,10|10,0:0|0:1,0:0:0:0:
341,311,44202,1,0,0:0:0:0:
144,225,44289,6,0,L|26:226,1,95,12|8,0:0|0:1,0:0:0:0:
329,152,44638,2,0,L|466:152,1,95,4|8,0:0|0:1,0:0:0:0:
377,128,44899,1,0,0:0:0:0:
136,50,44987,2,0,L|136:165,1,95,8|8,0:0|0:3,0:0:0:0:
377,27,45335,2,0,L|435:27,1,47.5,4|0,0:3|0:0,0:0:0:0:
180,155,45510,2,0,L|123:155,1,47.5,10|0,0:1|0:0,0:0:0:0:
450,355,45684,6,0,L|457:243,1,95,14|8,0:1|0:1,0:0:0:0:
322,260,46033,2,0,L|330:152,1,95,2|8,0:0|0:1,0:0:0:0:
73,353,46382,2,0,L|60:139,1,190,6|2,0:0|0:0,0:0:0:0:
228,174,46905,2,0,L|233:115,1,47.5,2|0,0:0|0:0,0:0:0:0:
38,42,47080,6,0,L|147:21,1,95,8|10,0:1|0:0,0:0:0:0:
267,261,47428,2,0,L|159:251,1,95,2|10,0:0|0:1,0:0:0:0:
463,98,47777,1,4,0:0:0:0:
344,132,47952,1,0,0:0:0:0:
464,109,48126,2,0,L|471:209,1,95,0|2,0:0|0:0,0:0:0:0:
217,356,48475,5,14,0:1:0:0:
111,318,48649,1,10,0:1:0:0:
107,222,48823,1,2,0:0:0:0:
204,155,48998,1,10,0:1:0:0:
460,150,49173,2,0,L|249:151,1,190,6|2,0:0|0:0,0:0:0:0:
27,152,49696,5,2,0:0:0:0:
173,218,49870,2,0,L|177:100,1,95,8|10,0:1|0:1,0:0:0:0:
27,152,50219,2,0,L|24:256,1,95,10|10,0:0|0:1,0:0:0:0:
179,116,50568,1,8,0:0:0:0:
318,161,50742,2,0,L|367:147,2,47.5,8|8|10,0:1|0:1|0:0,0:0:0:0:
179,116,51091,1,10,0:0:0:0:
446,333,51266,6,0,L|458:213,1,95,14|8,0:1|0:1,0:0:0:0:
312,259,51614,2,0,L|211:244,1,95,2|8,0:0|0:1,0:0:0:0:
393,214,51963,2,0,P|455:156|387:87,1,190,10|2,0:0|0:0,0:0:0:0:
290,83,52487,1,0,0:0:0:0:
46,172,52661,6,0,L|43:52,1,95,10|8,0:1|0:0,0:0:0:0:
178,253,53010,2,0,L|72:254,1,95,2|8,0:0|0:1,0:0:0:0:
246,270,53359,2,0,L|255:377,1,95,10|0,0:0|0:0,0:0:0:0:
100,180,53707,2,0,L|222:170,1,95,2|0,0:0|0:0,0:0:0:0:
435,248,54056,6,0,P|498:208|433:108,1,190,14|0,0:1|0:0,0:0:0:0:
344,111,54580,1,10,0:1:0:0:
164,66,54754,2,0,L|359:38,1,190,10|8,0:0|0:1,0:0:0:0:
466,17,55277,1,8,0:1:0:0:
198,180,55452,6,0,L|88:169,1,95,12|8,0:0|0:1,0:0:0:0:
357,334,55801,2,0,L|457:344,1,95,4|0,0:0|0:0,0:0:0:0:
158,348,56149,1,10,0:0:0:0:
106,340,56236,1,10,0:0:0:0:
97,291,56323,1,10,0:0:0:0:
138,252,56410,1,10,0:0:0:0:
342,209,56498,2,8,L|275:196,1,47.5,10|8,0:3|0:3,0:0:0:0:
96,130,56673,2,0,L|150:117,1,47.5,6|4,0:3|0:3,0:0:0:0:
352,82,56847,5,12,0:1:0:0:
221,151,57021,1,8,0:3:0:0:
216,103,57108,1,8,0:3:0:0:
212,56,57195,1,8,0:1:0:0:
74,222,57370,1,4,0:3:0:0:
69,174,57457,1,0,0:0:0:0:
65,127,57544,1,10,0:1:0:0:
236,331,57719,1,6,0:3:0:0:
240,283,57806,1,8,0:0:0:0:
244,236,57893,1,10,0:0:0:0:
408,225,58068,2,8,L|418:162,1,47.5,10|4,0:3|0:3,0:0:0:0:
260,121,58242,5,8,0:1:0:0:
400,150,58417,1,8,0:3:0:0:
404,102,58504,1,8,0:3:0:0:
408,55,58591,1,8,0:1:0:0:
254,300,58766,2,0,L|243:243,1,47.5,4|0,0:3|0:0,0:0:0:0:
449,357,58940,2,0,L|350:338,1,95,10|6,0:1|0:3,0:0:0:0:
303,328,59202,1,0,0:0:0:0:
133,221,59289,2,0,L|232:202,1,95,10|10,0:0|0:3,0:0:0:0:
279,192,59551,1,4,0:3:0:0:
50,98,59638,5,8,0:1:0:0:
182,26,59812,1,8,0:3:0:0:
187,73,59899,1,8,0:3:0:0:
193,120,59986,1,8,0:1:0:0:
360,144,60161,2,0,L|371:222,1,47.5,6|0,0:3|0:0,0:0:0:0:
197,238,60335,2,0,L|81:238,1,95,10|6,0:1|0:3,0:0:0:0:
150,217,60597,1,8,0:0:0:0:
341,212,60684,2,0,L|420:213,1,47.5,10|0,0:0|0:0,0:0:0:0:
193,120,60859,2,8,L|139:121,1,47.5,10|4,0:3|0:3,0:0:0:0:
360,61,61033,6,8,L|487:61,1,95,14|8,0:1|0:3,0:0:0:0:
405,43,61295,1,8,0:3:0:0:
151,163,61382,2,0,L|283:163,1,95,8|4,0:1|0:3,0:0:0:0:
298,163,61644,1,0,0:0:0:0:
114,32,61731,5,14,0:1:0:0:
62,49,61818,1,0,0:0:0:0:
56,94,61905,1,8,0:1:0:0:
102,126,61992,1,8,0:1:0:0:
284,131,62080,2,8,L|335:131,1,47.5,10|8,0:0|0:0,0:0:0:0:
121,207,62254,2,8,L|47:207,1,47.5
317,300,62428,5,14,0:1:0:0:
100,302,64347,5,0,1:0:0:0:
271,308,64521,2,0,L|401:306,1,95,8|8,0:1|0:0,0:0:0:0:
317,285,64783,1,8,0:0:0:0:
131,277,64870,1,8,0:3:0:0:
84,253,64957,1,8,0:3:0:0:
85,207,65044,1,4,0:3:0:0:
132,181,65131,1,4,0:3:0:0:
358,182,65219,5,14,0:0:0:0:
235,252,65394,2,0,L|226:118,1,95,0|10,0:0|0:1,0:0:0:0:
488,342,65742,1,6,0:0:0:0:
356,325,65917,1,0,0:0:0:0:
488,342,66091,1,10,0:1:0:0:
126,247,66266,5,14,0:0:0:0:
256,221,66440,1,0,0:0:0:0:
497,145,66614,5,10,0:0:0:0:
365,132,66789,1,8,2:1:0:0:
308,126,66876,1,8,2:1:0:0:
99,51,66963,2,0,L|269:24,1,142.5,14|0,0:0|0:0,0:0:0:0:
239,28,67312,6,0,P|132:93|234:223,1,332.5,2|0,0:0|0:0,0:0:0:0:
473,30,68010,6,8,P|476:141|375:172,1,218.500004167557,14|8,0:1|0:1,0:0:0:0:
497,275,68533,1,2,0:0:0:0:
254,326,68707,2,0,L|126:299,1,109.250002083778,10|0,0:1|0:0,0:0:0:0:
308,122,69056,2,0,L|445:83,1,109.250002083778,8|2,0:1|0:0,0:0:0:0:
130,24,69405,6,0,L|104:142,1,109.250002083778,10|0,0:1|0:0,0:0:0:0:
278,376,69754,2,0,L|304:258,1,109.250002083778,10|0,0:1|0:0,0:0:0:0:
241,250,70016,1,0,0:0:0:0:
64,215,70103,1,10,0:1:0:0:
200,120,70277,2,0,L|278:114,1,54.6250010418892
52,4,70452,2,0,L|26:122,1,109.250002083778,10|0,0:0|0:0,0:0:0:0:
332,201,70801,6,8,P|289:255|136:280,1,218.500004167557,10|8,0:1|0:1,0:0:0:0:
282,344,71324,2,0,L|352:334,1,54.6250010418892,2|2,0:0|0:0,0:0:0:0:
145,132,71498,2,0,L|18:100,1,109.250002083778,10|0,0:1|0:0,0:0:0:0:
100,75,71760,1,0,0:0:0:0:
320,17,71847,1,8,0:1:0:0:
172,22,72021,1,0,0:0:0:0:
424,8,72196,6,0,L|439:149,1,109.250002083778,8|0,0:1|0:0,0:0:0:0:
256,185,72545,2,0,L|127:196,1,109.250002083778,10|0,0:1|0:0,0:0:0:0:
449,208,72894,2,0,L|464:349,1,109.250002083778,10|0,0:1|0:0,0:0:0:0:
395,338,73155,1,0,0:0:0:0:
183,38,73242,1,10,0:0:0:0:
337,14,73417,1,0,0:0:0:0:
36,28,73591,6,8,P|27:119|170:166,1,218.500004167557,14|8,0:1|0:1,0:0:0:0:
259,188,74114,1,2,0:0:0:0:
103,91,74289,2,0,L|89:251,1,109.250002083778,10|0,0:1|0:0,0:0:0:0:
256,308,74638,2,0,L|131:328,1,109.250002083778,8|2,0:1|0:0,0:0:0:0:
329,375,74987,2,0,L|468:390,1,109.250002083778,10|0,0:1|0:0,0:0:0:0:
148,325,75335,6,0,L|136:208,1,109.250002083778,10|0,0:1|0:0,0:0:0:0:
395,73,75684,2,0,L|286:84,1,109.250002083778,10|0,0:1|0:0,0:0:0:0:
223,95,75946,1,0,0:0:0:0:
441,11,76033,2,0,P|468:108|392:145,1,163.875003125668,10|0,0:0|0:0,0:0:0:0:
194,172,76382,6,8,P|170:244|258:277,1,163.875003125668,10|0,0:1|0:0,0:0:0:0:
292,286,76731,1,8,0:1:0:0:
142,356,76905,1,2,0:0:0:0:
418,351,77080,2,0,L|424:210,1,109.250002083778,10|0,0:1|0:0,0:0:0:0:
363,215,77341,1,0,0:0:0:0:
298,202,77428,1,8,0:1:0:0:
451,137,77603,1,0,0:0:0:0:
146,22,77777,6,0,L|134:145,1,109.250002083778,8|0,0:1|0:0,0:0:0:0:
298,202,78126,2,0,L|425:209,1,109.250002083778,10|0,0:1|0:0,0:0:0:0:
151,244,78475,1,10,0:3:0:0:
120,286,78562,1,8,0:3:0:0:
137,336,78649,1,4,0:3:0:0:
187,352,78736,1,4,0:3:0:0:
407,208,78824,2,0,L|419:331,1,109.250002083778,6|8,0:3|0:0,0:0:0:0:
353,341,79085,1,8,0:0:0:0:
135,130,79173,6,8,L|-16:116,2,109.250002083778,14|8|10,0:1|0:1|0:0,0:0:0:0:
312,22,79696,2,0,L|166:13,1,109.250002083778,2|8,0:0|0:1,0:0:0:0:
368,95,80045,2,0,L|356:220,1,109.250002083778,10|8,0:1|0:0,0:0:0:0:
199,255,80394,1,2,0:0:0:0:
462,191,80568,6,0,P|484:271|364:339,1,218.500004167557,8|8,0:1|0:0,0:0:0:0:
226,302,81091,2,0,L|191:241,1,54.6250010418892
233,209,81266,2,8,L|366:190,1,109.250002083778,10|0,0:1|0:0,0:0:0:0:
167,114,81614,2,0,L|17:106,1,109.250002083778,10|0,0:0|0:0,0:0:0:0:
342,30,81963,6,8,L|468:13,2,109.250002083778,10|8|10,0:1|0:1|0:0,0:0:0:0:
188,332,82487,2,0,L|339:333,1,109.250002083778,2|8,0:0|0:1,0:0:0:0:
117,228,82835,2,0,L|215:144,1,109.250002083778,10|8,0:1|0:0,0:0:0:0:
372,158,83184,1,2,0:0:0:0:
93,44,83359,5,8,0:1:0:0:
230,51,83533,1,8,0:1:0:0:
58,173,83707,2,0,P|42:232|70:299,1,109.250002083778,8|0,0:0|0:0,0:0:0:0:
314,249,84056,1,10,0:1:0:0:
181,258,84231,1,10,0:1:0:0:
329,344,84405,1,10,0:0:0:0:
171,358,84580,1,2,0:0:0:0:
446,65,84754,6,0,P|461:118|399:184,1,142.5,10|0,0:1|0:0,0:0:0:0:
199,150,85103,6,0,L|62:150,1,95,12|0,0:0|0:0,0:0:0:0:
165,115,85364,1,0,0:0:0:0:
235,103,85452,2,0,L|356:91,1,95,10|10,0:1|0:1,0:0:0:0:
137,26,85801,2,0,L|1:19,1,95,10|2,0:0|0:0,0:0:0:0:
319,20,86149,6,0,P|330:104|279:144,1,142.5,10|0,0:1|0:0,0:0:0:0:
55,162,86498,6,0,L|42:281,1,95,12|0,0:0|0:0,0:0:0:0:
105,284,86760,1,0,0:0:0:0:
175,291,86847,1,10,0:1:0:0:
22,363,87021,1,8,0:1:0:0:
199,295,87196,2,0,L|79:281,1,95,10|0,0:0|0:0,0:0:0:0:
348,88,87545,2,0,L|466:73,1,95,10|0,0:1|0:0,0:0:0:0:
113,38,87894,5,8,0:0:0:0:
254,33,88068,1,2,0:0:0:0:
105,158,88242,2,0,L|-14:177,1,95,10|10,0:1|0:1,0:0:0:0:
194,270,88591,2,0,L|76:278,1,95,10|2,0:0|0:0,0:0:0:0:
386,127,88940,5,8,0:3:0:0:
435,138,89027,1,8,0:3:0:0:
458,183,89114,1,4,0:3:0:0:
439,230,89201,1,4,0:3:0:0:
233,124,89289,2,0,L|158:122,1,47.5,8|8,0:3|0:3,0:0:0:0:
261,73,89463,2,0,L|331:66,1,47.5,4|4,0:3|0:3,0:0:0:0:
104,32,89638,6,8,L|32:28,1,47.5,10|8,0:3|0:3,0:0:0:0:
262,241,89812,2,0,L|350:243,1,47.5,8|8,0:3|0:3,0:0:0:0:
101,193,89987,1,4,0:3:0:0:
52,204,90074,1,8,0:1:0:0:
29,249,90161,1,8,0:1:0:0:
48,296,90248,1,8,0:1:0:0:
299,167,90335,6,8,P|337:230|231:316,1,218.500004167557,14|8,0:1|0:1,0:0:0:0:
123,364,90859,1,2,0:0:0:0:
363,48,91033,2,0,L|499:25,1,109.250002083778,10|0,0:1|0:0,0:0:0:0:
310,193,91382,2,0,L|165:164,1,109.250002083778,8|2,0:1|0:0,0:0:0:0:
468,131,91731,6,0,L|478:257,1,109.250002083778,10|0,0:1|0:0,0:0:0:0:
210,71,92080,2,0,L|65:76,1,109.250002083778,10|0,0:1|0:0,0:0:0:0:
263,220,92428,2,0,L|370:241,1,109.250002083778,10|0,0:1|0:0,0:0:0:0:
303,282,92690,1,0,0:0:0:0:
117,316,92777,1,10,0:0:0:0:
275,365,92952,1,0,0:0:0:0:
27,16,93126,6,8,P|26:102|162:146,1,218.500004167557,10|8,0:1|0:1,0:0:0:0:
291,122,93649,2,0,L|322:63,1,54.6250010418892,2|2,0:0|0:0,0:0:0:0:
285,52,93824,2,0,L|162:44,1,109.250002083778,10|0,0:1|0:0,0:0:0:0:
341,206,94173,1,8,0:1:0:0:
168,306,94347,2,0,L|240:308,1,54.6250010418892
429,349,94521,6,0,P|447:283|323:210,1,218.500004167557,8|10,0:1|0:1,0:0:0:0:
476,161,95045,1,0,0:0:0:0:
203,159,95219,2,0,L|59:154,1,109.250002083778,10|0,0:1|0:0,0:0:0:0:
157,128,95481,1,0,0:0:0:0:
368,33,95568,1,10,0:0:0:0:
128,29,95742,1,0,0:0:0:0:
434,88,95917,6,8,P|456:165|328:220,1,218.500004167557,14|8,0:1|0:1,0:0:0:0:
472,267,96440,1,2,0:0:0:0:
294,145,96614,2,0,L|287:-2,1,109.250002083778,10|0,0:1|0:0,0:0:0:0:
448,348,96963,2,0,L|324:339,1,109.250002083778,8|2,0:1|0:0,0:0:0:0:
96,358,97312,6,0,L|86:239,1,109.250002083778,10|0,0:1|0:0,0:0:0:0:
244,230,97661,2,0,L|370:230,1,109.250002083778,10|0,0:1|0:0,0:0:0:0:
83,82,98010,2,0,L|210:71,1,109.250002083778,10|0,0:1|0:0,0:0:0:0:
258,68,98271,1,0,0:0:0:0:
45,20,98359,2,0,P|12:96|90:155,1,163.875003125668,10|0,0:0|0:0,0:0:0:0:
291,157,98707,6,8,P|307:220|217:266,1,163.875003125668,10|0,0:1|0:0,0:0:0:0:
172,283,99056,1,8,0:1:0:0:
346,331,99231,1,2,0:0:0:0:
170,367,99405,1,8,0:1:0:0:
118,356,99492,1,0,0:0:0:0:
95,308,99579,1,0,0:0:0:0:
120,262,99666,1,0,0:0:0:0:
172,253,99754,2,0,L|310:232,1,109.250002083778,10|2,0:1|0:0,0:0:0:0:
29,149,100103,6,0,L|25:4,1,109.250002083778,14|8,0:0|0:1,0:0:0:0:
285,13,100452,2,0,L|139:24,1,109.250002083778,6|8,0:0|0:1,0:0:0:0:
457,142,100801,2,0,L|463:287,1,109.250002083778,10|8,0:0|0:1,0:0:0:0:
302,283,101149,2,8,L|235:294,1,54.6250010418892,10|8,0:0|0:0,0:0:0:0:
429,355,101324,2,8,L|494:361,1,54.6250010418892
268,379,101498,6,0,P|189:362|178:231,1,218.500004167557,14|8,0:0|0:0,0:0:0:0:
301,193,102021,1,0,0:0:0:0:
61,132,102196,1,10,0:0:0:0:
215,102,102370,2,0,L|236:37,2,54.6250010418892,8|2|8,0:1|0:0|0:0,0:0:0:0:
33,32,102719,1,10,0:1:0:0:
341,86,102894,6,0,L|475:71,1,109.250002083778,10|0,0:0|0:0,0:0:0:0:
184,354,103242,2,0,L|167:232,1,109.250002083778,10|8,0:0|0:1,0:0:0:0:
470,211,103591,2,0,L|355:190,1,109.250002083778,10|8,0:0|0:1,0:0:0:0:
118,119,103940,1,10,0:0:0:0:
358,63,104114,2,0,L|443:45,1,54.6250010418892,8|0,0:1|0:0,0:0:0:0:
175,21,104289,6,0,P|121:97|217:153,1,218.500004167557,10|8,0:0|0:0,0:0:0:0:
336,178,104812,1,8,0:1:0:0:
68,294,104987,2,0,L|50:157,1,109.250002083778,8|8,0:0|0:1,0:0:0:0:
321,68,105335,1,10,0:0:0:0:
161,49,105510,1,10,0:1:0:0:
446,25,105684,6,0,L|459:172,1,109.250002083778,10|8,0:0|0:1,0:0:0:0:
197,205,106033,2,0,L|48:220,1,109.250002083778,12|0,0:0|0:0,0:0:0:0:
270,150,106382,1,8,0:3:0:0:
302,201,106469,1,8,0:3:0:0:
283,258,106556,1,4,0:3:0:0:
226,279,106643,1,4,0:3:0:0:
418,263,106731,2,0,L|488:276,1,54.6250010418892,6|0,0:3|0:0,0:0:0:0:
254,366,106905,2,0,L|169:377,1,54.6250010418892,10|8,0:0|0:0,0:0:0:0:
432,241,107080,6,0,L|449:103,1,109.250002083778,14|8,0:1|0:1,0:0:0:0:
283,48,107428,2,0,L|406:38,1,109.250002083778,10|0,0:0|0:0,0:0:0:0:
151,133,107777,1,10,0:1:0:0:
285,156,107952,1,8,0:1:0:0:
120,239,108126,2,0,L|-5:255,1,109.250002083778,10|0,0:0|0:0,0:0:0:0:
297,178,108475,6,8,L|282:295,1,109.250002083778,10|8,0:1|0:1,0:0:0:0:
135,340,108824,1,10,0:0:0:0:
308,335,108998,2,0,L|339:281,1,54.6250010418892,2|0,0:0|0:0,0:0:0:0:
303,257,109173,2,0,L|176:241,1,109.250002083778,0|8,0:0|0:1,0:0:0:0:
374,74,109521,2,0,L|490:60,1,109.250002083778,10|2,0:0|0:0,0:0:0:0:
234,139,109870,5,8,0:1:0:0:
99,118,110045,1,8,0:1:0:0:
273,50,110219,2,0,L|291:205,1,109.250002083778,8|0,0:0|0:0,0:0:0:0:
167,212,110568,1,8,0:1:0:0:
26,235,110742,1,8,0:1:0:0:
317,315,110917,2,0,L|468:324,1,109.250002083778,12|0,0:0|0:0,0:0:0:0:
152,353,111266,5,8,0:3:0:0:
94,337,111353,1,8,0:3:0:0:
68,283,111440,1,8,0:3:0:0:
94,229,111527,1,8,0:3:0:0:
149,215,111614,2,8,L|241:209,1,54.6250010418892,4|4,0:3|0:3,0:0:0:0:
137,176,111789,2,0,L|62:172,1,54.6250010418892,4|4,0:3|0:3,0:0:0:0:
275,115,111963,6,0,L|367:109,1,54.6250010418892,14|0,0:0|0:0,0:0:0:0:
258,74,112138,2,0,L|183:70,1,54.6250010418892,8|8,0:1|0:1,0:0:0:0:
419,180,112312,2,8,L|483:178,1,54.6250010418892,10|8,0:0|0:0,0:0:0:0:
247,20,112487,2,8,L|162:24,1,54.6250010418892
433,20,112661,6,0,P|483:91|394:143,1,190,6|0,0:1|0:0,0:0:0:0:
267,173,113184,2,0,L|190:174,1,47.5,8|8,0:3|0:3,0:0:0:0:
383,295,113359,2,0,L|517:301,1,95,6|4,0:3|0:3,0:0:0:0:
417,337,113620,1,0,0:0:0:0:
201,335,113707,1,6,0:3:0:0:
446,229,113882,1,4,0:3:0:0:
93,163,114056,5,14,0:0:0:0:
259,193,115452,5,12,0:0:0:0:
256,192,115539,12,2,118242,0:0:0:0:
63,30,121033,6,0,P|40:91|138:155,1,190,14|8,0:1|0:0,0:0:0:0:
250,172,121556,1,2,0:0:0:0:
65,260,121731,2,0,L|281:281,1,190,10|8,0:1|0:0,0:0:0:0:
97,356,122254,2,0,L|36:362,1,47.5,10|10,0:1|0:1,0:0:0:0:
304,203,122428,6,0,P|365:257|286:308,1,190,10|8,0:1|0:0,0:0:0:0:
180,203,122952,1,2,0:0:0:0:
359,113,123126,2,0,L|467:100,1,95,10|0,0:1|0:0,0:0:0:0:
203,48,123475,2,0,L|82:36,1,95,8|8,0:0|0:1,0:0:0:0:
174,15,123737,1,8,0:1:0:0:
372,29,123824,5,14,0:1:0:0:
225,128,123998,2,0,L|141:138,1,47.5,0|8,0:0|0:1,0:0:0:0:
372,210,124173,1,8,0:0:0:0:
398,247,124260,1,8,0:0:0:0:
386,291,124347,1,10,0:1:0:0:
344,310,124434,1,8,0:1:0:0:
154,321,124521,6,8,L|81:311,1,47.5,10|8,0:0|0:0,0:0:0:0:
288,202,124696,2,0,L|207:208,1,47.5,8|8,0:1|0:1,0:0:0:0:
33,203,124870,2,0,L|26:96,1,95,8|8,0:0|0:3,0:0:0:0:
94,83,125132,1,8,0:3:0:0:
320,39,125219,5,6,0:3:0:0:
175,98,125394,2,8,L|148:153,1,47.5,8|8,0:1|0:1,0:0:0:0:
339,147,125568,1,10,0:0:0:0:
195,235,125742,2,0,L|140:268,1,47.5,8|8,0:1|0:1,0:0:0:0:
365,262,125917,1,10,0:0:0:0:
219,343,126091,2,8,L|164:345,1,47.5,8|8,0:1|0:0,0:0:0:0:
365,371,126266,2,0,L|423:366,1,47.5,10|8,0:3|0:3,0:0:0:0:
214,370,126440,2,0,L|144:366,1,47.5,4|0,0:3|0:0,0:0:0:0:
404,223,126614,6,8,P|471:182|389:136,1,190,14|10,0:1|0:0,0:0:0:0:
262,218,127138,2,0,L|469:206,1,190,2|10,0:0|0:1,0:0:0:0:
269,153,127661,2,0,L|158:143,1,95,8|2,0:0|0:0,0:0:0:0:
430,264,128010,6,0,P|418:190|315:135,1,190,8|8,0:1|0:0,0:0:0:0:
181,202,128533,2,0,P|119:151|198:94,1,190,0|8,0:0|0:1,0:0:0:0:
355,106,129056,2,0,L|469:101,1,95,8|2,0:0|0:0,0:0:0:0:
184,111,129405,5,10,0:1:0:0:
332,137,129580,2,0,L|340:239,1,95,8|10,0:1|0:0,0:0:0:0:
173,306,129928,2,0,P|105:269|158:155,1,190,2|10,0:0|0:1,0:0:0:0:
316,244,130452,2,0,L|433:256,1,95,8|2,0:0|0:0,0:0:0:0:
159,306,130801,5,8,0:1:0:0:
318,252,130975,1,8,0:1:0:0:
159,306,131149,2,0,L|50:286,1,95,8|2,0:0|0:0,0:0:0:0:
353,306,131498,5,10,0:1:0:0:
194,252,131672,1,10,0:1:0:0:
353,306,131846,2,0,L|462:286,1,95,10|2,0:0|0:0,0:0:0:0:
393,274,132109,1,0,0:0:0:0:
183,325,132196,6,0,P|112:308|129:192,1,190,8|10,2:1|0:0,0:0:0:0:
259,258,132719,2,0,L|353:269,2,95,2|10|10,0:0|0:1|0:1,0:0:0:0:
128,326,133242,2,0,L|-10:344,1,95,10|2,0:0|0:0,0:0:0:0:
342,364,133591,6,0,L|357:246,1,95,0|8,0:0|0:1,0:0:0:0:
200,206,133940,2,0,L|185:88,1,95,8|0,0:0|0:0,0:0:0:0:
349,176,134289,2,8,P|406:135|328:61,1,190,10|10,0:1|0:0,0:0:0:0:
87,227,134987,6,0,L|319:247,1,190,10|8,0:1|0:0,0:0:0:0:
430,148,135510,2,0,L|441:255,1,95,2|10,0:0|0:1,0:0:0:0:
283,287,135859,2,0,L|272:394,1,95,10|10,0:1|0:0,0:0:0:0:
120,332,136207,2,0,L|201:333,1,47.5,2|0,0:0|0:0,0:0:0:0:
448,180,136382,5,8,0:1:0:0:
461,305,136556,1,8,0:1:0:0:
177,204,136731,1,12,0:0:0:0:
325,174,136905,1,0,0:0:0:0:
49,336,137080,6,0,L|103:331,1,47.5,8|8,0:3|0:3,0:0:0:0:
178,291,137254,2,0,L|244:286,1,47.5,8|8,0:0|0:0,0:0:0:0:
324,211,137428,2,0,L|270:206,1,47.5,4|0,0:3|0:0,0:0:0:0:
195,166,137602,2,0,L|129:161,1,47.5,8|8,0:0|0:0,0:0:0:0:
347,325,137777,6,8,P|407:281|323:221,1,190,14|10,0:1|0:0,0:0:0:0:
151,217,138301,2,0,L|131:341,1,95,2|8,0:0|0:1,0:0:0:0:
320,332,138649,2,0,L|444:316,1,95,10|8,0:1|0:0,0:0:0:0:
256,230,138998,2,0,L|189:232,1,47.5,2|0,0:0|0:0,0:0:0:0:
467,225,139173,6,0,L|459:98,1,95,8|2,0:1|0:0,0:0:0:0:
318,100,139521,1,8,2:0:0:0:
40,89,139696,1,0,0:0:0:0:
174,87,139870,1,8,0:1:0:0:
40,89,140045,1,8,0:1:0:0:
338,224,140219,1,8,0:0:0:0:
195,224,140394,1,2,0:0:0:0:
436,73,140568,6,8,L|448:181,1,95,10|8,0:1|0:1,0:0:0:0:
317,148,140917,1,10,0:0:0:0:
448,168,141091,1,2,0:0:0:0:
317,148,141266,1,8,0:1:0:0:
72,261,141440,1,10,0:1:0:0:
218,262,141614,1,8,0:0:0:0:
72,261,141788,1,2,0:0:0:0:
337,237,141963,6,0,L|461:258,2,95,8|2|8,0:1|0:0|0:0,0:0:0:0:
470,155,142487,1,2,0:0:0:0:
185,231,142661,2,0,L|73:260,1,95,10|10,0:1|0:1,0:0:0:0:
236,165,143010,1,8,2:2:0:0:
57,128,143184,1,2,0:0:0:0:
399,144,143359,6,0,P|464:207|392:277,1,209.000006378174,2|10,0:0|0:0,0:0:0:0:
253,312,143882,2,0,L|309:303,1,47.5,8|0,0:1|0:0,0:0:0:0:
468,244,144056,2,0,L|482:367,1,95,8|8,0:1|0:1,0:0:0:0:
320,318,144405,1,10,0:0:0:0:
42,222,144580,6,0,L|259:189,1,190,2|8,0:0|0:1,0:0:0:0:
378,234,145103,2,0,L|387:102,1,95,10|2,0:0|0:0,0:0:0:0:
320,98,145364,1,0,0:0:0:0:
145,188,145452,2,0,L|17:204,1,95,8|8,0:1|0:1,0:0:0:0:
380,332,145801,1,14,0:0:0:0:
205,261,146149,6,8,L|83:283,2,95,10|0|10,0:1|0:0|0:0,0:0:0:0:
359,302,146673,1,2,0:0:0:0:
359,302,146760,1,0,0:0:0:0:
359,302,146847,1,0,0:0:0:0:
205,262,147021,1,8,0:1:0:0:
380,211,147196,2,0,L|257:197,1,95,10|10,0:0|0:1,0:0:0:0:
52,112,147545,5,12,0:0:0:0:
31,222,147719,1,8,0:1:0:0:
317,235,147894,1,4,0:0:0:0:
338,345,148068,1,8,0:1:0:0:
45,249,148242,1,8,0:0:0:0:
204,218,148417,1,8,0:3:0:0:
45,249,148591,1,4,0:3:0:0:
204,218,148766,1,10,0:1:0:0:
463,261,148940,6,0,L|477:159,1,95,14|8,0:1|0:1,0:0:0:0:
328,148,149289,1,2,0:0:0:0:
478,148,149463,1,8,0:1:0:0:
162,62,149638,2,0,P|90:114|191:152,1,209.000006378174,6|2,0:0|0:0,0:0:0:0:
309,182,150161,1,2,0:0:0:0:
74,297,150335,5,8,0:1:0:0:
34,210,150510,1,10,0:0:0:0:
77,130,150684,1,2,0:0:0:0:
160,101,150859,1,10,0:1:0:0:
332,163,151033,2,0,L|452:161,1,95,4|0,0:0|0:0,0:0:0:0:
134,226,151382,1,0,0:0:0:0:
332,332,151731,5,14,0:1:0:0:
413,283,151905,1,10,0:1:0:0:
439,191,152080,1,2,0:0:0:0:
405,102,152254,1,10,0:1:0:0:
239,59,152428,2,0,P|154:81|121:194,1,190,6|2,0:0|0:0,0:0:0:0:
253,187,152952,1,2,0:0:0:0:
418,161,153126,6,0,L|436:298,1,95,8|10,0:1|0:1,0:0:0:0:
254,333,153475,2,0,L|43:325,1,190,10|12,0:0|0:0,0:0:0:0:
163,245,153998,2,0,L|223:238,1,47.5,0|12,0:0|0:0,0:0:0:0:
419,130,154173,2,0,L|426:257,1,95,0|8,0:0|0:0,0:0:0:0:
369,233,154434,1,8,0:0:0:0:
130,41,154521,6,0,P|76:76|43:120,1,95,14|8,0:1|0:1,0:0:0:0:
186,138,154870,2,0,P|132:173|99:217,1,95,2|8,0:0|0:1,0:0:0:0:
303,258,155219,6,0,L|167:266,1,95,10|0,0:0|0:0,0:0:0:0:
41,193,155568,2,0,L|159:189,1,95,2|0,0:0|0:0,0:0:0:0:
373,75,155917,6,0,L|467:78,1,95,10|8,0:1|0:0,0:0:0:0:
300,148,156266,2,0,L|205:142,1,95,2|8,0:0|0:1,0:0:0:0:
396,48,156614,6,0,P|450:83|483:127,1,95,10|0,0:0|0:0,0:0:0:0:
340,145,156963,2,0,P|394:180|427:224,1,95,2|0,0:0|0:0,0:0:0:0:
173,265,157312,6,0,P|118:225|198:143,1,190,14|0,0:1|0:0,0:0:0:0:
311,187,157835,1,10,0:1:0:0:
150,258,158010,2,0,P|95:218|175:136,1,190,10|8,0:0|0:1,0:0:0:0:
325,127,158533,1,8,0:1:0:0:
62,89,158707,6,0,L|48:228,1,95,12|8,0:0|0:1,0:0:0:0:
351,244,159056,2,0,L|365:383,1,95,4|0,0:0|0:0,0:0:0:0:
230,308,159405,2,0,L|168:297,1,47.5,10|10,0:0|0:0,0:0:0:0:
345,163,159580,2,0,L|419:151,1,47.5,10|10,0:0|0:0,0:0:0:0:
223,86,159754,2,8,L|101:72,1,95,10|6,0:3|0:3,0:0:0:0:
466,156,160103,5,12,0:1:0:0:
340,192,160277,1,8,0:3:0:0:
334,239,160364,1,8,0:3:0:0:
328,286,160451,1,8,0:1:0:0:
198,189,160626,1,4,0:3:0:0:
192,236,160713,1,0,0:0:0:0:
186,283,160800,1,10,0:1:0:0:
338,261,160975,1,6,0:3:0:0:
344,308,161062,1,8,0:0:0:0:
350,355,161149,1,10,0:0:0:0:
476,318,161324,2,8,L|408:310,1,47.5,10|4,0:3|0:3,0:0:0:0:
138,94,161498,5,8,0:1:0:0:
264,130,161672,1,8,0:3:0:0:
270,177,161759,1,8,0:3:0:0:
276,224,161846,1,8,0:1:0:0:
406,127,162021,1,6,0:3:0:0:
412,174,162108,1,0,0:0:0:0:
418,221,162195,1,10,0:1:0:0:
266,199,162370,1,6,0:3:0:0:
260,246,162457,1,8,0:0:0:0:
254,293,162544,1,10,0:0:0:0:
128,256,162719,2,8,L|196:248,1,47.5,10|4,0:3|0:3,0:0:0:0:
395,360,162894,6,8,L|407:227,1,95,8|8,0:1|0:3,0:0:0:0:
343,230,163155,1,8,0:3:0:0:
106,328,163242,2,0,L|94:195,1,95,8|6,0:1|0:3,0:0:0:0:
158,198,163503,1,0,0:0:0:0:
359,157,163591,2,0,L|475:139,1,95,10|6,0:1|0:3,0:0:0:0:
390,109,163853,1,8,0:0:0:0:
137,149,163940,2,0,L|21:131,1,95,10|10,0:0|0:3,0:0:0:0:
106,101,164202,1,4,0:3:0:0:
329,298,164289,6,0,L|408:294,1,47.5,10|8,0:3|0:3,0:0:0:0:
174,298,164463,2,0,L|101:299,1,47.5,4|4,0:3|0:3,0:0:0:0:
392,152,164638,2,8,L|319:153,1,47.5,8|8,0:3|0:3,0:0:0:0:
105,153,164812,2,0,L|178:154,1,47.5,4|4,0:3|0:3,0:0:0:0:
368,245,164987,6,0,P|441:219|462:112,1,156.750004783631,14|8,0:0|0:1,0:0:0:0:
300,96,165335,2,8,L|240:96,1,47.5,10|8,0:0|0:0,0:0:0:0:
93,195,165510,2,8,L|11:199,1,47.5
301,201,165684,5,14,0:1:0:0:
128,160,166731,2,8,L|288:128,1,142.5,4|4,0:3|0:3,0:0:0:0:
37,214,167080,5,4,0:3:0:0:
185,252,167254,1,8,0:0:0:0:
449,226,167428,2,0,L|449:153,1,47.5,8|8,0:1|0:0,0:0:0:0:
275,120,167603,2,0,L|207:101,1,47.5,8|8,0:1|0:1,0:0:0:0:
42,263,167777,2,8,P|62:192|163:171,1,156.750004783631,8|8,0:0|0:3,0:0:0:0:
296,198,168126,2,0,L|353:194,1,52.2500015945435,4|4,0:3|0:3,0:0:0:0:
137,314,168301,2,0,L|56:320,1,52.2500015945435,4|0,0:3|0:0,0:0:0:0:
320,320,168475,5,14,0:0:0:0:
175,275,168649,1,8,0:3:0:0:
169,222,168737,1,8,0:0:0:0:
163,170,168824,1,10,0:0:0:0:
454,265,168998,1,6,0:0:0:0:
309,220,169172,1,8,0:3:0:0:
303,167,169260,1,8,0:0:0:0:
297,115,169347,1,10,0:0:0:0:
458,180,169521,6,0,L|386:166,1,52.2500015945435,10|0,0:0|0:0,0:0:0:0:
242,263,169696,2,0,L|163:251,1,52.2500015945435,10|8,0:3|0:0,0:0:0:0:
21,272,169870,2,0,L|151:256,1,104.500003189087,10|8,0:0|0:1,0:0:0:0:
479,307,170219,1,12,0:0:0:0:
366,87,170568,6,8,L|285:79,1,52.2500015945435
406,170,170742,2,0,L|487:174,1,52.2500015945435,8|8,0:0|0:0,0:0:0:0:
361,104,170917,2,0,L|280:96,1,52.2500015945435,8|8,0:0|0:0,0:0:0:0:
401,187,171091,2,0,L|482:191,1,52.2500015945435,8|8,0:0|0:0,0:0:0:0:
134,348,171266,6,8,P|66:308|127:192,1,218.500004167557,14|8,0:1|0:1,0:0:0:0:
246,191,171789,1,2,0:0:0:0:
110,67,171963,2,0,L|95:197,1,109.250002083778,10|0,0:1|0:0,0:0:0:0:
256,52,172312,2,0,L|386:41,1,109.250002083778,8|2,0:1|0:0,0:0:0:0:
115,194,172661,6,0,L|111:71,1,109.250002083778,10|0,0:1|0:0,0:0:0:0:
441,284,173010,2,0,L|321:262,1,109.250002083778,10|0,0:1|0:0,0:0:0:0:
188,165,173359,2,0,L|305:144,1,109.250002083778,10|0,0:1|0:0,0:0:0:0:
354,137,173620,1,0,0:0:0:0:
152,51,173707,2,0,L|6:34,1,109.250002083778,10|0,0:0|0:0,0:0:0:0:
311,313,174056,6,8,P|384:240|320:161,1,218.500004167557,10|8,0:1|0:1,0:0:0:0:
148,114,174580,2,0,L|231:98,1,54.6250010418892,2|2,0:0|0:0,0:0:0:0:
424,40,174754,2,0,L|308:25,1,109.250002083778,10|0,0:1|0:0,0:0:0:0:
269,143,175103,1,8,0:1:0:0:
431,193,175277,1,0,0:0:0:0:
116,217,175452,6,0,L|297:191,1,163.875003125668,8|0,0:1|0:0,0:0:0:0:
47,73,175801,2,0,L|36:185,1,109.250002083778,10|0,0:1|0:0,0:0:0:0:
215,49,176149,2,0,L|338:39,1,109.250002083778,10|0,0:1|0:0,0:0:0:0:
272,72,176411,1,0,0:0:0:0:
51,193,176498,2,0,L|173:176,1,109.250002083778,10|0,0:0|0:0,0:0:0:0:
444,315,176847,6,8,L|219:295,1,218.500004167557,14|8,0:1|0:1,0:0:0:0:
365,203,177370,1,2,0:0:0:0:
221,107,177545,2,0,L|212:231,1,109.250002083778,10|0,0:1|0:0,0:0:0:0:
352,87,177894,1,8,0:1:0:0:
185,29,178068,1,2,0:0:0:0:
478,54,178242,6,0,L|310:31,1,163.875003125668,10|0,0:1|0:0,0:0:0:0:
88,208,178591,2,0,L|213:189,1,109.250002083778,10|0,0:1|0:0,0:0:0:0:
365,285,178940,2,0,L|369:151,1,109.250002083778,10|0,0:1|0:0,0:0:0:0:
308,163,179202,1,0,0:0:0:0:
101,236,179289,2,0,L|91:95,1,109.250002083778,10|0,0:0|0:0,0:0:0:0:
336,350,179638,6,8,P|410:284|334:203,1,218.500004167557,10|8,0:1|0:1,0:0:0:0:
220,199,180161,1,2,0:0:0:0:
456,99,180335,2,0,L|463:271,1,163.875003125668,10|0,0:1|0:0,0:0:0:0:
266,95,180684,2,0,L|146:79,1,109.250002083778,8|0,0:1|0:0,0:0:0:0:
463,30,181033,6,0,L|475:167,1,109.250002083778,8|0,0:1|0:0,0:0:0:0:
317,163,181382,2,0,L|325:295,1,109.250002083778,10|0,0:1|0:0,0:0:0:0:
51,100,181731,2,0,L|172:78,1,109.250002083778,8|8,0:0|0:0,0:0:0:0:
217,72,181992,1,8,0:0:0:0:
415,203,182080,2,8,L|331:188,1,54.6250010418892,8|8,0:3|0:3,0:0:0:0:
130,54,182254,2,0,L|204:41,1,54.6250010418892,4|4,0:3|0:3,0:0:0:0:
421,208,182428,6,8,P|475:156|407:101,1,163.875003125668,14|0,0:1|0:0,0:0:0:0:
212,97,182777,1,10,0:0:0:0:
331,35,182952,2,0,L|337:159,1,109.250002083778,2|8,0:0|0:1,0:0:0:0:
193,140,183301,2,0,L|194:257,1,109.250002083778,10|8,0:1|0:0,0:0:0:0:
353,348,183649,6,0,L|116:328,1,218.500004167557,2|8,0:0|0:1,0:0:0:0:
281,238,184173,2,0,L|406:256,1,109.250002083778,8|0,0:0|0:0,0:0:0:0:
86,80,184521,2,8,L|77:207,1,109.250002083778,10|8,0:1|0:1,0:0:0:0:
330,84,184870,2,0,L|451:90,1,109.250002083778,10|0,0:0|0:0,0:0:0:0:
152,23,185219,6,8,P|89:81|157:127,1,163.875003125668,10|0,0:1|0:0,0:0:0:0:
369,143,185568,1,10,0:0:0:0:
227,138,185742,2,0,L|220:252,1,109.250002083778,2|8,0:0|0:1,0:0:0:0:
384,139,186091,2,8,L|393:24,1,109.250002083778,10|8,0:1|0:0,0:0:0:0:
229,185,186440,6,0,L|449:177,1,218.500004167557,2|8,0:0|0:1,0:0:0:0:
199,194,186963,2,0,L|189:314,1,109.250002083778,12|0,0:0|0:0,0:0:0:0:
331,202,187312,1,10,0:1:0:0:
376,176,187399,1,0,0:0:0:0:
380,124,187486,1,10,0:0:0:0:
339,92,187573,1,8,0:0:0:0:
179,89,187661,2,8,L|122:90,1,54.6250010418892,10|8,0:3|0:3,0:0:0:0:
312,56,187835,2,0,L|373:56,1,54.6250010418892,6|4,0:3|0:3,0:0:0:0:
141,74,188010,6,0,L|126:144,3,47.5,10|0|8|8,0:1|0:0|0:1|0:1,0:0:0:0:
345,257,188359,2,0,P|403:205|341:141,1,142.5,12|0,0:0|0:0,0:0:0:0:
198,123,188707,2,0,L|86:121,1,95,10|10,0:1|0:1,0:0:0:0:
375,62,189056,1,10,0:0:0:0:
137,60,189231,1,2,0:0:0:0:
392,94,189405,6,0,L|404:172,3,47.5,10|0|8|8,0:1|0:0|0:1|0:1,0:0:0:0:
209,46,189754,2,0,P|154:103|213:139,1,142.5,12|0,0:0|0:0,0:0:0:0:
388,236,190103,2,8,L|388:116,1,95,10|8,0:1|0:1,0:0:0:0:
263,272,190452,1,10,0:0:0:0:
400,319,190626,1,0,0:0:0:0:
113,358,190801,5,10,0:3:0:0:
257,280,190975,1,8,0:1:0:0:
205,275,191062,1,8,0:0:0:0:
153,269,191149,1,8,0:0:0:0:
48,258,191324,1,6,0:3:0:0:
222,193,191498,2,8,L|284:199,1,47.5,10|8,0:1|0:0,0:0:0:0:
202,190,191673,2,0,L|136:184,1,47.5,10|0,0:0|0:0,0:0:0:0:
384,160,191847,1,10,0:3:0:0:
434,145,191934,1,0,0:0:0:0:
446,98,192021,1,10,0:0:0:0:
413,59,192108,1,8,0:0:0:0:
241,14,192196,6,8,L|220:81,1,47.5,8|8,0:3|0:3,0:0:0:0:
308,96,192370,2,0,L|321:154,1,47.5,4|4,0:3|0:3,0:0:0:0:
147,251,192545,2,0,L|164:189,1,47.5
246,207,192719,2,0,L|268:149,1,47.5
93,119,192894,2,0,L|168:109,1,47.5,2|0,0:0|0:0,0:0:0:0:
330,50,193068,2,8,L|253:39,1,47.5,8|8,0:1|0:1,0:1:0:0:
82,43,193242,2,8,L|25:40,1,47.5,10|8,0:1|0:1,0:0:0:0:
201,103,193417,2,0,L|256:107,1,47.5,8|8,0:1|0:1,0:0:0:0:
462,195,193591,6,8,L|213:177,1,218.500004167557,14|8,0:1|0:1,0:0:0:0:
100,171,194114,1,2,0:0:0:0:
246,194,194289,2,0,L|255:315,1,109.250002083778,10|0,0:1|0:0,0:0:0:0:
194,316,194551,1,0,0:0:0:0:
12,257,194638,2,0,L|140:237,1,109.250002083778,8|2,0:1|0:0,0:0:0:0:
269,253,194987,6,0,L|388:239,1,109.250002083778,10|0,0:1|0:0,0:0:0:0:
76,75,195335,2,0,L|66:202,1,109.250002083778,10|0,0:1|0:0,0:0:0:0:
236,37,195684,2,0,L|125:27,1,109.250002083778,10|0,0:1|0:0,0:0:0:0:
182,51,195946,1,0,0:0:0:0:
396,17,196033,2,0,L|405:151,1,109.250002083778,10|0,0:0|0:0,0:0:0:0:
159,292,196382,6,8,P|89:225|166:150,1,218.500004167557,10|8,0:1|0:1,0:0:0:0:
332,124,196905,2,0,L|265:105,1,54.6250010418892,2|2,0:0|0:0,0:0:0:0:
53,45,197080,2,0,L|185:26,1,109.250002083778,10|0,0:1|0:0,0:0:0:0:
303,5,197428,1,8,0:1:0:0:
150,30,197603,1,0,0:0:0:0:
389,242,197777,6,0,P|455:195|397:118,1,163.875003125668,8|0,0:1|0:0,0:0:0:0:
223,107,198126,2,0,L|97:106,1,109.250002083778,10|0,0:1|0:0,0:0:0:0:
302,181,198475,2,0,L|308:298,1,109.250002083778,10|0,0:1|0:0,0:0:0:0:
250,311,198737,1,0,0:0:0:0:
37,129,198824,2,0,L|156:114,1,109.250002083778,10|0,0:0|0:0,0:0:0:0:
433,40,199173,6,8,L|207:21,1,218.500004167557,14|8,0:1|0:1,0:0:0:0:
353,125,199696,1,2,0:0:0:0:
215,222,199870,2,0,L|204:85,1,109.250002083778,10|0,0:1|0:0,0:0:0:0:
362,243,200219,1,8,0:1:0:0:
195,227,200394,1,2,0:0:0:0:
374,353,200568,6,0,P|425:298|373:244,1,163.875003125668,10|0,0:1|0:0,0:0:0:0:
166,180,200917,2,0,L|296:153,1,109.250002083778,10|0,0:1|0:0,0:0:0:0:
87,82,201266,2,0,L|205:56,1,109.250002083778,10|0,0:1|0:0,0:0:0:0:
251,42,201527,1,0,0:0:0:0:
480,163,201614,2,0,L|360:140,1,109.250002083778,10|0,0:0|0:0,0:0:0:0:
90,330,201963,6,8,L|311:298,1,218.500004167557,10|8,0:1|0:1,0:0:0:0:
35,97,202487,2,0,L|34:219,1,109.250002083778,2|8,0:0|0:1,0:0:0:0:
151,83,202835,1,0,0:0:0:0:
26,28,203010,1,10,0:1:0:0:
323,162,203184,1,2,0:0:0:0:
28,203,203359,6,0,L|29:320,1,109.250002083778,14|8,0:0|0:1,0:0:0:0:
317,125,203707,2,0,L|195:120,1,109.250002083778,6|8,0:0|0:1,0:0:0:0:
484,203,204056,2,0,L|483:320,1,109.250002083778,10|8,0:0|0:1,0:0:0:0:
422,317,204318,1,8,0:1:0:0:
223,315,204405,2,8,L|150:316,1,54.6250010418892,10|8,0:0|0:0,0:0:0:0:
393,257,204580,2,8,L|480:257,1,54.6250010418892
212,274,204754,6,0,P|141:205|221:134,1,218.500004167557,14|8,0:0|0:0,0:0:0:0:
331,136,205277,1,0,0:0:0:0:
185,42,205452,2,0,L|65:42,1,109.250002083778,10|8,0:0|0:1,0:0:0:0:
265,142,205713,2,0,L|323:142,2,54.6250010418892,2|8|0,0:0|0:0|0:0,0:0:0:0:
92,215,205975,2,0,L|169:216,1,54.6250010418892,10|0,0:1|0:0,0:0:0:0:
386,326,206149,6,0,L|385:183,1,109.250002083778,10|0,0:0|0:0,0:0:0:0:
216,272,206498,2,0,L|101:270,1,109.250002083778,10|8,0:0|0:1,0:0:0:0:
425,131,206847,2,0,L|426:256,1,109.250002083778,10|8,0:0|0:1,0:0:0:0:
170,59,207196,2,0,L|306:59,1,109.250002083778,10|8,0:0|0:1,0:0:0:0:
339,58,207457,1,0,0:0:0:0:
121,15,207545,6,0,P|53:75|109:114,1,163.875003125668,10|0,0:0|0:0,0:0:0:0:
263,220,207894,2,0,L|263:84,1,109.250002083778,8|8,0:0|0:1,0:0:0:0:
108,209,208242,2,0,L|108:340,1,109.250002083778,8|8,0:0|0:1,0:0:0:0:
402,215,208591,1,10,0:0:0:0:
101,122,208766,1,10,0:1:0:0:
433,214,208940,6,0,L|433:333,1,109.250002083778,10|8,0:0|0:1,0:0:0:0:
150,204,209289,2,0,L|14:203,1,109.250002083778,12|0,0:0|0:0,0:0:0:0:
372,138,209638,2,0,L|462:136,2,81.9375015628338,8|8|8,0:3|2:1|0:1,0:0:0:0:
138,78,209987,2,8,L|199:76,1,54.6250010418892,10|8,0:0|0:0,0:0:0:0:
428,170,210161,2,0,L|363:171,1,54.6250010418892,8|8,0:0|0:0,0:0:0:0:
124,164,210335,6,0,L|116:291,1,109.250002083778,14|8,0:1|0:1,0:0:0:0:
381,182,210684,2,0,L|384:59,1,109.250002083778,10|0,0:0|0:0,0:0:0:0:
223,138,211033,2,0,L|105:133,1,109.250002083778,10|8,0:1|0:1,0:0:0:0:
396,333,211382,2,0,P|450:280|398:212,1,163.875003125668,10|0,0:0|0:0,0:0:0:0:
166,249,211731,5,10,0:1:0:0:
122,219,211818,1,0,0:0:0:0:
122,167,211905,1,8,0:0:0:0:
165,138,211992,1,8,0:0:0:0:
354,130,212080,2,8,L|280:120,1,54.6250010418892,10|8,0:3|0:3,0:0:0:0:
117,55,212254,2,0,L|42:43,1,54.6250010418892,6|4,0:3|0:3,0:0:0:0:
268,212,212428,5,8,0:1:0:0:
305,213,212472,1,0,0:0:0:0:
305,213,212516,1,8,0:1:0:0:
268,212,212559,1,0,0:0:0:0:
155,212,212603,1,8,0:1:0:0:
118,213,212647,1,0,0:0:0:0:
118,213,212691,1,8,0:1:0:0:
155,212,212734,1,0,0:0:0:0:
333,214,212777,1,10,0:0:0:0:
379,190,212864,1,8,0:0:0:0:
384,138,212951,1,10,0:0:0:0:
343,106,213038,1,8,0:0:0:0:
129,78,213126,6,0,L|22:60,1,104.500003189087,14|8,0:1|0:1,0:0:0:0:
181,5,213475,1,10,0:0:0:0:
24,156,213649,2,0,L|244:195,1,209.000006378174,2|8,0:0|0:1,0:0:0:0:
92,250,214173,1,10,0:0:0:0:
357,300,214347,1,2,0:0:0:0:
199,361,214521,6,8,L|272:278,1,104.500003189087,8|8,0:1|0:1,0:0:0:0:
424,166,214870,1,10,0:0:0:0:
257,131,215045,2,0,L|218:75,1,52.2500015945435,2|0,0:0|0:0,0:0:0:0:
258,53,215219,2,0,L|390:33,1,104.500003189087,0|8,0:0|0:1,0:0:0:0:
181,178,215568,2,0,L|167:325,1,104.500003189087,8|10,0:0|0:1,0:0:0:0:
236,303,215830,1,10,0:1:0:0:
449,370,215917,6,0,L|315:344,1,104.500003189087,10|10,0:1|0:1,0:0:0:0:
489,283,216266,1,10,0:0:0:0:
323,242,216440,2,0,L|306:129,1,104.500003189087,2|8,0:0|0:1,0:0:0:0:
137,136,216789,2,0,L|175:25,1,104.500003189087,10|8,0:1|0:0,0:0:0:0:
321,18,217138,2,0,L|401:13,1,52.2500015945435,2|0,0:0|0:0,0:0:0:0:
169,218,217312,6,0,L|53:226,1,104.500003189087,10|10,0:1|0:1,0:0:0:0:
223,308,217661,2,0,L|299:311,1,52.2500015945435,10|0,0:0|0:0,0:0:0:0:
65,364,217835,2,0,L|37:220,1,104.500003189087,2|0,0:0|0:0,0:0:0:0:
185,186,218184,1,8,0:1:0:0:
441,31,218359,1,10,0:0:0:0:
382,42,218446,1,0,0:0:0:0:
319,52,218533,1,0,0:0:0:0:
251,60,218620,1,0,0:0:0:0:
472,162,218707,6,0,L|483:286,1,104.500003189087,14|10,0:1|0:1,0:0:0:0:
324,310,219056,1,10,0:0:0:0:
485,369,219231,2,0,L|428:366,1,52.2500015945435,2|0,0:0|0:0,0:0:0:0:
234,227,219405,2,0,L|357:213,1,104.500003189087,10|10,0:1|0:1,0:0:0:0:
274,181,219667,1,0,0:0:0:0:
64,231,219754,2,0,L|46:85,1,104.500003189087,10|2,0:0|0:0,0:0:0:0:
337,29,220103,5,10,0:1:0:0:
194,51,220277,2,0,P|159:109|281:187,1,209.000006378174,10|10,0:1|0:1,0:0:0:0:
315,209,220713,1,10,0:1:0:0:
124,273,220801,2,8,L|13:262,1,104.500003189087,10|8,0:1|0:1,0:0:0:0:
205,363,221149,2,0,L|35:362,1,156.750004783631,8|0,0:0|0:0,0:0:0:0:
288,278,221498,6,0,L|409:258,1,104.500003189087,14|10,0:1|0:1,0:0:0:0:
322,234,221760,1,8,0:1:0:0:
235,215,221847,6,0,L|359:188,1,109.250002083778,10|2,0:0|0:0,0:0:0:0:
268,157,222109,1,0,0:0:0:0:
175,140,222196,6,0,L|303:115,1,113.999996520996,10|10,0:1|0:1,0:0:0:0:
211,95,222457,1,8,0:1:0:0:
118,78,222545,6,0,L|255:56,1,118.75,10|2,0:0|0:0,0:0:0:0:
307,38,222806,1,0,0:0:0:0:
77,158,222894,6,0,L|67:297,1,123.499994346619,10|10,0:0|0:1,0:0:0:0:
134,301,223155,1,8,0:1:0:0:
357,358,223242,6,0,L|235:310,1,128.250000489235,10|10,0:0|0:1,0:0:0:0:
313,282,223504,1,0,0:0:0:0:
109,45,223591,1,10,0:0:0:0:
19,27,223722,1,2,0:0:0:0:
114,32,223853,1,10,0:0:0:0:
348,11,223940,2,8,L|264:4,1,56.9999982604981,10|10,0:1|0:1,0:1:0:0:
80,176,224114,2,0,L|166:182,1,56.9999982604981,10|10,0:1|0:1,0:0:0:0:
376,172,224289,6,0,L|387:306,1,113.999996520996,14|8,0:1|0:1,0:0:0:0:
237,326,224638,1,8,0:0:0:0:
404,10,224812,2,8,L|455:49,1,56.9999982604981,8|8,2:1|2:1,2:1:0:0:
395,89,224987,2,0,L|240:115,1,113.999996520996,10|10,0:1|0:1,0:0:0:0:
348,137,225248,1,2,0:0:0:0:
158,197,225335,2,0,L|143:316,1,113.999996520996,10|2,0:0|0:0,0:0:0:0:
429,349,225684,5,10,0:1:0:0:
282,311,225859,2,0,L|142:306,1,113.999996520996,10|0,0:1|0:0,0:0:0:0:
347,226,226207,2,0,L|355:156,1,56.9999982604981,2|0,0:0|0:0,0:0:0:0:
168,0,226382,1,10,0:1:0:0:
115,15,226469,1,0,0:0:0:0:
93,66,226556,1,8,0:1:0:0:
117,115,226643,1,0,0:0:0:0:
171,128,226731,2,0,L|303:116,1,113.999996520996,8|2,0:0|0:0,0:0:0:0:
28,181,227080,6,0,L|21:252,1,56.9999982604981,14|2,0:1|0:0,0:0:0:0:
199,265,227254,2,0,L|105:273,1,56.9999982604981,10|2,0:1|0:0,0:0:0:0:
215,326,227428,2,0,L|227:222,1,56.9999982604981,10|2,0:0|0:0,0:0:0:0:
33,89,227603,2,0,L|78:48,1,56.9999982604981,2|2,0:0|0:0,0:0:0:0:
153,26,227777,2,0,L|238:17,1,56.9999982604981,10|2,0:1|0:0,0:0:0:0:
122,118,227952,2,0,L|117:187,1,56.9999982604981,10|2,0:1|0:0,0:0:0:0:
317,194,228126,2,0,L|390:190,1,56.9999982604981,10|10,0:3|0:3,0:0:0:0:
184,277,228301,2,4,L|112:284,1,56.9999982604981,6|6,0:3|0:3,0:3:0:0:
354,349,228475,6,0,L|500:354,1,113.999996520996,6|8,0:0|0:1,0:0:0:0:
172,41,228824,2,0,L|10:29,1,113.999996520996,6|8,0:0|0:1,0:0:0:0:
383,137,229173,1,14,0:0:0:0:
54,183,229347,1,8,0:1:0:0:
421,18,229521,1,14,0:0:0:0:
455,60,229608,1,0,0:0:0:0:
443,114,229695,1,0,0:0:0:0:
392,136,229782,1,0,0:0:0:0:
141,12,229870,6,0,L|177:128,1,113.999996520996,6|8,0:0|0:1,0:0:0:0:
320,162,230219,1,8,0:1:0:0:
57,120,230394,6,0,L|141:209,1,118.75,14|8,0:0|0:1,0:0:0:0:
307,250,230742,1,8,0:1:0:0:
10,241,230917,6,0,L|130:297,1,123.499994346619,6|8,0:0|0:1,0:0:0:0:
401,306,231266,1,8,0:1:0:0:
20,375,231440,5,14,0:0:0:0:
254,24,231614,1,8,0:1:0:0:
490,362,231789,1,8,0:1:0:0:
230,54,231963,6,0,L|218:187,1,118.75,14|8,0:0|0:1,0:0:0:0:
485,229,232312,1,14,0:0:0:0:
206,271,232487,2,0,L|130:276,1,59.375,8|0,0:1|0:0,0:0:0:0:
405,6,232661,6,0,P|467:56|361:155,1,237.5,14|8,0:0|0:1,0:0:0:0:
269,102,233184,1,10,0:1:0:0:
402,176,233359,1,8,0:1:0:0:
258,129,233533,1,8,0:1:0:0:
415,193,233707,1,10,0:1:0:0:
234,156,233882,1,8,0:1:0:0:
428,208,234056,5,8,0:0:0:0:
186,166,234231,1,10,0:0:0:0:
447,219,234405,1,8,0:0:0:0:
136,174,234580,1,8,0:0:0:0:
469,226,234754,1,10,0:0:0:0:
83,175,234928,1,8,0:0:0:0:
489,232,235103,1,10,0:0:0:0:
39,175,235277,1,8,0:0:0:0:
491,234,235452,6,0,L|485:351,1,95,14|0,0:0|0:0,0:0:0:0:
422,347,235713,1,0,0:0:0:0:
357,352,235801,2,0,L|346:248,1,95,4|0,0:0|0:0,0:0:0:0:
280,242,236062,1,0,0:0:0:0:
212,240,236149,2,0,L|199:129,1,95,4|0,0:0|0:0,0:0:0:0:
132,135,236411,1,0,0:0:0:0:
61,131,236498,2,0,L|46:20,1,95,4|0,0:0|0:0,0:0:0:0:
119,17,236760,1,0,0:0:0:0:
196,16,236847,5,4,0:0:0:0:
41,120,237021,1,0,0:0:0:0:
36,167,237108,1,0,0:0:0:0:
32,214,237195,1,4,0:0:0:0:
202,231,237370,1,0,0:0:0:0:
206,278,237457,1,0,0:0:0:0:
210,325,237544,1,4,0:0:0:0:
382,89,237719,1,0,0:0:0:0:
335,85,237806,1,0,0:0:0:0:
288,81,237893,1,6,0:0:0:0:
464,347,238068,2,0,L|488:298,1,47.5,4|0,0:0|0:0,0:0:0:0:
467,252,238242,6,0,L|336:229,1,95,4|0,0:2|0:0,0:0:0:0:
444,186,238504,1,0,0:0:0:0:
363,149,238591,2,0,L|261:141,1,95,4|0,0:0|0:0,0:0:0:0:
339,80,238853,1,0,0:0:0:0:
252,55,238940,2,0,L|143:56,1,95,4|0,0:0|0:0,0:0:0:0:
230,23,239202,1,0,0:0:0:0:
143,18,239289,2,0,L|39:22,1,95,4|0,0:0|0:0,0:0:0:0:
120,62,239551,1,0,0:0:0:0:
192,68,239638,5,4,0:0:0:0:
37,131,239812,2,0,L|21:186,2,47.5,0|0|4,0:0|0:0|0:0,0:0:0:0:
205,177,240161,2,0,L|210:242,2,47.5,0|0|4,0:0|0:0|0:0,0:0:0:0:
379,116,240510,2,0,L|406:165,2,47.5,0|0|6,0:0|0:0|0:0,0:0:0:0:
191,309,240859,2,0,L|130:306,1,47.5,4|0,0:0|0:0,0:0:0:0:
239,336,241033,6,0,L|354:338,1,95,4|0,0:2|0:0,0:0:0:0:
403,309,241295,1,0,0:0:0:0:
321,258,241382,2,0,L|206:249,1,95,4|0,0:0|0:0,0:0:0:0:
156,215,241644,1,0,0:0:0:0:
237,165,241731,2,0,L|337:171,1,95,4|0,0:0|0:0,0:0:0:0:
401,126,241992,1,0,0:0:0:0:
310,87,242080,2,0,L|201:76,1,95,4|0,0:0|0:0,0:0:0:0:
144,35,242341,1,0,0:0:0:0:
229,11,242428,5,4,0:0:0:0:
374,44,242603,2,0,L|335:89,1,47.5
274,91,242777,1,4,0:0:0:0:
437,137,242952,2,0,L|388:170,1,47.5
321,179,243126,1,4,0:0:0:0:
497,253,243301,2,0,L|443:270,1,47.5
375,274,243475,1,6,0:0:0:0:
197,353,243649,2,0,L|132:349,1,47.5,4|0,0:0|0:0,0:0:0:0:
346,368,243824,6,0,L|457:351,1,95,4|0,0:2|0:0,0:0:0:0:
370,330,244085,1,0,0:0:0:0:
286,299,244173,2,0,L|183:291,1,95,4|0,0:0|0:0,0:0:0:0:
263,248,244434,1,0,0:0:0:0:
346,215,244521,2,0,L|457:201,1,95,4|0,0:0|0:0,0:0:0:0:
365,167,244783,1,0,0:0:0:0:
279,150,244870,2,0,L|147:134,1,95,0|8,1:0|0:1,0:0:0:0:
261,104,245132,1,8,0:1:0:0:
31,18,245219,6,0,P|16:100|95:182,1,190,12|0,0:0|0:0,0:0:0:0:
264,256,245742,2,0,L|54:296,1,190,8|8,0:3|1:3,0:0:0:0:
265,360,246266,2,0,L|416:358,1,142.5,4|0,1:3|0:0,0:0:0:0:
181,289,246614,6,0,P|109:245|157:158,1,190,14|10,0:1|0:1,0:0:0:0:
293,149,247138,2,0,L|308:39,1,95,2|8,0:0|0:1,0:0:0:0:
134,23,247487,2,0,L|77:18,1,47.5,2|0,0:0|0:0,0:0:0:0:
140,34,247661,2,0,L|240:20,1,95,8|2,0:1|0:0,0:0:0:0:
413,79,248010,6,0,L|428:212,1,95,8|0,0:1|0:0,0:0:0:0:
360,204,248271,1,0,0:0:0:0:
291,216,248359,1,8,0:1:0:0:
445,271,248533,1,0,0:0:0:0:
266,286,248707,2,0,L|254:389,1,95,10|0,0:1|0:0,0:0:0:0:
318,380,248969,1,0,0:0:0:0:
393,370,249056,2,0,L|407:268,1,95,10|0,0:1|0:0,0:0:0:0:
145,85,249405,6,0,P|117:170|180:195,1,142.5,10|0,0:1|0:0,0:0:0:0:
206,200,249754,1,10,0:1:0:0:
44,225,249928,2,0,L|35:323,1,95,2|8,0:0|0:1,0:0:0:0:
205,350,250277,2,0,L|262:345,1,47.5,2|0,0:0|0:0,0:0:0:0:
199,361,250451,2,0,L|99:347,1,95,8|2,0:1|0:0,0:0:0:0:
297,281,250801,6,0,L|304:160,1,95,8|0,0:1|0:0,0:0:0:0:
230,173,251062,1,0,0:0:0:0:
148,180,251149,2,0,L|134:58,1,95,8|0,0:1|0:0,0:0:0:0:
211,55,251411,1,0,0:0:0:0:
291,44,251498,1,10,0:1:0:0:
104,280,251673,2,0,L|47:275,1,47.5,0|8,0:0|0:0,0:0:0:0:
246,360,251847,2,0,L|346:346,1,95,10|0,0:0|0:0,0:0:0:0:
34,355,252196,6,0,L|15:224,1,104.500003189087,6|0,0:0|0:0,0:0:0:0:
173,224,252545,2,0,L|184:93,1,104.500003189087,8|8,0:1|0:1,0:0:0:0:
345,66,252894,1,10,0:1:0:0:
179,38,253068,2,0,L|108:38,1,52.2500015945435,8|0,0:1|0:0,0:0:0:0:
343,195,253242,2,0,L|480:201,1,104.500003189087,10|8,0:1|0:1,0:0:0:0:
141,320,253591,6,0,L|14:309,1,104.500003189087,10|8,0:0|0:0,0:0:0:0:
209,230,253940,2,0,L|81:215,1,104.500003189087,8|8,0:0|0:0,0:0:0:0:
281,148,254289,1,10,0:0:0:0:
140,119,254463,1,8,0:0:0:0:
299,54,254638,1,10,0:0:0:0:
468,53,254812,1,8,0:0:0:0:
157,20,254987,6,0,L|195:146,1,104.500003189087,14|8,0:0|0:3,0:0:0:0:
338,166,255335,2,0,L|430:158,1,52.2500015945435,4|0,0:3|0:0,0:0:0:0:
135,213,255510,6,0,L|224:290,1,104.500003189087,6|10,0:0|0:3,0:0:0:0:
375,296,255859,2,0,L|445:298,1,52.2500015945435,6|0,0:3|0:0,0:0:0:0:
188,374,256033,5,14,0:0:0:0:
446,383,256207,1,6,0:3:0:0:
49,312,256382,6,0,P|21:246|110:198,1,156.750004783631,4|0,0:0|0:0,0:0:0:0:
135,176,256731,1,8,0:0:0:0:
159,119,256818,1,8,0:0:0:0:
130,63,256905,1,8,0:0:0:0:
69,52,256992,1,8,0:0:0:0:
296,33,257080,6,8,L|368:24,1,52.2500015945435,10|8,0:3|0:3,0:0:0:0:
133,177,257254,2,0,L|73:174,1,52.2500015945435,4|4,0:3|0:3,0:0:0:0:
361,150,257428,2,0,L|419:139,1,52.2500015945435,8|8,0:0|0:0,0:0:0:0:
85,320,257603,2,0,L|-7:315,1,52.2500015945435,8|8,0:0|0:0,0:0:0:0:
400,335,257777,6,8,B|497:289|497:289|381:236,1,218.500004167557,14|8,0:1|0:0,0:0:0:0:
243,277,258301,1,2,0:0:0:0:
404,214,258475,2,0,L|420:81,1,109.250002083778,10|0,0:1|0:0,0:0:0:0:
241,71,258824,2,0,L|379:57,1,109.250002083778,8|2,0:0|0:0,0:0:0:0:
60,118,259173,6,0,L|48:246,1,109.250002083778,10|0,0:1|0:0,0:0:0:0:
235,250,259521,2,0,L|247:378,1,109.250002083778,10|0,0:0|0:0,0:0:0:0:
66,372,259870,2,0,L|56:246,1,109.250002083778,10|0,0:1|0:0,0:0:0:0:
128,228,260132,1,0,0:0:0:0:
324,188,260219,2,0,L|192:166,1,109.250002083778,10|0,0:0|0:0,0:0:0:0:
471,244,260568,6,8,P|444:159|332:108,1,218.500004167557,10|8,0:1|0:0,0:0:0:0:
158,188,261091,2,0,L|226:172,1,54.6250010418892,2|2,0:0|0:0,0:0:0:0:
300,207,261266,2,0,L|309:330,1,109.250002083778,10|0,0:1|0:0,0:0:0:0:
131,339,261614,1,8,0:0:0:0:
303,334,261789,1,0,0:0:0:0:
37,274,261963,6,0,L|167:250,1,109.250002083778,8|0,0:1|0:0,0:0:0:0:
318,326,262312,1,10,0:0:0:0:
176,277,262487,1,0,0:0:0:0:
459,240,262661,2,0,L|472:128,1,109.250002083778,10|0,0:1|0:0,0:0:0:0:
168,328,263010,1,10,0:0:0:0:
409,283,263184,2,0,L|475:300,1,54.6250010418892
153,246,263359,6,8,P|92:193|200:121,1,218.500004167557,14|8,0:1|0:0,0:0:0:0:
339,180,263882,1,2,0:0:0:0:
40,235,264056,2,0,L|25:363,1,109.250002083778,10|0,0:1|0:0,0:0:0:0:
215,343,264405,2,0,L|107:322,1,109.250002083778,8|2,0:0|0:0,0:0:0:0:
406,181,264754,6,0,L|421:309,1,109.250002083778,10|0,0:1|0:0,0:0:0:0:
148,296,265103,2,0,P|76:261|115:163,1,163.875003125668,10|0,0:0|0:0,0:0:0:0:
328,250,265452,2,0,L|456:251,1,109.250002083778,10|0,0:1|0:0,0:0:0:0:
176,128,265801,2,0,L|47:124,1,109.250002083778,10|0,0:0|0:0,0:0:0:0:
320,201,266149,5,10,0:1:0:0:
184,312,266324,2,0,L|279:317,1,54.6250010418892
435,321,266498,1,8,0:0:0:0:
162,240,266673,1,2,0:0:0:0:
304,167,266847,1,8,0:1:0:0:
162,240,267021,1,8,0:1:0:0:
482,253,267196,1,10,0:0:0:0:
244,184,267370,1,10,0:1:0:0:
480,171,267545,6,0,L|392:159,1,54.6250010418892,10|8,0:3|0:3,0:0:0:0:
264,236,267719,2,8,L|178:226,1,54.6250010418892,4|4,0:3|0:3,0:0:0:0:
465,249,267894,2,0,L|377:237,1,54.6250010418892,10|8,0:3|0:3,0:0:0:0:
249,314,268068,2,8,L|163:304,1,54.6250010418892,4|4,0:3|0:3,0:0:0:0:
370,340,268242,6,0,P|410:271|352:286,1,163.875003125668,14|8,0:0|0:1,0:0:0:0:
187,248,268591,2,8,L|109:238,1,54.6250010418892,10|8,0:0|0:0,0:0:0:0:
330,137,268766,2,8,L|418:125,1,54.6250010418892
99,73,268940,6,0,P|39:123|112:142,1,163.875003125668,14|0,0:0|0:0,0:0:0:0:
252,252,269289,2,0,L|379:231,1,109.250002083778,8|8,0:0|0:1,0:0:0:0:
58,328,269638,1,10,0:0:0:0:
234,253,269812,2,0,L|240:160,1,54.6250010418892,8|2,0:1|0:0,0:0:0:0:
149,195,269987,2,0,L|39:184,1,109.250002083778,8|10,0:0|0:1,0:0:0:0:
369,336,270335,6,0,P|429:304|385:205,1,163.875003125668,10|0,0:0|0:0,0:0:0:0:
211,217,270684,1,10,0:0:0:0:
199,89,270859,1,8,0:1:0:0:
459,145,271033,1,10,0:0:0:0:
329,116,271207,1,8,0:1:0:0:
472,221,271382,1,10,0:0:0:0:
201,306,271556,2,0,L|102:329,1,54.6250010418892,8|0,0:1|0:0,0:0:0:0:
436,349,271731,6,0,L|451:210,1,109.250002083778,10|0,0:0|0:0,0:0:0:0:
288,128,272080,2,0,L|395:147,1,109.250002083778,8|8,0:0|0:1,0:0:0:0:
151,250,272428,1,8,0:0:0:0:
302,313,272603,1,8,0:1:0:0:
34,318,272777,1,14,0:0:0:0:
372,205,272952,1,0,0:0:0:0:
88,198,273126,6,0,L|14:187,1,54.6250010418892,8|8,0:0|0:0,0:0:0:0:
231,316,273301,2,0,L|322:331,1,54.6250010418892,8|8,0:0|0:0,0:0:0:0:
79,314,273475,1,8,0:3:0:0:
224,349,273649,2,0,L|325:341,1,54.6250010418892,8|8,0:0|0:0,0:0:0:0:
75,244,273824,2,0,L|145:239,1,54.6250010418892,8|8,0:0|0:0,0:0:0:0:
313,158,273998,1,4,0:3:0:0:
37,137,274173,2,0,L|192:125,1,109.250002083778,14|0,0:0|0:0,0:0:0:0:
448,348,274521,6,0,L|463:199,1,109.250002083778,14|0,0:1|0:0,0:0:0:0:
305,235,274870,2,0,L|290:86,1,109.250002083778,10|0,0:0|0:0,0:0:0:0:
144,169,275219,1,10,0:1:0:0:
306,127,275394,1,8,0:1:0:0:
119,231,275568,2,0,L|226:249,1,109.250002083778,10|0,0:0|0:0,0:0:0:0:
465,47,275917,6,0,L|482:178,1,109.250002083778,10|0,0:1|0:0,0:0:0:0:
329,203,276266,1,10,0:0:0:0:
477,316,276440,2,0,L|334:306,1,109.250002083778,2|0,0:0|0:0,0:0:0:0:
219,364,276789,1,8,0:1:0:0:
381,283,276963,2,0,L|392:159,1,109.250002083778,10|2,0:0|0:0,0:0:0:0:
58,344,277312,6,0,L|47:220,1,109.250002083778,8|8,0:1|0:1,0:0:0:0:
177,209,277661,1,8,0:0:0:0:
44,233,277835,1,0,0:0:0:0:
454,344,278010,6,0,L|465:220,1,109.250002083778,8|8,0:1|0:1,0:0:0:0:
176,94,278359,1,8,0:0:0:0:
348,138,278533,1,0,0:0:0:0:
30,337,278707,6,0,L|176:325,1,109.250002083778,12|8,0:1|0:1,0:0:0:0:
30,337,279056,2,0,L|176:325,1,142.500005435944,8|0,0:0|0:0,0:0:0:0:
30,337,279405,2,0,L|226:321,1,170.999994781494,10|8,0:1|0:0,0:0:0:0:
286,344,279667,1,8,0:0:0:0:
482,337,279754,2,0,L|288:320,1,152,10|8,0:1|0:0,0:0:0:0:
256,352,280016,1,8,0:0:0:0:
42,343,280103,6,8,L|30:227,1,109.250002083778,14|8,0:1|0:1,0:0:0:0:
176,258,280452,1,10,0:0:0:0:
27,232,280626,1,0,0:0:0:0:
292,223,280801,2,8,L|406:217,1,109.250002083778,10|8,0:1|0:1,0:0:0:0:
220,223,281149,2,0,L|106:217,1,109.250002083778,10|0,0:0|0:0,0:0:0:0:
470,343,281498,6,0,L|482:227,1,109.250002083778,10|8,0:1|0:1,0:0:0:0:
323,259,281847,1,8,0:0:0:0:
485,232,282021,1,0,0:0:0:0:
40,315,282196,2,0,L|192:289,1,137.750004203797,10|0,0:1|0:0,0:0:0:0:
472,332,282545,1,10,0:0:0:0:
148,216,282719,1,2,0:0:0:0:
448,96,282894,6,0,L|461:216,1,113.999996520996,8|8,0:1|0:1,0:0:0:0:
99,184,283242,1,12,0:0:0:0:
450,226,283417,1,0,0:0:0:0:
64,96,283591,6,0,L|51:216,1,113.999996520996,8|8,0:1|0:1,0:0:0:0:
388,187,283939,1,4,0:0:0:0:
141,187,284114,1,0,0:0:0:0:
411,306,284289,5,12,0:1:0:0:
327,306,284405,1,8,0:0:0:0:
243,306,284521,1,8,0:0:0:0:
457,204,284638,1,8,0:0:0:0:
373,202,284754,1,8,0:0:0:0:
457,204,284870,1,8,0:0:0:0:
173,134,284987,5,10,0:3:0:0:
257,134,285103,1,8,0:3:0:0:
341,134,285219,1,4,0:3:0:0:
117,249,285336,1,6,0:3:0:0:
35,250,285452,1,0,0:0:0:0:
117,249,285568,1,8,0:1:0:0:
449,241,285684,1,14,0:0:0:0:
242,353,286382,5,10,0:3:0:0:
186,331,286469,1,8,0:3:0:0:
186,331,286556,1,8,0:3:0:0:
242,353,286644,1,8,0:3:0:0:
409,242,286731,2,8,L|484:243,1,59.375,6|4,0:3|0:3,0:0:0:0:
244,142,286905,2,0,L|169:143,1,59.375,4|4,0:3|0:3,0:0:0:0:
461,106,287080,1,14,0:0:0:0:
114,171,288126,6,0,L|191:174,1,64.1250002446175,2|0,0:0|0:0,0:0:0:0:
366,319,288301,2,0,L|430:321,1,64.1250002446175,2|0,0:0|0:0,0:0:0:0:
106,344,288475,1,12,0:0:0:0:
256,192,288649,12,2,293359,0:0:0:0:
385,307,293707,6,0,L|397:172,1,128.250000489235,0|0,1:0|1:0,1:0:0:0:
319,152,293969,1,0,1:0:0:0:
110,286,294056,6,0,P|49:229|148:142,1,237.5,14|8,0:1|0:0,0:0:0:0:
400,91,294580,1,2,0:0:0:0:
121,348,294754,2,0,L|109:184,1,118.75,10|0,0:1|0:0,0:0:0:0:
244,173,295103,1,8,0:0:0:0:
406,242,295277,2,0,L|308:228,1,59.375,10|10,0:1|0:1,0:0:0:0:
137,294,295452,6,0,P|78:309|26:364,1,118.75,10|2,0:1|0:0,0:0:0:0:
177,369,295801,1,8,0:0:0:0:
29,346,295975,1,2,0:0:0:0:
305,346,296149,2,0,L|313:209,1,118.75,10|0,0:1|0:0,0:0:0:0:
170,163,296498,1,8,0:0:0:0:
418,235,296673,2,0,L|498:230,1,59.375,8|8,0:1|0:1,0:0:0:0:
112,337,296847,5,14,0:1:0:0:
241,277,297021,1,0,0:0:0:0:
115,201,297196,1,8,0:0:0:0:
406,138,297370,1,2,0:0:0:0:
255,211,297545,1,10,0:1:0:0:
406,286,297719,1,0,0:0:0:0:
106,355,297894,1,14,0:0:0:0:
251,329,298068,2,0,L|162:339,1,59.375
363,335,298242,6,0,L|512:316,1,109.250002083778,10|8,0:1|0:1,0:0:0:0:
413,296,298504,1,0,0:0:0:0:
196,243,298591,2,0,L|345:224,1,109.250002083778,14|8,0:0|0:1,0:0:0:0:
246,204,298853,1,8,0:1:0:0:
55,348,298940,6,0,L|145:341,1,59.375,10|10,0:0|0:0,0:0:0:0:
297,268,299114,2,0,L|226:272,1,59.375,10|10,0:0|0:0,0:0:0:0:
85,182,299289,2,8,L|19:185,1,59.375,10|8,0:3|0:3,0:0:0:0:
257,99,299463,2,0,L|323:102,1,59.375,6|4,0:3|0:3,0:0:0:0:
59,357,299638,6,0,L|46:226,1,118.75,12|0,0:1|0:0,0:0:0:0:
218,236,299987,1,8,0:0:0:0:
46,239,300161,1,0,0:0:0:0:
420,255,300335,1,10,0:1:0:0:
254,191,300510,1,2,0:0:0:0:
92,255,300684,1,10,0:0:0:0:
401,342,300859,2,0,L|493:355,1,59.375,2|0,0:0|0:0,0:0:0:0:
218,308,301033,6,0,L|74:333,1,118.75,8|0,0:1|0:0,0:0:0:0:
264,329,301382,1,8,0:0:0:0:
100,329,301556,1,0,0:0:0:0:
434,331,301731,1,10,0:1:0:0:
275,331,301905,1,2,0:0:0:0:
434,331,302080,1,10,0:0:0:0:
191,238,302254,2,0,L|85:238,1,59.375,2|0,0:0|0:0,0:0:0:0:
353,176,302428,6,0,L|487:174,1,113.999996520996,12|8,0:1|0:0,0:0:0:0:
406,175,302690,1,8,0:0:0:0:
262,319,302777,2,8,L|158:312,1,59.375
399,246,302952,2,0,L|479:255,1,59.375,10|8,0:3|0:3,0:0:0:0:
256,216,303126,5,10,0:0:0:0:
210,178,303213,1,8,0:0:0:0:
201,118,303301,1,6,0:3:0:0:
244,77,303388,1,4,0:3:0:0:
312,66,303475,2,8,L|238:63,1,59.375,10|8,0:1|0:1,0:0:0:0:
95,286,303649,2,0,L|196:288,1,59.375,10|8,0:1|0:1,0:0:0:0:
382,355,303824,6,0,P|442:302|359:267,1,178.125,4|0,0:0|0:0,0:0:0:0:
190,290,304173,1,8,0:0:0:0:
356,240,304347,1,8,0:1:0:0:
64,198,304521,1,14,0:0:0:0:
367,99,304696,1,8,0:1:0:0:
77,317,304870,2,0,L|7:314,1,59.375,14|0,0:0|0:0,0:0:0:0:
256,158,305045,2,0,L|348:166,1,59.375,2|0,0:1|0:0,0:0:0:0:
89,240,305219,6,0,L|229:252,1,118.75,12|0,0:1|0:0,0:0:0:0:
476,351,305568,1,8,0:0:0:0:
205,259,305742,1,0,0:0:0:0:
452,255,305917,2,0,L|460:130,1,118.75,10|0,0:1|0:0,0:0:0:0:
389,114,306178,1,0,0:0:0:0:
161,184,306266,2,0,L|39:169,1,118.75,10|2,0:0|0:0,0:0:0:0:
367,347,306614,6,0,L|489:332,1,118.75,8|0,0:1|0:0,0:0:0:0:
197,269,306963,1,8,0:0:0:0:
483,334,307138,1,0,0:0:0:0:
179,349,307312,2,0,P|119:318|49:338,1,118.75,10|0,0:1|0:0,0:0:0:0:
372,229,307661,1,10,0:0:0:0:
98,164,307835,2,0,L|187:151,1,59.375,2|0,0:0|0:0,0:0:0:0:
439,342,308010,6,0,L|453:209,1,118.75,8|0,0:1|0:0,0:0:0:0:
258,282,308359,2,0,L|136:263,1,118.75,8|0,0:0|0:0,0:0:0:0:
450,184,308707,2,0,L|312:164,1,118.75,10|0,0:1|0:0,0:0:0:0:
45,291,309056,1,10,0:0:0:0:
357,170,309231,1,2,0:0:0:0:
51,342,309405,6,0,L|38:268,3,59.375,8|8|4|4,0:3|0:3|0:3|0:3,0:0:0:0:
197,239,309754,2,0,L|210:165,3,59.375,8|8|4|4,0:3|0:3|0:3|0:3,0:0:0:0:
355,347,310103,2,8,L|342:273,3,59.375,10|10|10|10,0:1|0:1|0:1|0:1,0:0:0:0:
491,227,310452,2,0,L|473:127,1,59.375,10|10,0:0|0:0,0:0:0:0:
290,132,310626,2,0,L|196:132,1,59.375,10|10,0:0|0:0,0:0:0:0:
30,283,310801,6,0,L|177:272,1,128.250000489235,12|0,0:0|0:0,0:0:0:0:
482,283,311149,2,0,L|335:272,1,128.250000489235,8|8,0:0|0:1,0:0:0:0:
67,358,311498,1,10,0:0:0:0:
218,344,311673,1,10,0:1:0:0:
54,363,311847,1,10,0:0:0:0:
431,305,312021,1,10,0:1:0:0:
172,108,312196,6,0,L|28:97,1,128.250000489235,8|0,0:0|0:0,0:0:0:0:
211,190,312545,2,0,L|355:179,1,128.250000489235,8|8,0:0|0:1,0:0:0:0:
67,358,312894,1,10,0:0:0:0:
218,344,313069,1,10,0:1:0:0:
54,363,313243,1,10,0:0:0:0:
431,305,313417,1,10,0:1:0:0:
160,231,313591,6,0,L|25:212,1,128.250000489235,8|0,0:0|0:0,0:0:0:0:
324,179,313940,1,8,0:0:0:0:
75,142,314114,2,0,L|64:41,1,64.1250002446175,10|0,0:1|0:0,0:0:0:0:
352,320,314289,2,0,L|501:301,1,128.250000489235,10|10,0:0|0:1,0:0:0:0:
165,199,314638,1,10,0:0:0:0:
340,172,314812,1,10,0:1:0:0:
51,286,314987,6,0,L|216:302,1,128.250000489235,8|8,0:0|0:1,0:0:0:0:
461,288,315335,2,0,L|296:304,1,128.250000489235,12|0,0:0|0:0,0:0:0:0:
154,242,315684,2,0,L|62:257,1,61.7499971733095,10|8,0:3|0:3,0:0:0:0:
368,245,315859,2,0,L|457:257,1,61.7499971733095,4|4,0:3|0:3,0:0:0:0:
92,351,316033,2,8,L|155:342,1,61.7499971733095,10|8,0:1|0:1,0:0:0:0:
432,349,316208,2,0,L|368:338,1,61.7499971733095,10|8,0:1|0:1,0:0:0:0:
47,288,316382,6,0,L|36:154,1,128.250000489235,12|8,0:0|0:1,0:0:0:0:
305,260,316731,1,8,0:0:0:0:
48,178,316905,1,8,0:1:0:0:
388,260,317080,1,10,0:0:0:0:
131,178,317254,1,8,0:1:0:0:
465,260,317428,1,10,0:0:0:0:
208,178,317602,1,10,0:1:0:0:
465,288,317777,6,0,L|476:154,1,128.250000489235,8|8,0:0|0:1,0:0:0:0:
205,261,318126,1,8,0:0:0:0:
468,178,318300,1,8,0:1:0:0:
120,261,318475,1,10,0:0:0:0:
383,178,318649,1,8,0:1:0:0:
41,261,318823,1,10,0:0:0:0:
304,178,318997,1,10,0:1:0:0:
68,334,319173,6,0,L|55:178,1,128.250000489235,12|0,0:0|0:0,0:0:0:0:
333,339,319521,1,8,0:1:0:0:
178,339,319696,1,8,0:1:0:0:
333,339,319870,1,8,0:1:0:0:
95,247,320045,1,8,0:1:0:0:
411,248,320219,1,8,0:1:0:0:
95,247,320394,1,8,0:1:0:0:
352,352,320568,6,8,L|431:357,1,59.375
160,352,320742,2,0,L|81:357,1,59.375,8|8,0:1|0:1,0:0:0:0:
443,273,320917,2,8,L|358:263,1,59.375
78,279,321091,2,0,L|163:269,1,59.375,8|8,0:1|0:1,0:0:0:0:
401,168,321266,5,8,0:0:0:0:
430,163,321309,1,0,0:0:0:0:
457,146,321353,1,8,0:0:0:0:
472,118,321396,1,0,0:0:0:0:
470,86,321440,1,8,0:0:0:0:
454,59,321484,1,0,0:0:0:0:
426,44,321527,1,8,0:0:0:0:
394,44,321571,1,0,0:0:0:0:
152,70,321614,6,0,L|71:64,1,61.7499971733095,8|8,0:0|0:0,0:0:0:0:
360,70,321789,2,0,L|441:64,1,61.7499971733095,8|8,0:0|0:0,0:0:0:0:
24,157,321963,1,12,0:0:0:0:
256,192,322138,12,6,325277,0:0:0:0:
