osu file format v14

[General]
AudioFilename: audio.mp3
AudioLeadIn: 0
PreviewTime: 249985
Countdown: 0
SampleSet: Soft
StackLeniency: 0.7
Mode: 0
LetterboxInBreaks: 0
WidescreenStoryboard: 1

[Editor]
Bookmarks: 15185,25431,113677,155188,243618,278677
DistanceSpacing: 0.1
BeatDivisor: 4
GridSize: 32
TimelineZoom: 2.699999

[Metadata]
Title:Flyers!!!
TitleUnicode:Flyers!!!
Artist:765 MILLION ALLSTARS
ArtistUnicode:765 MILLION ALLSTARS
Creator:Ninjaking311
Version:Beloved
Source:アイドルマスター ミリオンライブ!
Tags:imas im@s THE IDOLM@STER MILLION THE@TER WAVE 01 Flyers!!! idolmaster japanese anime ミリマス ミリシタ pop シアターデイズ Theater Days video game
BeatmapID:3340227
BeatmapSetID:1636687

[Difficulty]
HPDrainRate:5.2
CircleSize:4
OverallDifficulty:8.8
ApproachRate:9.3
SliderMultiplier:1.7
SliderTickRate:1

[Events]
//Background and Video events
0,0,"bg.png",0,0
//Break Periods
2,125921,127784
//Storyboard Layer 0 (Background)
//Storyboard Layer 1 (Fail)
//Storyboard Layer 2 (Pass)
//Storyboard Layer 3 (Foreground)
//Storyboard Layer 4 (Overlay)
//Storyboard Sound Samples

[TimingPoints]
417,461.538461538462,4,2,1,55,1,0
417,-117.647058823529,4,2,1,35,0,0
532,461.538461538462,4,2,1,55,1,0
532,-117.647058823529,4,2,1,55,0,0
1993,-117.647058823529,4,3,22,55,0,0
2378,-117.647058823529,4,2,1,55,0,0
3839,-117.647058823529,4,3,22,55,0,0
4224,-117.647058823529,4,2,1,55,0,0
5685,-117.647058823529,4,3,22,55,0,0
6070,-117.647058823529,4,2,1,55,0,0
9378,-117.647058823529,4,3,22,55,0,0
9762,-117.647058823529,4,2,1,55,0,0
11224,-117.647058823529,4,3,22,55,0,0
11608,-117.647058823529,4,2,1,55,0,0
13455,-100,4,2,1,55,0,0
15185,-100,4,2,1,5,0,0
15315,348.837209302326,4,2,1,55,1,0
15315,-117.647058823529,4,2,1,55,0,0
16187,-117.647058823529,4,2,1,50,0,0
16361,-117.647058823529,4,2,1,55,0,0
16535,-117.647058823529,4,2,1,60,0,0
16710,-83.3333333333333,4,2,1,75,0,0
16971,-83.3333333333333,4,2,1,5,0,0
17059,-83.3333333333333,4,2,1,75,0,0
17408,-90.9090909090909,4,2,1,75,0,0
20721,-90.9090909090909,4,3,22,75,0,0
20896,-90.9090909090909,4,2,1,75,0,0
22291,-83.3333333333333,4,2,1,75,0,0
22815,-90.9090909090909,4,2,1,75,0,0
25431,-90.9090909090909,4,2,1,60,0,0
26477,-90.9090909090909,4,2,1,75,0,0
27873,-83.3333333333333,4,2,1,50,0,0
28221,-83.3333333333333,4,2,1,50,0,0
28396,-133.333333333333,4,2,1,50,0,0
33192,-133.333333333333,4,3,22,50,0,0
33280,-133.333333333333,4,2,1,50,0,0
33367,-133.333333333333,4,3,22,50,0,0
33454,-105.263157894737,4,2,1,50,0,0
33977,-133.333333333333,4,2,1,50,0,0
39035,-100,4,2,1,60,0,0
39559,-117.647058823529,4,2,1,60,0,0
43483,-117.647058823529,4,2,1,5,0,0
43570,-117.647058823529,4,2,1,60,0,0
44442,-117.647058823529,4,3,22,60,0,0
44617,-100,4,2,1,60,0,0
45140,-117.647058823529,4,2,1,60,0,0
47756,-117.647058823529,4,2,1,60,0,0
48628,-100,4,2,1,60,0,0
49152,-117.647058823529,4,2,1,60,0,0
50198,-133.333333333333,4,2,1,50,0,0
52815,-133.333333333333,4,3,22,50,0,0
52989,-133.333333333333,4,2,1,50,0,0
55082,-83.3333333333333,4,2,1,60,0,0
55344,-83.3333333333333,4,2,1,5,0,0
55431,-83.3333333333333,4,2,1,60,0,0
55692,-83.3333333333333,4,2,1,5,0,0
55780,-117.647058823529,4,2,1,60,0,0
58570,-100,4,2,1,70,0,0
58832,-100,4,2,1,5,0,0
58919,-100,4,2,1,70,0,0
59966,-100,4,2,1,55,0,0
60140,-100,4,2,1,60,0,0
60315,-100,4,2,1,65,0,0
60489,-100,4,2,1,70,0,0
61187,-100,4,2,1,75,0,0
62408,-100,4,2,1,75,0,0
63454,-100,4,2,15,60,0,0
63803,-100,4,2,19,70,0,0
64152,-166.666666666667,4,2,18,85,0,0
64413,-166.666666666667,4,2,1,5,0,0
64501,-83.3333333333333,4,2,19,85,0,0
65024,-90.9090909090909,4,3,22,85,0,0
65198,-90.9090909090909,4,2,15,85,0,0
65547,-90.9090909090909,4,2,19,85,0,0
65896,-90.9090909090909,4,2,15,85,0,0
66245,-90.9090909090909,4,2,19,85,0,0
66594,-90.9090909090909,4,2,20,85,0,0
66855,-90.9090909090909,4,2,1,5,0,0
66942,-90.9090909090909,4,2,13,85,0,0
67640,-90.9090909090909,4,2,14,85,0,0
68163,-90.9090909090909,4,2,20,85,0,0
68251,-90.9090909090909,4,3,22,85,0,0
68338,-90.9090909090909,4,2,20,85,0,0
69035,-90.9090909090909,4,2,20,85,0,0
69384,-90.9090909090909,4,2,18,85,0,0
69733,-166.666666666667,4,2,18,85,0,0
69995,-166.666666666667,4,2,1,5,0,0
70082,-83.3333333333333,4,2,19,85,0,0
70518,-90.9090909090909,4,2,1,85,0,0
70605,-90.9090909090909,4,3,22,85,0,0
70780,-90.9090909090909,4,2,15,85,0,0
71128,-90.9090909090909,4,2,19,85,0,0
71477,-90.9090909090909,4,2,15,85,0,0
71826,-90.9090909090909,4,2,19,85,0,0
72175,-90.9090909090909,4,2,20,85,0,0
72437,-90.9090909090909,4,2,1,5,0,0
72524,-90.9090909090909,4,2,13,85,0,0
73221,-90.9090909090909,4,2,14,85,0,0
73832,-90.9090909090909,4,3,22,85,0,0
73919,-90.9090909090909,4,2,21,85,0,0
74181,-90.9090909090909,4,2,1,5,0,0
74268,-90.9090909090909,4,2,1,85,0,0
74966,-90.9090909090909,4,2,19,85,0,0
75315,-90.9090909090909,4,2,21,85,0,0
75663,-90.9090909090909,4,2,14,85,0,0
76099,-90.9090909090909,4,2,1,85,0,0
76361,-90.9090909090909,4,2,13,85,0,0
76710,-90.9090909090909,4,2,20,85,0,0
77059,-90.9090909090909,4,2,18,85,0,0
77408,-90.9090909090909,4,2,19,85,0,0
77756,-90.9090909090909,4,2,20,85,0,0
78628,-90.9090909090909,4,2,19,85,0,0
79152,-90.9090909090909,4,2,18,85,0,0
79326,-90.9090909090909,4,2,19,85,0,0
79675,-90.9090909090909,4,2,13,85,0,0
79849,-90.9090909090909,4,2,20,85,0,0
80024,-90.9090909090909,4,2,19,85,0,0
80547,-90.9090909090909,4,2,18,85,0,0
80721,-90.9090909090909,4,2,16,85,0,0
80896,-83.3333333333333,4,2,15,85,0,0
81245,-83.3333333333333,4,2,11,85,0,0
81419,-90.9090909090909,4,2,19,85,0,0
82640,-90.9090909090909,4,2,16,85,0,0
82989,-90.9090909090909,4,2,18,85,0,0
83338,-90.9090909090909,4,2,19,85,0,0
83687,-90.9090909090909,4,2,13,90,0,0
84210,-90.9090909090909,4,2,20,90,0,0
85082,-90.9090909090909,4,2,1,90,0,0
85431,-83.3333333333333,4,2,15,85,0,0
85692,-83.3333333333333,4,2,15,5,0,0
85780,-90.9090909090909,4,2,15,85,0,0
86128,-90.9090909090909,4,2,19,85,0,0
86477,-166.666666666667,4,2,18,85,0,0
86739,-166.666666666667,4,2,1,5,0,0
86826,-83.3333333333333,4,2,19,85,0,0
87349,-90.9090909090909,4,3,22,85,0,0
87524,-90.9090909090909,4,2,15,85,0,0
87873,-90.9090909090909,4,2,19,85,0,0
88221,-90.9090909090909,4,2,15,85,0,0
88570,-90.9090909090909,4,2,19,85,0,0
88919,-90.9090909090909,4,2,20,85,0,0
89181,-90.9090909090909,4,2,1,5,0,0
89268,-90.9090909090909,4,2,13,85,0,0
89966,-90.9090909090909,4,2,14,85,0,0
90489,-90.9090909090909,4,2,20,85,0,0
90576,-90.9090909090909,4,3,22,85,0,0
90663,-90.9090909090909,4,2,20,85,0,0
91710,-90.9090909090909,4,2,18,85,0,0
92059,-166.666666666667,4,2,18,85,0,0
92320,-166.666666666667,4,2,1,5,0,0
92408,-83.3333333333333,4,2,19,85,0,0
92931,-90.9090909090909,4,3,22,85,0,0
93105,-90.9090909090909,4,2,15,85,0,0
93454,-90.9090909090909,4,2,19,85,0,0
93803,-90.9090909090909,4,2,15,85,0,0
94152,-90.9090909090909,4,2,19,85,0,0
94501,-90.9090909090909,4,2,20,85,0,0
94762,-90.9090909090909,4,2,1,5,0,0
94849,-90.9090909090909,4,2,13,85,0,0
95111,-90.9090909090909,4,2,1,5,0,0
95198,-76.9230769230769,4,2,1,85,0,0
95460,-76.9230769230769,4,2,1,5,0,0
95547,-90.9090909090909,4,2,14,85,0,0
95809,-90.9090909090909,4,2,1,5,0,0
95896,-76.9230769230769,4,2,1,85,0,0
96070,-76.9230769230769,4,2,14,85,0,0
96158,-76.9230769230769,4,2,1,5,0,0
96245,-90.9090909090909,4,2,21,85,0,0
96768,-90.9090909090909,4,2,1,85,0,0
97291,-90.9090909090909,4,2,19,85,0,0
97640,-76.9230769230769,4,2,21,75,0,0
97902,-76.9230769230769,4,2,1,5,0,0
97989,-86.9565217391304,4,2,14,75,0,0
98687,-86.9565217391304,4,2,13,75,0,0
99035,-86.9565217391304,4,2,20,75,0,0
99384,-86.9565217391304,4,2,18,75,0,0
99733,-86.9565217391304,4,2,19,75,0,0
100082,-86.9565217391304,4,2,20,75,0,0
100954,-86.9565217391304,4,2,19,75,0,0
101477,-86.9565217391304,4,2,18,75,0,0
101652,-86.9565217391304,4,2,19,75,0,0
101826,-86.9565217391304,4,2,1,75,0,0
102349,-86.9565217391304,4,2,1,85,0,0
103221,-83.3333333333333,4,2,11,85,0,0
103832,-90.9090909090909,4,3,22,85,0,0
103919,-90.9090909090909,4,2,10,85,0,0
104094,-90.9090909090909,4,2,1,85,0,0
104268,-90.9090909090909,4,2,11,85,0,0
104442,-83.3333333333333,4,2,19,85,0,0
104966,-90.9090909090909,4,2,1,85,0,0
105315,-90.9090909090909,4,2,19,85,0,0
105489,-90.9090909090909,4,2,1,85,0,0
105576,-90.9090909090909,4,2,20,85,0,0
105838,-90.9090909090909,4,2,19,85,0,0
106012,-90.9090909090909,4,2,20,85,0,0
106099,-90.9090909090909,4,2,1,85,0,0
106361,-83.3333333333333,4,2,1,85,0,0
106710,-83.3333333333333,4,2,19,85,0,0
107233,-83.3333333333333,4,2,21,85,0,0
107756,-90.9090909090909,4,2,14,85,0,0
107931,-90.9090909090909,4,2,13,85,0,0
108105,-90.9090909090909,4,2,14,85,0,0
108280,-90.9090909090909,4,2,13,85,0,0
108454,-90.9090909090909,4,2,19,85,0,0
108628,-90.9090909090909,4,2,20,85,0,0
108803,-90.9090909090909,4,2,12,90,0,0
109152,-90.9090909090909,4,2,20,90,0,0
109326,-90.9090909090909,4,2,19,90,0,0
109675,-90.9090909090909,4,2,17,90,0,0
110198,-90.9090909090909,4,2,17,95,0,0
110373,-90.9090909090909,4,2,1,95,0,0
110809,-90.9090909090909,4,2,1,85,0,0
110896,-90.9090909090909,4,2,20,85,0,0
111070,-90.9090909090909,4,2,1,85,0,0
111594,-90.9090909090909,4,2,19,85,0,0
111942,-90.9090909090909,4,2,1,70,0,0
112989,-90.9090909090909,4,2,1,80,0,0
113687,-90.9090909090909,4,2,1,85,0,0
114384,-83.3333333333333,4,2,1,75,0,0
114646,-83.3333333333333,4,2,1,5,0,0
114733,-83.3333333333333,4,2,1,75,0,0
115082,-90.9090909090909,4,2,1,75,0,0
118396,-90.9090909090909,4,3,22,75,0,0
118570,-90.9090909090909,4,2,1,75,0,0
119966,-83.3333333333333,4,2,1,75,0,0
120489,-90.9090909090909,4,2,1,75,0,0
123105,-90.9090909090909,4,2,1,60,0,0
124151,-90.9090909090909,4,2,1,70,0,0
124675,-90.9090909090909,4,2,1,75,0,0
125198,-83.3333333333333,4,2,1,75,0,0
125460,-83.3333333333333,4,2,1,5,0,0
125547,-83.3333333333333,4,2,1,80,0,0
125721,-133.333333333333,4,2,1,80,0,0
128338,-166.666666666667,4,2,1,50,0,0
130082,-133.333333333333,4,2,1,50,0,0
130344,-133.333333333333,4,2,1,5,0,0
130431,-133.333333333333,4,2,1,50,0,0
131128,-100,4,2,1,60,0,0
131652,-117.647058823529,4,2,1,60,0,0
136710,-100,4,2,1,60,0,0
137233,-117.647058823529,4,2,1,60,0,0
138628,-117.647058823529,4,3,22,60,0,0
138803,-117.647058823529,4,2,1,60,0,0
138890,-117.647058823529,4,3,22,60,0,0
139152,-117.647058823529,4,2,1,60,0,0
139326,-117.647058823529,4,3,22,60,0,0
139501,-100,4,2,1,60,0,0
140024,-117.647058823529,4,2,1,60,0,0
141158,-117.647058823529,4,2,1,5,0,0
141245,-117.647058823529,4,2,1,60,0,0
142291,-100,4,2,1,60,0,0
142815,-117.647058823529,4,2,1,60,0,0
145082,-117.647058823529,4,2,1,70,0,0
146303,-100,4,2,1,70,0,0
147785,-100,4,2,1,5,0,0
147873,-133.333333333333,4,2,1,50,0,0
150576,-90.9090909090909,4,3,22,50,0,0
150663,-133.333333333333,4,2,1,50,0,0
151971,-133.333333333333,4,2,1,5,0,0
152059,-133.333333333333,4,2,1,50,0,0
152756,-83.3333333333333,4,2,1,60,0,0
153018,-83.3333333333333,4,2,1,5,0,0
153105,-83.3333333333333,4,2,1,60,0,0
153367,-83.3333333333333,4,2,1,60,0,0
153454,-83.3333333333333,4,2,1,60,0,0
153977,-100,4,2,1,60,0,0
154501,-117.647058823529,4,2,1,60,0,0
155373,-100,4,2,1,60,0,0
156245,-100,4,2,1,70,0,0
157553,-100,4,3,22,70,0,0
157640,-83.3333333333333,4,2,1,70,0,0
157815,-83.3333333333333,4,2,1,70,0,0
157989,-83.3333333333333,4,2,1,70,0,0
158163,-100,4,2,1,70,0,0
158861,-83.3333333333333,4,2,1,70,0,0
159646,-100,4,2,1,70,0,0
160431,-83.3333333333333,4,2,1,80,0,0
161477,-83.3333333333333,4,2,19,80,0,0
161826,-166.666666666667,4,2,18,85,0,0
162088,-166.666666666667,4,2,1,5,0,0
162175,-83.3333333333333,4,2,19,85,0,0
162698,-90.9090909090909,4,3,22,85,0,0
162873,-90.9090909090909,4,2,15,85,0,0
163221,-90.9090909090909,4,2,19,85,0,0
163570,-90.9090909090909,4,2,15,85,0,0
163919,-90.9090909090909,4,2,19,85,0,0
164268,-90.9090909090909,4,2,20,85,0,0
164530,-90.9090909090909,4,2,1,5,0,0
164617,-90.9090909090909,4,2,13,85,0,0
165315,-90.9090909090909,4,2,14,85,0,0
165838,-90.9090909090909,4,2,20,85,0,0
165925,-90.9090909090909,4,3,22,85,0,0
166012,-90.9090909090909,4,2,20,85,0,0
166187,-90.9090909090909,4,2,1,85,0,0
166710,-90.9090909090909,4,2,20,85,0,0
167059,-90.9090909090909,4,2,18,85,0,0
167408,-166.666666666667,4,2,18,85,0,0
167669,-166.666666666667,4,2,1,5,0,0
167756,-83.3333333333333,4,2,19,85,0,0
168280,-90.9090909090909,4,3,22,85,0,0
168455,-90.9090909090909,4,2,15,85,0,0
168803,-90.9090909090909,4,2,19,85,0,0
169152,-90.9090909090909,4,2,15,85,0,0
169501,-90.9090909090909,4,2,19,85,0,0
169849,-90.9090909090909,4,2,20,85,0,0
170111,-90.9090909090909,4,2,1,5,0,0
170198,-90.9090909090909,4,2,13,85,0,0
170896,-90.9090909090909,4,2,14,85,0,0
171506,-90.9090909090909,4,3,22,85,0,0
171594,-90.9090909090909,4,2,21,85,0,0
171855,-90.9090909090909,4,2,1,5,0,0
171942,-90.9090909090909,4,2,1,85,0,0
172640,-90.9090909090909,4,2,19,85,0,0
172989,-90.9090909090909,4,2,21,85,0,0
173338,-90.9090909090909,4,2,14,85,0,0
174035,-90.9090909090909,4,2,13,85,0,0
174384,-90.9090909090909,4,2,20,85,0,0
174733,-90.9090909090909,4,2,18,85,0,0
175082,-90.9090909090909,4,2,19,85,0,0
175431,-90.9090909090909,4,2,20,85,0,0
176477,-90.9090909090909,4,2,19,85,0,0
176826,-90.9090909090909,4,2,18,85,0,0
177001,-90.9090909090909,4,2,19,85,0,0
177349,-90.9090909090909,4,2,13,85,0,0
177524,-90.9090909090909,4,2,20,85,0,0
177698,-90.9090909090909,4,2,19,85,0,0
178221,-90.9090909090909,4,2,18,85,0,0
178396,-90.9090909090909,4,2,16,85,0,0
178570,-83.3333333333333,4,2,15,85,0,0
178919,-83.3333333333333,4,2,11,85,0,0
179094,-90.9090909090909,4,2,19,85,0,0
179442,-90.9090909090909,4,2,1,85,0,0
179966,-90.9090909090909,4,2,19,85,0,0
180315,-90.9090909090909,4,2,16,85,0,0
180663,-90.9090909090909,4,2,18,85,0,0
181012,-90.9090909090909,4,2,19,85,0,0
181361,-90.9090909090909,4,2,13,90,0,0
181884,-90.9090909090909,4,2,20,90,0,0
183105,-83.3333333333333,4,2,15,90,0,0
183367,-83.3333333333333,4,2,15,5,0,0
183454,-83.3333333333333,4,2,15,90,0,0
183541,-90.9090909090909,4,2,1,90,0,0
183803,-90.9090909090909,4,2,19,90,0,0
184152,-166.666666666667,4,2,18,85,0,0
184413,-166.666666666667,4,2,1,5,0,0
184501,-83.3333333333333,4,2,19,85,0,0
185024,-90.9090909090909,4,3,22,85,0,0
185199,-90.9090909090909,4,2,15,85,0,0
185547,-90.9090909090909,4,2,19,85,0,0
185896,-90.9090909090909,4,2,15,85,0,0
186245,-90.9090909090909,4,2,19,85,0,0
186594,-90.9090909090909,4,2,20,85,0,0
186855,-90.9090909090909,4,2,1,5,0,0
186942,-90.9090909090909,4,2,13,85,0,0
187640,-90.9090909090909,4,2,14,85,0,0
188163,-90.9090909090909,4,2,20,85,0,0
188251,-90.9090909090909,4,3,22,85,0,0
188338,-90.9090909090909,4,2,20,85,0,0
189384,-90.9090909090909,4,2,18,85,0,0
189733,-166.666666666667,4,2,18,85,0,0
189995,-166.666666666667,4,2,1,5,0,0
190082,-83.3333333333333,4,2,19,85,0,0
190605,-90.9090909090909,4,3,22,85,0,0
190780,-90.9090909090909,4,2,15,85,0,0
191128,-90.9090909090909,4,2,19,85,0,0
191477,-90.9090909090909,4,2,15,85,0,0
191826,-90.9090909090909,4,2,19,85,0,0
192175,-90.9090909090909,4,2,20,85,0,0
192437,-90.9090909090909,4,2,1,5,0,0
192524,-90.9090909090909,4,2,13,85,0,0
192785,-90.9090909090909,4,2,1,5,0,0
192873,-76.9230769230769,4,2,1,85,0,0
193134,-83.3333333333333,4,2,1,5,0,0
193221,-90.9090909090909,4,2,14,85,0,0
193483,-90.9090909090909,4,2,1,5,0,0
193570,-76.9230769230769,4,2,1,85,0,0
193745,-76.9230769230769,4,2,14,85,0,0
193832,-83.3333333333333,4,2,1,5,0,0
193919,-83.3333333333333,4,2,21,85,0,0
194094,-83.3333333333333,4,2,1,85,0,0
194791,-90.9090909090909,4,2,1,85,0,0
194966,-90.9090909090909,4,2,19,85,0,0
195315,-76.9230769230769,4,2,21,75,0,0
195576,-76.9230769230769,4,2,1,5,0,0
195663,-86.9565217391304,4,2,14,75,0,0
196361,-86.9565217391304,4,2,13,75,0,0
196710,-86.9565217391304,4,2,20,75,0,0
197059,-86.9565217391304,4,2,18,75,0,0
197408,-86.9565217391304,4,2,19,75,0,0
197756,-86.9565217391304,4,2,20,75,0,0
197844,-86.9565217391304,4,2,1,75,0,0
198105,-86.9565217391304,4,2,20,75,0,0
198628,-86.9565217391304,4,2,19,75,0,0
199152,-86.9565217391304,4,2,18,75,0,0
199326,-86.9565217391304,4,2,19,75,0,0
200024,-86.9565217391304,4,2,1,85,0,0
200896,-83.3333333333333,4,2,11,85,0,0
201506,-90.9090909090909,4,3,22,85,0,0
201594,-83.3333333333333,4,2,10,85,0,0
201768,-83.3333333333333,4,2,1,85,0,0
201942,-83.3333333333333,4,2,11,85,0,0
202117,-83.3333333333333,4,2,19,85,0,0
202640,-90.9090909090909,4,2,1,85,0,0
202989,-90.9090909090909,4,2,19,85,0,0
203163,-90.9090909090909,4,2,1,85,0,0
203251,-90.9090909090909,4,2,20,85,0,0
203338,-90.9090909090909,4,2,1,85,0,0
203512,-90.9090909090909,4,2,19,85,0,0
203687,-117.647058823529,4,2,20,70,0,0
204210,-117.647058823529,4,2,19,70,0,0
204908,-117.647058823529,4,2,1,70,0,0
205169,-117.647058823529,4,2,1,5,0,0
205256,-117.647058823529,4,2,1,70,0,0
205431,-117.647058823529,4,3,22,70,0,0
205605,-117.647058823529,4,2,1,70,0,0
209268,-100,4,2,1,80,0,0
212059,-100,4,2,1,80,0,0
212582,-83.3333333333333,4,2,1,80,0,0
212669,-83.3333333333333,4,2,1,5,0,0
212931,-83.3333333333333,4,2,1,80,0,0
213018,-83.3333333333333,4,2,1,5,0,0
213280,-83.3333333333333,4,2,1,80,0,0
213628,-100,4,2,1,80,0,0
213977,-83.3333333333333,4,2,1,80,0,0
214501,-100,4,2,1,80,0,0
214849,-83.3333333333333,4,2,1,80,0,0
215373,-100,4,3,22,80,0,0
215547,-100,4,2,1,80,0,0
215983,-100,4,3,22,80,0,0
216070,-100,4,2,1,80,0,0
217378,-100,4,3,22,80,0,0
217466,-100,4,2,1,80,0,0
217553,-100,4,3,22,80,0,0
217641,-100,4,2,1,80,0,0
219035,-100,4,2,1,80,0,0
219646,-100,4,3,22,80,0,0
219734,-100,4,2,1,80,0,0
220082,-83.3333333333333,4,2,1,90,0,0
220431,-83.3333333333333,4,2,16,90,0,0
220605,-83.3333333333333,4,2,1,90,0,0
221826,-83.3333333333333,4,2,18,90,0,0
222001,-83.3333333333333,4,2,1,90,0,0
223221,-83.3333333333333,4,2,19,90,0,0
223570,-83.3333333333333,4,2,1,75,0,0
224617,-83.3333333333333,4,2,21,95,0,0
224791,-83.3333333333333,4,2,1,95,0,0
226012,-166.666666666667,4,2,1,50,0,0
227233,-166.666666666667,4,3,22,50,0,0
227408,-166.666666666667,4,2,1,50,0,0
228192,-166.666666666667,4,3,22,50,0,0
228454,-166.666666666667,4,2,1,50,0,0
228541,-166.666666666667,4,3,22,50,0,0
228803,-166.666666666667,4,2,1,50,0,0
229413,-166.666666666667,4,3,22,50,0,0
229501,-166.666666666667,4,2,1,50,0,0
230024,-166.666666666667,4,3,22,50,0,0
230198,-166.666666666667,4,2,1,50,0,0
230721,-166.666666666667,4,3,22,50,0,0
230896,-166.666666666667,4,2,1,50,0,0
230983,-166.666666666667,4,3,22,50,0,0
231245,-166.666666666667,4,2,1,50,0,0
231506,-166.666666666667,4,3,22,50,0,0
231594,-166.666666666667,4,2,1,50,0,0
234210,-166.666666666667,4,3,22,50,0,0
234384,-166.666666666667,4,2,1,50,0,0
234995,-166.666666666667,4,3,22,50,0,0
235082,-166.666666666667,4,2,1,50,0,0
235867,-166.666666666667,4,3,22,50,0,0
236128,-166.666666666667,4,2,1,50,0,0
236216,-166.666666666667,4,3,22,50,0,0
236477,-166.666666666667,4,2,1,60,0,0
236826,-166.666666666667,4,2,1,60,0,0
237175,-111.111111111111,4,2,1,70,0,0
241187,-83.3333333333333,4,2,1,70,0,0
241710,-111.111111111111,4,2,1,70,0,0
242756,-83.3333333333333,4,2,1,50,0,0
243105,-83.3333333333333,4,2,1,50,0,0
243280,-100,4,2,1,50,0,0
243803,-100,4,2,1,50,0,0
244152,-100,4,2,1,55,0,0
244501,-100,4,2,1,60,0,0
244849,-100,4,2,1,65,0,0
245198,-100,4,2,1,70,0,0
245547,-100,4,2,1,75,0,0
246158,-100,4,2,1,75,0,0
246768,-83.3333333333333,4,2,1,75,0,0
247291,-100,4,2,1,75,0,0
248338,-76.9230769230769,4,2,1,80,0,0
249210,-76.9230769230769,4,2,1,90,0,0
249297,-76.9230769230769,4,2,1,5,0,0
249384,-76.9230769230769,4,2,1,90,0,0
249471,-76.9230769230769,4,2,1,5,0,0
249558,-76.9230769230769,4,2,1,90,0,0
249646,-76.9230769230769,4,2,1,5,0,0
249733,-76.9230769230769,4,2,1,90,0,0
250082,-76.9230769230769,4,2,1,40,0,0
251128,-90.9090909090909,4,2,19,80,0,0
252437,-90.9090909090909,4,2,1,5,0,0
252524,-90.9090909090909,4,2,19,80,0,0
252611,-90.9090909090909,4,2,1,80,0,0
252873,-90.9090909090909,4,2,15,80,0,0
253221,-90.9090909090909,4,2,19,65,0,0
253265,-90.9090909090909,4,2,1,65,0,0
253570,-90.9090909090909,4,2,20,80,0,0
253919,-86.9565217391304,4,2,13,90,0,0
254617,-86.9565217391304,4,2,14,90,0,0
255140,-86.9565217391304,4,2,20,90,0,0
255227,-86.9565217391304,4,3,22,90,0,0
255315,-86.9565217391304,4,2,20,90,0,0
256361,-86.9565217391304,4,2,18,90,0,0
256710,-166.666666666667,4,2,18,90,0,0
256971,-166.666666666667,4,2,1,5,0,0
257059,-80,4,2,19,90,0,0
257582,-86.9565217391304,4,3,22,90,0,0
257756,-86.9565217391304,4,2,15,90,0,0
258105,-86.9565217391304,4,2,19,90,0,0
258454,-86.9565217391304,4,2,15,90,0,0
258803,-86.9565217391304,4,2,19,90,0,0
259152,-86.9565217391304,4,2,20,90,0,0
259413,-86.9565217391304,4,2,1,90,0,0
259501,-86.9565217391304,4,2,13,90,0,0
260198,-86.9565217391304,4,2,14,90,0,0
260895,-86.9565217391304,4,2,21,90,0,0
261070,-86.9565217391304,4,2,1,90,0,0
261942,-86.9565217391304,4,2,19,90,0,0
262030,-86.9565217391304,4,2,1,90,0,0
262117,-86.9565217391304,4,2,19,90,0,0
262291,-86.9565217391304,4,2,21,90,0,0
262640,-86.9565217391304,4,2,14,90,0,0
263338,-86.9565217391304,4,2,13,90,0,0
263687,-86.9565217391304,4,2,20,90,0,0
264035,-86.9565217391304,4,2,18,90,0,0
264384,-86.9565217391304,4,2,19,90,0,0
264733,-86.9565217391304,4,2,20,90,0,0
265605,-86.9565217391304,4,2,19,90,0,0
266128,-86.9565217391304,4,2,18,90,0,0
266303,-86.9565217391304,4,2,19,90,0,0
266652,-86.9565217391304,4,2,13,90,0,0
266826,-86.9565217391304,4,2,20,90,0,0
267001,-86.9565217391304,4,2,19,90,0,0
267524,-86.9565217391304,4,2,18,90,0,0
267698,-86.9565217391304,4,2,16,90,0,0
267873,-80,4,2,15,90,0,0
268221,-80,4,2,11,90,0,0
268396,-86.9565217391304,4,2,19,90,0,0
268745,-86.9565217391304,4,2,1,90,0,0
269268,-86.9565217391304,4,2,19,90,0,0
269617,-86.9565217391304,4,2,16,90,0,0
269966,-86.9565217391304,4,2,18,90,0,0
270315,-86.9565217391304,4,2,19,90,0,0
270402,-86.9565217391304,4,2,1,90,0,0
270663,-86.9565217391304,4,2,13,95,0,0
271187,-86.9565217391304,4,2,20,95,0,0
272059,-86.9565217391304,4,2,1,55,0,0
272408,-86.9565217391304,4,2,15,65,0,0
272756,-86.9565217391304,4,2,15,75,0,0
273105,-86.9565217391304,4,2,19,85,0,0
273454,-166.666666666667,4,2,18,90,0,0
273716,-166.666666666667,4,2,1,5,0,0
273803,-80,4,2,19,90,0,0
274326,-86.9565217391304,4,3,22,90,0,0
274500,-86.9565217391304,4,2,15,90,0,0
274849,-86.9565217391304,4,2,19,90,0,0
275198,-86.9565217391304,4,2,15,90,0,0
275547,-86.9565217391304,4,2,19,90,0,0
275896,-86.9565217391304,4,2,20,90,0,0
276245,-86.9565217391304,4,2,13,90,0,0
276942,-86.9565217391304,4,2,14,90,0,0
277466,-86.9565217391304,4,2,20,90,0,0
277553,-86.9565217391304,4,3,22,90,0,0
277640,-86.9565217391304,4,2,20,90,0,0
278687,-86.9565217391304,4,2,18,90,0,0
279035,-166.666666666667,4,2,18,90,0,0
279297,-166.666666666667,4,2,1,5,0,0
279384,-80,4,2,19,90,0,0
279908,-86.9565217391304,4,3,22,90,0,0
280082,-86.9565217391304,4,2,15,90,0,0
280780,-86.9565217391304,4,2,11,90,0,0
280954,-86.9565217391304,4,2,10,90,0,0
281303,-86.9565217391304,4,2,11,90,0,0
281652,-86.9565217391304,4,3,22,90,0,0
281826,-80,4,2,15,90,0,0
282088,-80,4,2,1,5,0,0
282175,-80,4,2,19,90,0,0
282349,-86.9565217391304,4,2,19,90,0,0
282698,-86.9565217391304,4,2,20,90,0,0
282873,-86.9565217391304,4,2,19,90,0,0
283134,-86.9565217391304,4,2,1,5,0,0
283221,-86.9565217391304,4,2,1,90,0,0
284268,-86.9565217391304,4,2,18,90,0,0
284617,-80,4,2,19,75,0,0
285140,-86.9565217391304,4,2,1,75,0,0
285663,-86.9565217391304,4,2,19,75,0,0
285751,-86.9565217391304,4,2,1,75,0,0
285838,-86.9565217391304,4,2,19,75,0,0
286012,-86.9565217391304,4,2,20,75,0,0
286361,-86.9565217391304,4,2,18,75,0,0
287059,-86.9565217391304,4,2,19,75,0,0
287146,-86.9565217391304,4,2,1,75,0,0
287233,-86.9565217391304,4,2,20,75,0,0
287408,-80,4,2,21,75,0,0
287669,-80,4,2,1,5,0,0
287756,-80,4,2,14,75,0,0
287931,-86.9565217391304,4,2,13,75,0,0
288280,-86.9565217391304,4,2,20,75,0,0
288628,-86.9565217391304,4,2,19,75,0,0
289326,-86.9565217391304,4,2,1,90,0,0
290198,-80,4,2,11,90,0,0
290809,-86.9565217391304,4,3,22,90,0,0
290895,-80,4,2,10,90,0,0
291070,-80,4,2,1,90,0,0
291245,-80,4,2,11,90,0,0
291419,-80,4,2,19,90,0,0
291942,-86.9565217391304,4,2,1,90,0,0
292291,-86.9565217391304,4,2,19,90,0,0
292553,-86.9565217391304,4,2,20,90,0,0
292815,-86.9565217391304,4,2,19,90,0,0
292989,-86.9565217391304,4,2,20,90,0,0
293076,-86.9565217391304,4,2,1,90,0,0
293338,-80,4,2,1,90,0,0
293687,-80,4,2,19,90,0,0
293861,-86.9565217391304,4,2,1,90,0,0
294210,-80,4,2,21,90,0,0
294733,-86.9565217391304,4,2,14,90,0,0
294908,-86.9565217391304,4,2,13,90,0,0
295082,-86.9565217391304,4,2,14,90,0,0
295257,-86.9565217391304,4,2,13,90,0,0
295431,-86.9565217391304,4,2,19,90,0,0
295605,-86.9565217391304,4,2,20,90,0,0
295780,-86.9565217391304,4,2,12,90,0,0
296128,-86.9565217391304,4,2,20,90,0,0
296303,-86.9565217391304,4,2,19,90,0,0
296652,-86.9565217391304,4,2,17,90,0,0
296739,-86.9565217391304,4,2,1,90,0,0
297001,-86.9565217391304,4,2,17,90,0,0
297175,-86.9565217391304,4,2,17,95,0,0
297349,-86.9565217391304,4,2,1,95,0,0
297698,-86.9565217391304,4,2,1,90,0,0
297873,-86.9565217391304,4,2,20,90,0,0
297960,-86.9565217391304,4,2,1,90,0,0
298570,-86.9565217391304,4,2,19,90,0,0
298919,-86.9565217391304,4,2,1,70,0,0
299966,-86.9565217391304,4,2,1,85,0,0
301012,-86.9565217391304,4,2,15,90,0,0
301187,-76.9230769230769,4,2,15,90,0,0
301361,-76.9230769230769,4,2,22,90,0,0
301535,-76.9230769230769,4,2,1,90,0,0
301710,-76.9230769230769,4,2,22,90,0,0
301884,-76.9230769230769,4,2,19,90,0,0
302233,-76.9230769230769,4,2,12,90,0,0
302756,-76.9230769230769,4,2,14,95,0,0
302931,-76.9230769230769,4,2,1,95,0,0
303454,-76.9230769230769,4,2,1,75,0,0
304152,-80,4,2,19,90,0,0
304501,-125,4,2,1,70,0,0
304762,-125,4,2,1,5,0,0
304849,-90.9090909090909,4,2,1,70,0,0
305111,-125,4,2,1,5,0,0
305198,-71.4285714285714,4,2,1,70,0,0
305460,-125,4,2,1,5,0,0
305548,-80,4,2,1,85,0,0
306245,-80,4,2,1,90,0,0
306942,-83.3333333333333,4,2,1,80,0,0
307204,-83.3333333333333,4,2,1,5,0,0
307291,-83.3333333333333,4,2,1,80,0,0
307640,-90.9090909090909,4,2,1,80,0,0
310954,-86.9565217391304,4,3,22,80,0,0
311128,-90.9090909090909,4,2,1,80,0,0
312524,-83.3333333333333,4,2,1,80,0,0
313047,-90.9090909090909,4,2,1,80,0,0
315663,-90.9090909090909,4,2,1,70,0,0
316709,-90.9090909090909,4,2,1,90,0,0
317756,-83.3333333333333,4,2,1,90,0,0
318018,-83.3333333333333,4,2,1,5,0,0
318105,-83.3333333333333,4,2,1,90,0,0
318454,-83.3333333333333,4,2,1,60,0,0
318628,-90.9090909090909,4,2,1,60,0,0
318803,-90.9090909090909,4,2,1,60,0,0
319152,-90.9090909090909,4,2,1,65,0,0
319501,-90.9090909090909,4,2,1,70,0,0
319849,-90.9090909090909,4,2,1,75,0,0
320198,-90.9090909090909,4,2,1,80,0,0
320547,-90.9090909090909,4,2,1,85,0,0
320896,-83.3333333333333,4,2,1,85,0,0
321158,-83.3333333333333,4,2,1,5,0,0
321245,-142.857142857143,4,2,1,60,0,0
321594,-105.263157894737,4,2,1,70,0,0
321942,-76.9230769230769,4,2,1,70,0,0
322030,-76.9230769230769,4,2,1,80,0,0
322640,-76.9230769230769,4,2,23,85,0,0

[Colours]
Combo1 : 164,100,240
Combo2 : 230,110,150
Combo3 : 100,200,200
Combo4 : 130,120,255

[HitObjects]
89,53,417,6,0,L|83:70,1,18.0625003445149,8|8,0:0|0:0,0:0:0:0:
14,46,532,6,0,P|59:29|106:15,1,96.3333351707459,6|10,1:0|0:0,0:0:0:0:
188,54,993,1,8,0:0:0:0:
159,140,1148,1,8,0:0:0:0:
231,194,1301,1,8,0:0:0:0:
279,56,1455,2,0,P|324:70|370:86,1,96.3333351707459,10|10,0:0|0:0,0:0:0:0:
303,248,1916,2,0,L|294:270,5,24.0833337926865,8|0|0|0|0|0,0:0|0:0|0:0|0:0|0:0|0:0,0:0:0:0:
279,352,2378,6,0,P|263:302|246:253,1,96.3333351707459,6|0,1:0|0:0,0:0:0:0:
173,208,2840,1,10,0:0:0:0:
246,153,2993,1,8,0:0:0:0:
216,67,3147,1,8,0:0:0:0:
124,68,3301,2,0,P|78:52|32:37,1,96.3333351707459,8|8,0:0|0:0,0:0:0:0:
99,156,3762,2,0,L|87:191,5,24.0833337926865,6|0|0|0|0|0,1:2|0:0|0:0|0:0|0:0|0:0,0:0:0:0:
75,269,4224,6,0,P|122:267|161:240,1,96.3333351707459,6|10,1:0|0:0,0:0:0:0:
228,302,4685,1,8,0:0:0:0:
307,257,4839,1,8,0:0:0:0:
288,167,4993,1,8,0:0:0:0:
398,271,5147,2,0,P|444:255|490:240,1,96.3333351707459,10|10,0:0|0:0,0:0:0:0:
367,121,5608,2,0,L|374:98,5,24.0833337926865,8|0|0|0|0|0,0:0|0:0|0:0|0:0|0:0|0:0,0:0:0:0:
390,10,6070,6,0,P|404:55|420:101,1,96.3333351707459,6|0,1:0|0:0,0:0:0:0:
451,188,6532,1,10,0:0:0:0:
359,189,6685,1,8,0:0:0:0:
331,276,6839,1,8,0:0:0:0:
405,329,6993,2,0,P|443:301|491:299,1,96.3333351707459,8|8,0:0|0:0,0:0:0:0:
323,367,7455,2,0,L|277:353,2,48.1666675853729,6|2|2,1:2|0:0|0:0,0:0:0:0:
206,278,7916,6,0,P|161:292|115:308,1,96.3333351707459,6|0,1:0|0:0,0:0:0:0:
44,240,8378,1,10,0:0:0:0:
44,240,8532,1,10,0:0:0:0:
44,240,8685,1,10,0:0:0:0:
126,337,8839,2,0,P|171:322|217:307,1,96.3333351707459,10|10,0:0|0:0,0:0:0:0:
274,152,9301,2,0,L|281:175,5,24.0833337926865,6|0|0|0|0|0,1:2|0:0|0:0|0:0|0:0|0:0,0:0:0:0:
203,97,9762,6,0,P|241:69|289:67,1,96.3333351707459,6|0,1:0|0:0,0:0:0:0:
366,148,10224,1,10,0:0:0:0:
366,148,10378,1,10,0:0:0:0:
366,148,10532,1,10,0:0:0:0:
432,225,10685,2,0,P|417:270|402:316,1,96.3333351707459,10|10,0:0|0:0,0:0:0:0:
292,209,11147,2,0,L|299:232,5,24.0833337926865,4|0|0|0|0|0,1:2|0:0|0:0|0:0|0:0|0:0,0:0:0:0:
284,111,11608,6,0,P|269:156|253:202,1,96.3333351707459,6|0,1:0|0:0,0:0:0:0:
156,248,12070,1,10,0:0:0:0:
110,151,12224,1,10,0:0:0:0:
206,105,12378,1,10,0:0:0:0:
252,202,12532,2,0,P|297:217|343:233,1,96.3333351707459,10|8,0:0|0:0,0:0:0:0:
442,271,12993,1,6,1:0:0:0:
396,174,13147,1,10,0:0:0:0:
474,100,13301,1,10,0:0:0:0:
343,233,13455,6,0,B|272:246|215:225|215:225|161:162|169:42|312:45|353:168|214:225|214:225|137:200|99:142,1,637.5,6|0,1:0|0:0,0:0:0:0:
81,153,15315,5,2,1:0:0:0:
64,165,15663,1,2,1:0:0:0:
159,319,16012,5,8,1:2:0:0:
171,315,16100,1,8,0:0:0:0:
183,311,16186,1,8,0:0:0:0:
195,307,16274,1,8,0:0:0:0:
225,288,16362,5,8,1:2:0:0:
183,273,16449,1,8,0:0:0:0:
143,260,16536,1,8,0:0:0:0:
102,249,16623,1,8,0:0:0:0:
42,232,16710,6,0,P|65:159|88:86,1,152.999995330811,6|0,1:2|0:0,0:0:0:0:
156,30,17059,2,0,P|115:0|66:2,1,101.999996887207,12|0,1:2|0:0,0:0:0:0:
179,182,17408,1,2,1:2:0:0:
42,232,17582,1,0,0:0:0:0:
224,93,17756,2,0,P|268:106|312:122,1,93.5000028533936,8|0,0:0|0:0,0:0:0:0:
447,321,18105,6,0,P|403:334|359:350,1,93.5000028533936,2|0,1:2|0:0,0:0:0:0:
255,180,18454,1,8,0:0:0:0:
358,350,18628,1,2,0:0:0:0:
484,180,18803,2,0,P|439:164|395:150,1,93.5000028533936,2|0,1:2|0:0,0:0:0:0:
244,357,19152,2,0,P|288:341|332:327,1,93.5000028533936,10|0,0:0|0:0,0:0:0:0:
117,124,19501,6,0,B|67:168|67:168|109:297,1,187.000005706787,2|8,1:0|0:0,0:0:0:0:
212,160,20024,1,0,0:0:0:0:
124,366,20198,2,0,P|77:365|39:339,1,93.5000028533936,2|0,1:0|0:0,0:0:0:0:
240,240,20547,1,8,0:0:0:0:
63,53,20721,5,0,0:0:0:0:
63,53,20809,1,2,0:0:0:0:
63,53,20896,2,0,P|92:141|120:231,1,187.000005706787,2|8,1:0|0:0,0:0:0:0:
300,131,21419,1,2,0:0:0:0:
295,91,21506,1,2,0:0:0:0:
274,66,21593,1,2,1:2:0:0:
154,132,21768,1,2,0:0:0:0:
380,7,21942,2,0,P|424:20|468:35,1,93.5000028533936,10|0,0:0|0:0,0:0:0:0:
334,285,22291,6,0,P|256:222|157:229,1,203.999993774414,6|10,1:2|0:0,0:0:0:0:
291,365,22815,1,0,0:0:0:0:
501,245,22989,2,0,P|485:289|472:334,1,93.5000028533936,2|0,1:2|0:0,0:0:0:0:
315,148,23338,2,0,P|330:192|343:237,1,93.5000028533936,10|0,0:0|0:0,0:0:0:0:
116,378,23687,6,0,P|69:377|32:350,1,93.5000028533936,2|0,1:0|0:0,0:0:0:0:
240,202,24035,2,0,P|262:242|258:288,1,93.5000028533936,10|0,0:0|0:0,0:0:0:0:
19,191,24384,2,0,P|42:151|84:132,1,93.5000028533936,2|8,1:0|0:0,0:0:0:0:
96,138,24646,1,8,0:0:0:0:
104,149,24733,2,0,L|148:163,1,46.7500014266968,8|8,1:2|0:0,0:0:0:0:
362,242,24908,1,4,0:3:0:0:
393,232,24995,1,8,0:3:0:0:
425,221,25082,5,14,0:0:0:0:
431,213,25431,1,0,1:0:0:0:
356,287,25605,1,0,1:0:0:0:
220,193,25780,1,2,1:0:0:0:
145,321,25954,1,0,1:0:0:0:
171,132,26128,1,0,1:0:0:0:
276,259,26303,1,0,1:0:0:0:
193,60,26477,5,10,0:0:0:0:
107,258,26652,1,8,0:0:0:0:
311,86,26826,1,8,0:0:0:0:
44,97,27001,1,8,0:0:0:0:
263,311,27175,1,10,0:0:0:0:
330,2,27349,1,8,0:0:0:0:
305,8,27436,1,8,0:0:0:0:
281,16,27523,1,8,1:2:0:0:
258,23,27610,1,4,0:3:0:0:
234,31,27698,2,0,L|219:75,1,46.7500014266968,8|8,0:3|0:3,0:0:0:0:
414,267,27873,6,0,B|440:233|445:188|419:153|419:153|378:135|346:173,1,203.999993774414,4|2,1:2|1:2,0:0:0:0:
263,311,28396,1,2,0:0:0:0:
186,248,28570,2,0,P|155:257|125:268,1,63.7500024318696,2|0,1:2|0:0,0:0:0:0:
60,344,28919,2,0,P|24:331|-15:319,1,63.7500024318696,2|2,1:0|0:0,0:0:0:0:
4,228,29268,6,0,P|63:249|124:267,1,127.500004863739,0|2,1:2|1:0,0:0:0:0:
237,95,29966,1,2,1:0:0:0:
416,253,30227,1,2,0:0:0:0:
412,267,30314,1,0,1:0:0:0:
325,308,30489,1,2,0:0:0:0:
446,144,30663,6,0,P|425:85|407:24,1,127.500004863739,2|2,1:0|1:2,0:0:0:0:
317,166,31187,1,2,0:0:0:0:
237,95,31361,2,0,P|206:104|176:115,1,63.7500024318696,0|0,1:0|0:0,0:0:0:0:
105,194,31710,2,0,P|75:183|44:174,1,63.7500024318696,0|0,1:2|0:0,0:0:0:0:
181,319,32059,6,0,P|240:298|301:280,1,127.500004863739,2|2,1:2|1:0,0:0:0:0:
457,384,32583,1,2,0:0:0:0:
364,384,32757,2,0,P|372:353|383:323,1,63.7500024318696,0|0,1:0|0:0,0:0:0:0:
482,136,33105,2,0,L|451:145,1,31.8750012159348,2|2,1:0|0:0,0:0:0:0:
354,232,33280,2,0,L|384:241,1,31.8750012159348,2|2,0:0|0:0,0:0:0:0:
383,97,33454,6,0,P|407:168|432:250,1,161.499995687485,6|0,1:2|1:0,0:0:0:0:
371,359,33977,1,2,0:0:0:0:
246,257,34152,2,0,P|185:236|124:217,1,127.500004863739,2|0,1:0|1:0,0:0:0:0:
53,306,34675,1,2,0:0:0:0:
0,147,34849,6,0,P|30:136|60:127,1,63.7500024318696,2|0,1:0|0:0,0:0:0:0:
134,34,35198,2,0,P|164:43|194:54,1,63.7500024318696,2|0,1:0|0:0,0:0:0:0:
5,159,35547,2,0,P|35:148|65:139,1,63.7500024318696,2|0,1:0|0:0,0:0:0:0:
139,46,35896,2,0,P|169:55|199:66,1,63.7500024318696,2|0,1:0|0:0,0:0:0:0:
305,278,36245,6,0,P|323:217|344:156,1,127.500004863739,2|0,1:2|1:0,0:0:0:0:
234,219,36768,1,0,0:0:0:0:
308,370,36942,2,0,P|338:359|368:350,1,63.7500024318696,0|0,1:0|0:0,0:0:0:0:
472,279,37291,2,0,P|442:268|412:259,1,63.7500024318696,0|0,1:0|0:0,0:0:0:0:
215,346,37640,5,6,1:0:0:0:
257,109,37815,1,10,0:0:0:0:
257,109,37902,1,8,0:0:0:0:
257,109,37989,1,8,0:0:0:0:
336,277,38163,1,6,1:0:0:0:
387,14,38512,5,2,1:0:0:0:
387,14,38599,1,8,2:0:0:0:
387,14,38687,2,0,L|356:23,1,31.8750012159348,8|8,0:0|0:0,0:0:0:0:
202,166,38861,1,10,0:3:0:0:
15,67,39035,6,0,B|36:134|36:134|19:168|19:168|37:227,1,170,6|8,1:0|0:0,0:0:0:0:
73,341,39559,1,0,0:0:0:0:
143,264,39733,2,0,P|177:252|211:241,1,72.2500013780594,0|0,1:0|0:0,0:0:0:0:
367,322,40082,1,10,0:0:0:0:
367,322,40256,1,2,0:0:0:0:
321,144,40431,6,0,P|309:178|298:212,1,72.2500013780594,2|0,1:0|0:0,0:0:0:0:
448,296,40780,2,0,P|436:261|424:227,1,72.2500013780594,10|0,0:0|0:0,0:0:0:0:
266,360,41128,2,0,P|300:348|334:337,1,72.2500013780594,2|0,1:0|0:0,0:0:0:0:
482,163,41477,2,0,P|448:151|414:140,1,72.2500013780594,10|0,0:0|0:0,0:0:0:0:
227,67,41826,6,0,B|208:42|205:11|223:-14|223:-14|252:-26|275:0,1,144.500002756119,2|10,1:0|0:0,0:0:0:0:
321,144,42349,1,2,0:0:0:0:
208,252,42524,5,2,1:0:0:0:
198,222,42640,2,0,L|152:207,1,48.1666675853729,2|2,0:0|0:0,0:0:0:0:
55,322,42873,5,10,0:0:0:0:
65,292,42989,2,0,L|103:279,2,24.0833337926865,2|2|2,0:0|0:0|0:0,0:0:0:0:
134,167,43221,6,0,P|186:182|237:200,1,108.375002067089,2|0,1:0|0:0,0:0:0:0:
247,195,43570,1,10,0:0:0:0:
375,0,43745,2,0,P|397:68|418:137,1,144.500002756119,2|0,0:0|0:0,0:0:0:0:
334,254,44268,1,8,0:0:0:0:
224,53,44442,5,0,0:0:0:0:
224,53,44530,1,2,0:0:0:0:
224,53,44617,2,0,B|277:100|277:100|246:194,1,170,6|10,1:0|0:0,0:0:0:0:
109,108,45140,2,0,P|143:119|177:131,1,72.2500013780594,2|0,0:0|1:0,0:0:0:0:
92,249,45489,2,0,P|57:260|23:272,1,72.2500013780594,2|8,0:0|0:0,0:0:0:0:
147,340,45838,1,2,0:0:0:0:
245,194,46012,6,0,P|280:205|314:217,1,72.2500013780594,2|0,1:0|0:0,0:0:0:0:
186,351,46361,2,0,P|178:315|171:279,1,72.2500013780594,10|0,0:0|0:0,0:0:0:0:
348,330,46710,2,0,P|320:354|293:378,1,72.2500013780594,2|0,1:0|1:2,0:0:0:0:
283,373,46971,1,0,1:0:0:0:
272,368,47059,2,0,L|237:356,1,36.1250006890297,8|8,0:0|0:0,0:0:0:0:
53,276,47233,2,0,L|88:264,1,36.1250006890297,6|8,0:3|0:3,0:0:0:0:
301,126,47408,5,6,1:2:0:0:
306,119,47756,1,0,1:0:0:0:
241,233,47931,1,0,1:0:0:0:
200,80,48105,1,0,1:0:0:0:
314,202,48280,1,0,1:0:0:0:
334,38,48454,1,8,0:0:0:0:
209,249,48628,6,0,P|129:222|48:197,1,170,4|0,1:0|1:0,0:0:0:0:
98,97,49152,1,8,0:0:0:0:
10,339,49326,1,0,1:0:0:0:
41,328,49413,1,8,0:0:0:0:
72,318,49500,1,8,0:0:0:0:
127,186,49675,1,4,0:3:0:0:
181,316,49849,1,10,0:3:0:0:
35,166,50024,1,8,0:3:0:0:
163,20,50198,6,0,P|223:38|284:58,1,127.500004863739,6|0,1:2|0:0,0:0:0:0:
220,132,50721,1,2,1:0:0:0:
345,230,50896,2,0,P|401:211|458:193,2,95.6250036478044,10|2|2,0:0|0:0|1:0,0:0:0:0:
233,379,51594,6,0,P|193:330|197:268,1,127.500004863739,2|0,1:0|0:0,0:0:0:0:
291,174,52117,1,2,1:0:0:0:
224,384,52291,2,0,P|184:335|188:273,1,127.500004863739,10|0,0:0|0:0,0:0:0:0:
57,165,52815,5,0,0:0:0:0:
57,165,52902,1,2,0:0:0:0:
57,165,52989,2,0,P|117:145|178:126,1,127.500004863739,2|2,1:0|0:0,0:0:0:0:
81,66,53512,1,2,1:0:0:0:
144,227,53687,6,0,P|164:287|183:348,2,127.500004863739,10|2|2,0:0|0:0|1:0,0:0:0:0:
319,85,54559,2,0,P|299:145|280:206,1,127.500004863739,8|0,0:0|1:0,0:0:0:0:
82,31,55082,6,0,B|159:25|159:25|216:75,1,152.999995330811,14|0,0:0|0:0,0:0:0:0:
176,200,55431,6,0,B|98:205|98:205|41:155,1,152.999995330811,14|0,0:0|0:0,0:0:0:0:
129,113,55780,5,6,1:2:0:0:
74,287,55954,1,2,0:0:0:0:
0,72,56128,1,10,0:0:0:0:
188,235,56303,2,0,P|258:211|329:189,1,144.500002756119,6|2,1:2|1:2,0:0:0:0:
425,278,56826,1,10,0:0:0:0:
316,58,57001,5,10,0:0:0:0:
308,82,57088,1,8,0:0:0:0:
300,105,57175,1,6,1:0:0:0:
416,120,57349,1,2,1:0:0:0:
228,5,57524,1,10,0:0:0:0:
193,247,57698,2,0,P|261:224|330:203,1,144.500002756119,6|0,1:0|1:0,0:0:0:0:
279,358,58221,1,8,0:0:0:0:
399,255,58396,1,2,1:0:0:0:
132,176,58570,6,0,P|92:225|96:287,1,127.500004863739,14|0,0:0|0:0,0:0:0:0:
113,305,58919,5,8,0:0:0:0:
191,85,59094,1,2,1:0:0:0:
213,340,59268,5,10,0:0:0:0:
298,98,59443,1,0,1:0:0:0:
313,375,59617,5,8,0:0:0:0:
406,108,59791,1,2,1:0:0:0:
219,310,59966,5,2,1:2:0:0:
196,120,60140,1,0,1:0:0:0:
367,223,60315,1,2,1:2:0:0:
141,293,60489,1,0,1:0:0:0:
298,98,60663,1,4,1:3:0:0:
307,292,60838,1,10,0:0:0:0:
307,292,60925,1,8,0:0:0:0:
307,292,61012,1,8,0:0:0:0:
19,180,61187,6,0,P|31:218|45:260,1,85,6|0,1:0|0:0,0:0:0:0:
220,316,61535,1,2,1:0:0:0:
159,62,61710,2,0,P|146:100|132:142,1,85,10|0,0:0|1:0,0:0:0:0:
140,151,61971,1,0,1:0:0:0:
147,161,62059,1,10,0:0:0:0:
382,107,62233,1,0,1:0:0:0:
382,107,62320,1,2,0:0:0:0:
382,107,62408,2,0,L|399:161,1,42.5,8|4,0:0|0:3,0:0:0:0:
489,285,62582,2,0,L|502:244,1,42.5,10|8,0:3|0:3,0:0:0:0:
354,25,62756,5,14,0:0:0:0:
215,315,63454,5,10,0:0:0:0:
227,319,63542,1,8,0:0:0:0:
239,323,63629,1,8,0:0:0:0:
251,327,63716,1,8,0:0:0:0:
262,331,63804,1,10,0:0:0:0:
274,335,63891,1,8,0:0:0:0:
286,339,63978,1,8,0:0:0:0:
298,342,64065,1,8,0:0:0:0:
310,345,64152,6,0,P|321:306|333:272,1,76.4999976654053,6|0,1:2|0:0,0:0:0:0:
326,115,64501,6,0,P|359:211|389:308,1,203.999993774414,14|0,1:2|1:0,0:0:0:0:
468,159,65024,1,0,0:0:0:0:
468,159,65111,1,2,0:0:0:0:
468,159,65198,1,10,0:0:0:0:
387,336,65373,1,2,0:0:0:0:
246,131,65547,6,0,P|202:116|158:103,1,93.5000028533936,2|0,1:2|0:0,0:0:0:0:
282,283,65896,2,0,P|325:267|370:254,1,93.5000028533936,10|0,0:0|0:0,0:0:0:0:
114,189,66245,1,2,1:2:0:0:
225,362,66419,1,0,0:0:0:0:
156,119,66594,2,0,P|88:112|37:158,1,140.25000428009,10|0,0:0|0:0,0:0:0:0:
34,264,66942,6,0,P|128:231|223:202,1,187.000005706787,2|8,1:2|0:0,0:0:0:0:
247,73,67466,1,0,0:0:0:0:
192,315,67640,2,0,P|281:342|369:373,1,187.000005706787,2|8,1:2|0:0,0:0:0:0:
421,175,68163,2,0,L|373:190,1,46.7500014266968,2|2,0:0|0:0,0:0:0:0:
487,267,68338,6,0,P|513:229|513:183,1,93.5000028533936,2|0,1:2|0:0,0:0:0:0:
403,105,68687,2,0,P|376:142|376:188,1,93.5000028533936,8|0,0:0|0:0,0:0:0:0:
192,315,69035,2,0,P|236:299|280:286,1,93.5000028533936,2|0,1:2|0:0,0:0:0:0:
52,85,69384,2,0,P|97:98|142:113,1,93.5000028533936,10|0,0:0|0:0,0:0:0:0:
58,354,69733,2,0,P|26:333|10:299,1,76.4999976654053,6|0,1:2|0:0,0:0:0:0:
52,174,70082,6,0,P|35:270|104:340,1,203.999993774414,14|0,1:2|1:0,0:0:0:0:
200,189,70605,1,0,0:0:0:0:
200,189,70692,1,2,0:0:0:0:
200,189,70780,1,10,0:0:0:0:
104,340,70954,1,2,0:0:0:0:
179,89,71128,6,0,P|223:102|267:117,1,93.5000028533936,2|0,1:2|0:0,0:0:0:0:
376,295,71477,2,0,P|420:279|465:266,1,93.5000028533936,10|0,0:0|0:0,0:0:0:0:
356,93,71826,1,2,1:2:0:0:
289,278,72001,1,0,0:0:0:0:
433,55,72175,2,0,P|382:9|314:16,1,140.25000428009,10|0,0:0|0:0,0:0:0:0:
236,131,72524,6,0,B|212:99|207:58|231:26|231:26|269:9|298:44,1,187.000005706787,2|8,1:2|0:0,0:0:0:0:
319,191,73047,1,0,0:0:0:0:
196,11,73221,2,0,B|142:-3|106:48|131:44|93:96|34:76,1,187.000005706787,2|8,1:2|0:0,0:0:0:0:
127,244,73745,2,0,L|110:293,1,46.7500014266968,2|2,0:0|0:0,0:0:0:0:
200,134,73919,6,0,P|222:200|243:267,1,140.25000428009,6|0,1:2|0:0,0:0:0:0:
226,350,74268,2,0,P|272:349|309:322,1,93.5000028533936,8|0,0:0|0:0,0:0:0:0:
363,181,74617,1,4,0:3:0:0:
469,378,74791,1,8,0:0:0:0:
440,359,74878,1,8,0:0:0:0:
408,357,74965,1,10,0:0:0:0:
377,161,75140,1,10,0:0:0:0:
409,159,75227,1,8,0:0:0:0:
438,140,75315,6,0,P|422:95|409:51,1,93.5000028533936,14|0,1:2|0:0,0:0:0:0:
168,190,75663,2,0,P|183:145|196:101,1,93.5000028533936,14|0,1:2|0:0,0:0:0:0:
307,297,76012,2,0,P|260:306|215:317,1,93.5000028533936,2|0,1:2|0:0,0:0:0:0:
348,134,76361,2,0,P|379:169|411:202,1,93.5000028533936,10|0,0:0|0:0,0:0:0:0:
136,338,76710,6,0,P|137:291|165:255,1,93.5000028533936,2|0,1:2|0:0,0:0:0:0:
40,75,77059,2,0,P|41:122|69:158,1,93.5000028533936,10|0,0:0|0:0,0:0:0:0:
269,77,77408,2,0,P|227:54|182:60,1,93.5000028533936,2|0,1:2|0:0,0:0:0:0:
134,272,77756,2,0,P|174:247|191:205,1,93.5000028533936,10|0,0:0|0:0,0:0:0:0:
357,384,78105,6,0,B|381:352|386:311|362:279|362:279|324:262|295:297,1,187.000005706787,2|8,1:2|0:0,0:0:0:0:
155,382,78628,1,2,0:0:0:0:
245,126,78803,2,0,P|260:170|274:214,1,93.5000028533936,2|0,1:2|0:0,0:0:0:0:
443,272,79152,1,10,0:0:0:0:
404,48,79326,2,0,P|388:92|374:136,1,93.5000028533936,2|0,0:0|1:0,0:0:0:0:
416,349,79675,5,2,0:0:0:0:
497,129,79849,1,10,0:0:0:0:
274,214,80024,2,0,P|230:198|186:184,1,93.5000028533936,2|0,0:0|1:2,0:0:0:0:
357,303,80373,1,2,0:0:0:0:
304,140,80547,1,10,0:0:0:0:
244,302,80721,1,2,0:0:0:0:
301,29,80896,6,0,B|363:12|405:71|376:67|420:127|488:104,1,203.999993774414,6|10,1:2|0:0,0:0:0:0:
409,300,81419,2,0,P|364:314|320:330,1,93.5000028533936,2|0,0:0|1:2,0:0:0:0:
403,171,81768,1,0,0:0:0:0:
350,384,81942,2,0,P|306:368|261:353,1,93.5000028533936,8|0,0:0|0:0,0:0:0:0:
30,265,82291,6,0,P|73:249|118:235,1,93.5000028533936,2|0,1:2|0:0,0:0:0:0:
211,51,82640,2,0,P|255:64|299:80,1,93.5000028533936,10|0,0:0|0:0,0:0:0:0:
431,230,82989,1,2,1:2:0:0:
269,157,83163,1,0,1:2:0:0:
438,48,83338,1,10,0:0:0:0:
285,254,83512,5,0,1:2:0:0:
285,254,83599,1,0,1:0:0:0:
285,254,83687,5,14,0:0:0:0:
512,107,83861,1,0,1:0:0:0:
264,10,84035,1,0,1:0:0:0:
449,254,84210,5,14,0:0:0:0:
187,248,84384,1,2,1:2:0:0:
410,109,84559,1,0,1:0:0:0:
272,384,84733,5,12,0:0:0:0:
243,85,84908,1,0,1:0:0:0:
118,318,85082,2,0,L|103:273,1,46.7500014266968,8|8,0:3|0:3,0:0:0:0:
15,101,85256,2,0,L|0:145,1,46.7500014266968,0|0,1:0|1:0,0:0:0:0:
220,274,85431,6,0,B|243:202|243:202|168:178,1,152.999995330811,14|0,0:0|0:0,0:0:0:0:
151,182,85780,1,10,1:2:0:0:
131,189,85867,1,8,0:0:0:0:
109,198,85954,2,0,L|123:153,1,46.7500014266968,8|8,0:0|0:0,0:0:0:0:
303,39,86129,1,10,1:2:0:0:
325,48,86216,1,8,0:0:0:0:
347,57,86303,2,0,L|361:102,1,46.7500014266968,8|8,0:0|0:0,0:0:0:0:
490,255,86477,6,0,P|510:223|512:185,1,76.4999976654053,6|0,1:2|0:0,0:0:0:0:
386,305,86826,6,0,P|466:247|476:148,1,203.999993774414,14|0,1:2|1:0,0:0:0:0:
356,18,87349,1,0,0:0:0:0:
356,18,87437,1,2,0:0:0:0:
356,18,87524,1,10,0:0:0:0:
389,198,87698,1,2,0:0:0:0:
237,20,87873,6,0,P|192:33|148:48,1,93.5000028533936,2|0,1:2|0:0,0:0:0:0:
14,203,88221,2,0,P|59:216|103:231,1,93.5000028533936,10|0,0:0|0:0,0:0:0:0:
217,98,88570,1,2,1:2:0:0:
255,296,88745,1,0,0:0:0:0:
140,63,88919,2,0,P|190:17|258:25,1,140.25000428009,10|0,0:0|0:0,0:0:0:0:
326,156,89268,6,0,P|361:78|286:37,1,187.000005706787,2|8,1:2|0:0,0:0:0:0:
180,162,89791,1,0,0:0:0:0:
405,0,89966,2,0,P|445:83|422:172,1,187.000005706787,2|8,1:2|0:0,0:0:0:0:
259,287,90489,2,0,L|239:227,1,46.7500014266968,2|2,0:0|0:0,0:0:0:0:
153,93,90663,6,0,P|137:139|124:181,1,93.5000028533936,2|0,1:2|0:0,0:0:0:0:
13,23,91012,2,0,P|28:67|42:111,1,93.5000028533936,8|0,0:0|0:0,0:0:0:0:
186,307,91361,2,0,P|141:291|97:278,1,93.5000028533936,2|0,1:2|0:0,0:0:0:0:
362,86,91710,2,0,P|317:99|272:114,1,93.5000028533936,10|0,0:0|0:0,0:0:0:0:
508,295,92059,6,0,P|469:282|432:270,1,76.4999976654053,6|0,1:2|0:0,0:0:0:0:
262,294,92408,6,0,P|358:261|456:230,1,203.999993774414,14|0,1:2|1:0,0:0:0:0:
356,96,92931,1,0,0:0:0:0:
356,96,93018,1,2,0:0:0:0:
356,96,93105,1,10,0:0:0:0:
455,230,93280,1,2,0:0:0:0:
367,0,93454,6,0,P|322:13|277:28,1,93.5000028533936,2|0,1:2|0:0,0:0:0:0:
163,189,93803,2,0,P|119:174|74:161,1,93.5000028533936,10|0,0:0|0:0,0:0:0:0:
194,72,94152,1,2,1:2:0:0:
142,272,94326,1,0,0:0:0:0:
5,87,94501,2,0,P|50:73|95:59,1,93.5000028533936,10|0,0:0|0:0,0:0:0:0:
173,155,94849,5,2,1:2:0:0:
173,155,95024,1,0,0:0:0:0:
47,338,95198,2,0,P|98:317|151:305,1,110.499994941712,12|0,0:0|0:0,0:0:0:0:
238,199,95547,5,2,1:2:0:0:
238,199,95722,1,0,0:0:0:0:
416,384,95896,2,0,P|364:362|310:351,1,110.499994941712,12|2,0:0|0:0,0:0:0:0:
480,225,96245,5,2,1:2:0:0:
339,78,96419,1,8,0:0:0:0:
390,290,96594,1,8,0:0:0:0:
512,96,96768,1,8,0:0:0:0:
489,105,96855,1,8,0:0:0:0:
464,114,96942,1,0,1:0:0:0:
439,123,97029,1,8,0:0:0:0:
415,132,97117,1,4,0:3:0:0:
390,140,97204,1,4,0:3:0:0:
365,149,97291,2,0,L|345:88,1,46.7500014266968,2|8,1:2|0:3,0:0:0:0:
227,0,97466,2,0,L|212:44,1,46.7500014266968,2|8,3:2|0:3,0:0:0:0:
89,238,97640,6,0,P|152:187|233:189,1,165.749992412568,6|0,1:2|0:0,0:0:0:0:
261,214,97989,2,0,P|245:261|229:310,1,97.7500018644333,14|8,1:2|0:0,0:0:0:0:
244,316,98251,1,8,0:0:0:0:
258,324,98338,1,10,1:2:0:0:
395,191,98512,1,8,0:0:0:0:
379,186,98599,1,8,0:0:0:0:
363,181,98686,1,10,1:2:0:0:
512,49,98861,2,0,L|498:96,1,48.8750009322167,8|8,0:0|0:0,0:0:0:0:
442,286,99035,5,6,1:2:0:0:
274,138,99210,1,8,0:0:0:0:
290,133,99297,1,8,0:0:0:0:
306,128,99384,1,10,1:2:0:0:
491,11,99559,1,8,0:0:0:0:
512,49,99646,1,8,0:0:0:0:
510,92,99733,1,10,1:2:0:0:
486,128,99820,1,8,0:0:0:0:
447,148,99907,1,8,0:0:0:0:
287,3,100082,1,2,1:2:0:0:
436,66,100256,2,0,L|389:52,1,48.8750009322167,8|8,0:0|0:0,0:0:0:0:
181,167,100431,6,0,P|227:151|274:137,1,97.7500018644333,6|8,1:2|0:0,0:0:0:0:
279,120,100692,1,8,0:0:0:0:
282,103,100780,1,8,1:2:0:0:
104,21,100954,1,10,0:0:0:0:
109,37,101041,1,8,0:0:0:0:
114,53,101128,1,10,1:2:0:0:
50,273,101303,6,0,L|109:260,1,48.8750009322167,8|8,0:0|0:0,0:0:0:0:
146,122,101477,2,0,L|130:168,1,48.8750009322167,10|8,1:2|0:0,0:0:0:0:
224,280,101652,2,0,L|183:234,1,48.8750009322167,10|8,0:0|0:0,0:0:0:0:
248,67,101826,6,0,P|296:68|335:96,1,97.7500018644333,4|8,1:2|0:0,0:0:0:0:
329,112,102088,1,8,0:0:0:0:
324,128,102175,1,8,1:2:0:0:
477,305,102349,5,6,0:3:0:0:
498,267,102436,1,6,0:3:0:0:
496,224,102523,1,2,1:0:0:0:
472,188,102610,1,2,0:0:0:0:
433,168,102697,1,10,0:3:0:0:
389,178,102785,1,10,0:3:0:0:
372,219,102873,1,2,1:0:0:0:
378,235,102960,1,2,0:0:0:0:
383,251,103047,1,2,1:0:0:0:
388,267,103134,1,2,1:0:0:0:
388,306,103221,6,0,P|418:208|450:111,1,203.999993774414,6|8,1:2|0:0,0:0:0:0:
343,0,103745,1,0,1:0:0:0:
343,0,103832,1,2,0:0:0:0:
343,0,103919,1,2,0:0:0:0:
287,192,104094,1,0,1:0:0:0:
216,12,104268,1,10,0:0:0:0:
437,248,104442,6,0,B|462:213|467:169|442:134|442:134|400:115|370:153,1,203.999993774414,6|0,1:2|1:0,0:0:0:0:
310,311,104966,2,0,P|262:294|211:278,1,93.5000028533936,8|8,0:0|0:0,0:0:0:0:
209,292,105227,5,8,0:0:0:0:
195,301,105315,2,0,L|180:257,1,46.7500014266968,2|0,1:2|0:0,0:0:0:0:
233,123,105488,1,0,1:0:0:0:
247,130,105576,2,0,L|216:164,1,46.7500014266968,2|8,0:0|0:0,0:0:0:0:
74,195,105750,1,0,0:0:0:0:
73,178,105838,2,0,L|117:187,1,46.7500014266968,2|0,1:2|0:0,0:0:0:0:
49,352,106012,1,6,3:2:0:0:
46,343,106099,1,4,0:3:0:0:
43,334,106186,1,8,0:3:0:0:
40,325,106274,1,0,1:0:0:0:
63,301,106361,6,0,B|125:284|167:343|138:339|182:399|250:376,1,203.999993774414,12|2,0:2|1:2,0:2:0:0:
328,215,106884,1,8,0:0:0:0:
328,215,106971,1,8,0:0:0:0:
328,215,107059,1,8,0:0:0:0:
138,35,107233,6,0,P|165:118|201:230,1,203.999993774414,6|0,1:2|1:0,0:0:0:0:
291,83,107756,1,10,0:0:0:0:
132,213,107931,2,0,L|146:168,1,46.7500014266968,10|8,0:0|0:0,0:0:0:0:
212,0,108105,1,2,1:2:0:0:
57,125,108280,1,2,1:2:0:0:
0,0,108454,5,10,0:0:0:0:
193,193,108628,1,10,0:0:0:0:
193,193,108715,1,8,0:0:0:0:
193,193,108803,5,6,1:2:0:0:
112,0,108977,1,0,1:0:0:0:
96,308,109152,5,10,0:0:0:0:
193,77,109326,1,2,1:2:0:0:
191,374,109501,5,8,0:0:0:0:
302,108,109675,1,2,1:2:0:0:
391,332,109849,1,8,0:0:0:0:
267,25,110024,5,2,1:2:0:0:
267,25,110111,1,0,1:0:0:0:
267,25,110198,5,14,1:2:0:0:
512,258,110373,1,14,1:2:0:0:
191,374,110547,1,14,1:2:0:0:
175,377,110809,5,8,0:0:0:0:
159,380,110896,2,0,L|144:336,1,46.7500014266968,10|8,0:0|0:0,0:0:0:0:
219,173,111070,2,0,L|204:217,1,46.7500014266968,4|4,0:3|0:3,0:0:0:0:
42,275,111245,1,8,0:3:0:0:
37,259,111332,1,8,0:3:0:0:
32,244,111419,1,8,0:3:0:0:
27,228,111506,1,8,0:3:0:0:
22,213,111593,5,6,1:2:0:0:
30,202,111942,1,2,1:0:0:0:
117,284,112117,1,0,1:0:0:0:
198,152,112291,1,2,1:0:0:0:
232,274,112466,1,0,1:0:0:0:
104,160,112640,1,2,1:0:0:0:
254,97,112815,1,0,1:0:0:0:
0,74,112989,5,10,0:2:0:0:
213,257,113163,1,8,0:0:0:0:
141,0,113338,1,8,0:0:0:0:
35,252,113512,1,8,0:0:0:0:
298,77,113687,1,8,1:2:0:0:
298,77,113774,1,8,0:0:0:0:
298,77,113861,2,0,L|242:59,1,46.7500014266968,8|8,0:0|0:0,0:0:0:0:
301,233,114035,1,8,1:2:0:0:
301,233,114122,1,8,0:0:0:0:
301,233,114209,2,0,L|346:219,1,46.7500014266968,8|8,0:0|0:0,0:0:0:0:
171,78,114384,6,0,P|120:132|131:205,1,152.999995330811,6|0,1:2|0:0,0:0:0:0:
205,266,114733,2,0,P|253:249|301:234,1,101.999996887207,12|0,1:2|0:0,0:0:0:0:
406,129,115082,1,2,1:0:0:0:
376,317,115256,1,0,0:0:0:0:
417,95,115431,2,0,P|372:79|328:65,1,93.5000028533936,8|0,0:0|0:0,0:0:0:0:
189,270,115780,6,0,P|233:254|277:240,1,93.5000028533936,2|0,1:0|0:0,0:0:0:0:
432,369,116128,1,8,0:0:0:0:
329,169,116303,1,2,0:0:0:0:
217,378,116477,2,0,P|173:362|129:348,1,93.5000028533936,2|0,1:0|0:0,0:0:0:0:
36,176,116826,2,0,P|80:160|124:146,1,93.5000028533936,10|0,0:0|0:0,0:0:0:0:
362,65,117175,6,0,P|272:78|207:16,1,187.000005706787,2|8,1:0|0:0,0:0:0:0:
299,0,117698,1,0,0:0:0:0:
386,157,117873,2,0,P|371:200|356:245,1,93.5000028533936,2|0,1:0|0:0,0:0:0:0:
286,108,118221,1,8,0:0:0:0:
492,240,118396,5,0,0:0:0:0:
492,240,118483,1,2,0:0:0:0:
492,240,118570,2,0,B|530:126|530:126|480:82,1,187.000005706787,2|8,1:0|0:0,0:0:0:0:
299,0,119094,1,2,0:0:0:0:
277,28,119181,1,2,0:0:0:0:
275,66,119268,1,2,1:0:0:0:
401,116,119442,1,2,0:0:0:0:
237,268,119617,1,10,0:0:0:0:
134,91,119791,5,8,0:0:0:0:
172,93,119878,1,8,0:0:0:0:
200,115,119966,2,0,B|138:98|96:157|125:153|81:213|13:190,1,203.999993774414,6|10,1:0|0:0,0:0:0:0:
51,61,120489,1,0,0:0:0:0:
188,204,120663,2,0,P|234:203|271:176,1,93.5000028533936,2|0,1:0|0:0,0:0:0:0:
394,37,121012,2,0,P|440:38|477:65,1,93.5000028533936,10|0,0:0|0:0,0:0:0:0:
299,264,121361,6,0,P|285:219|270:174,1,93.5000028533936,2|0,1:0|0:0,0:0:0:0:
448,331,121710,2,0,P|462:286|477:241,1,93.5000028533936,10|8,0:0|0:0,0:0:0:0:
465,230,121971,1,8,0:0:0:0:
456,215,122059,2,0,L|411:201,3,46.7500014266968,2|4|8|8,1:0|0:3|0:3|0:3,0:0:0:0:
300,343,122408,2,0,L|255:357,1,46.7500014266968,8|8,1:2|0:0,0:0:0:0:
93,182,122582,1,4,0:3:0:0:
125,193,122669,1,8,0:3:0:0:
156,203,122756,5,14,0:0:0:0:
164,215,123105,1,2,1:0:0:0:
123,112,123280,1,0,1:0:0:0:
66,254,123454,1,2,1:0:0:0:
236,177,123628,1,0,1:0:0:0:
47,122,123803,1,2,1:0:0:0:
183,63,123977,1,0,1:0:0:0:
171,266,124152,5,10,0:0:0:0:
27,30,124326,1,8,0:0:0:0:
289,118,124501,1,8,0:0:0:0:
34,232,124675,1,4,0:3:0:0:
34,232,124762,1,4,0:3:0:0:
34,232,124849,2,0,L|78:218,1,46.7500014266968,10|4,1:2|0:3,0:0:0:0:
308,297,125024,2,0,L|250:279,1,46.7500014266968,8|0,0:3|1:0,0:0:0:0:
128,384,125198,6,0,P|151:311|175:238,1,152.999995330811,14|0,0:0|0:0,0:0:0:0:
183,222,125547,5,14,1:2:0:0:
257,0,125721,1,14,1:2:0:0:
28,358,128338,6,0,P|76:341|125:326,1,101.999996887207,6|2,1:0|0:0,0:0:0:0:
185,252,128861,2,0,L|209:259,1,25.4999992218018,6|4,0:3|0:3,0:0:0:0:
193,243,129035,2,0,P|229:253|265:266,2,76.4999976654053,4|8|8,0:3|0:3|0:3,0:0:0:0:
125,173,129733,1,6,0:3:0:0:
253,377,129908,5,0,1:0:0:0:
253,377,129995,1,0,1:0:0:0:
253,377,130082,2,0,P|298:361|344:347,1,95.6250036478044,14|0,0:0|0:0,0:0:0:0:
424,348,130431,2,0,P|422:316|405:290,1,63.7500024318696,4|8,1:0|0:0,0:0:0:0:
388,279,130692,1,8,0:0:0:0:
388,279,130780,1,8,0:0:0:0:
512,107,130954,5,10,0:0:0:0:
512,107,131041,1,8,0:0:0:0:
512,107,131128,2,0,P|431:79|350:54,1,170,6|8,1:0|0:0,0:0:0:0:
398,161,131652,1,2,0:0:0:0:
271,0,131826,2,0,P|249:66|227:137,1,144.500002756119,2|8,1:0|0:0,0:0:0:0:
275,243,132349,1,2,0:0:0:0:
130,133,132524,6,0,P|96:143|62:155,1,72.2500013780594,2|0,1:0|0:0,0:0:0:0:
0,272,132873,2,0,P|34:282|68:294,1,72.2500013780594,10|0,0:0|0:0,0:0:0:0:
135,142,133221,2,0,P|101:152|67:164,1,72.2500013780594,2|0,1:0|0:0,0:0:0:0:
5,281,133570,2,0,P|39:291|73:303,1,72.2500013780594,10|0,0:0|0:0,0:0:0:0:
260,211,133919,6,0,P|215:266|218:337,2,144.500002756119,2|8|0,1:0|0:0|1:0,0:0:0:0:
323,302,134791,1,0,0:0:0:0:
488,195,134966,2,0,P|455:182|420:171,1,72.2500013780594,8|8,0:0|0:0,0:0:0:0:
389,166,135227,5,8,0:0:0:0:
389,166,135315,1,6,1:2:0:0:
257,34,135489,1,4,0:3:0:0:
257,34,135576,1,4,0:3:0:0:
257,34,135663,2,0,L|268:68,1,36.1250006890297,8|8,0:3|0:3,0:0:0:0:
203,253,135838,5,6,1:0:0:0:
198,266,136187,1,6,1:0:0:0:
344,173,136361,1,8,0:0:0:0:
137,357,136535,5,10,0:0:0:0:
137,357,136623,1,8,0:0:0:0:
137,357,136710,2,0,B|116:327|112:291|132:262|132:262|167:246|192:278,1,170,6|8,1:0|0:0,0:0:0:0:
231,364,137233,1,0,0:0:0:0:
87,305,137408,2,0,P|88:269|108:239,1,72.2500013780594,0|0,1:0|0:0,0:0:0:0:
226,170,137756,1,10,0:0:0:0:
226,170,137931,1,2,0:0:0:0:
118,25,138105,6,0,P|82:37|50:49,1,72.2500013780594,2|0,1:0|0:0,0:0:0:0:
154,184,138454,2,0,P|190:196|222:208,1,72.2500013780594,10|0,0:0|0:0,0:0:0:0:
222,208,138716,1,0,0:0:0:0:
222,208,138803,2,0,L|210:242,2,36.1250006890297,2|2|0,1:0|0:0|0:0,0:0:0:0:
63,335,139152,2,0,P|51:300|38:267,1,72.2500013780594,10|0,0:0|0:0,0:0:0:0:
146,176,139413,5,2,0:0:0:0:
146,176,139501,2,0,B|97:162|64:208|86:205|51:252|-1:235,1,170,6|10,1:0|0:0,0:0:0:0:
0,136,140024,1,2,0:0:0:0:
164,275,140198,1,2,1:0:0:0:
63,335,140373,1,2,0:0:0:0:
284,284,140547,1,10,0:0:0:0:
148,153,140721,1,2,0:0:0:0:
241,345,140896,6,0,P|292:327|344:311,1,108.375002067089,2|0,1:0|0:0,0:0:0:0:
356,308,141245,1,10,0:0:0:0:
249,121,141419,1,2,0:0:0:0:
131,356,141594,2,0,P|96:344|62:334,1,72.2500013780594,4|8,1:0|0:0,0:0:0:0:
51,309,141855,1,8,0:0:0:0:
51,309,141942,2,0,L|67:259,1,36.1250006890297,8|4,0:0|0:3,0:0:0:0:
0,88,142117,5,8,0:3:0:0:
0,88,142204,1,8,0:3:0:0:
0,88,142291,2,0,B|49:74|82:120|60:117|95:164|147:147,1,170,6|10,1:0|0:0,0:0:0:0:
213,38,142815,2,0,P|250:49|281:59,1,72.2500013780594,2|0,0:0|1:0,0:0:0:0:
355,164,143163,2,0,P|388:151|423:141,1,72.2500013780594,2|8,0:0|0:0,0:0:0:0:
476,58,143512,1,2,0:0:0:0:
512,265,143687,6,0,P|480:253|444:242,1,72.2500013780594,2|0,1:0|0:0,0:0:0:0:
313,366,144035,2,0,P|342:342|366:318,1,72.2500013780594,10|0,0:0|0:0,0:0:0:0:
320,142,144384,2,0,P|326:176|334:212,1,72.2500013780594,2|0,1:0|1:0,0:0:0:0:
244,295,144733,1,8,0:0:0:0:
92,75,144908,5,6,0:3:0:0:
92,75,144995,1,8,0:3:0:0:
92,75,145082,5,14,1:2:0:0:
300,190,145256,1,0,1:0:0:0:
101,368,145431,5,8,0:0:0:0:
220,136,145605,1,0,1:0:0:0:
74,384,145780,5,8,0:0:0:0:
0,117,145954,1,0,1:0:0:0:
0,117,146128,1,0,1:0:0:0:
229,331,146303,6,0,B|251:300|256:262|233:232|233:232|198:216|170:249,1,170,12|0,0:0|1:0,0:0:0:0:
350,384,146826,1,8,0:0:0:0:
438,252,147001,1,0,1:0:0:0:
438,252,147088,1,8,0:0:0:0:
438,252,147175,1,8,0:0:0:0:
512,378,147349,1,4,0:3:0:0:
468,165,147524,2,0,P|405:164|354:201,1,127.5,14|0,0:0|0:0,0:0:0:0:
340,275,147873,6,0,P|320:213|296:141,1,127.500004863739,6|0,1:0|0:0,0:0:0:0:
363,75,148396,1,2,1:0:0:0:
216,203,148570,2,0,P|171:187|126:173,2,95.6250036478044,10|2|2,0:0|0:0|1:0,0:0:0:0:
201,102,149268,5,2,1:0:0:0:
77,254,149442,2,0,P|137:272|198:293,1,127.500004863739,8|2,0:0|1:0,0:0:0:0:
318,384,149966,2,0,P|378:362|439:343,1,127.500004863739,10|0,0:0|0:0,0:0:0:0:
512,108,150489,5,0,1:0:0:0:
512,108,150576,1,2,0:0:0:0:
512,108,150663,2,0,P|464:147|401:144,1,127.500004863739,6|2,1:0|0:0,0:0:0:0:
435,56,151187,1,2,1:0:0:0:
512,238,151361,1,14,0:0:0:0:
315,125,151535,1,0,1:0:0:0:
228,324,151710,2,0,P|182:308|136:294,1,95.6250036478044,14|0,0:0|0:0,0:0:0:0:
126,291,152059,5,2,1:0:0:0:
221,102,152233,2,0,P|242:162|261:223,1,127.500004863739,8|0,0:0|1:0,0:0:0:0:
385,44,152756,6,0,P|329:-5|255:-1,1,152.999995330811,14|0,0:0|0:0,0:0:0:0:
221,102,153105,6,0,P|276:151|350:146,1,152.999995330811,14|8,0:0|0:0,0:0:0:0:
304,70,153454,5,6,1:0:0:0:
268,236,153628,1,2,1:0:0:0:
434,119,153803,1,10,0:0:0:0:
507,348,153977,2,0,B|445:328|445:328|412:346|412:346|348:326,1,170,6|2,1:0|1:0,0:0:0:0:
231,384,154501,1,10,0:0:0:0:
123,173,154675,5,10,0:0:0:0:
146,181,154762,1,8,0:0:0:0:
170,189,154849,1,6,1:0:0:0:
49,284,155024,2,0,L|37:250,1,36.1250006890297,6|4,0:3|0:3,0:0:0:0:
184,108,155198,2,0,L|172:143,1,36.1250006890297,10|8,0:3|0:3,0:0:0:0:
34,168,155373,2,0,B|83:154|116:200|94:197|129:244|181:227,1,170,6|0,1:0|1:0,0:0:0:0:
359,19,155896,2,0,P|373:59|385:99,1,85,8|2,0:0|1:0,0:0:0:0:
356,175,156158,1,0,1:0:0:0:
356,175,156245,5,14,0:0:0:0:
270,0,156419,1,0,1:0:0:0:
304,268,156594,5,8,0:0:0:0:
260,38,156768,1,0,1:0:0:0:
226,332,156942,5,10,0:0:0:0:
250,76,157117,1,0,1:0:0:0:
132,364,157291,5,8,0:0:0:0:
240,114,157466,2,0,L|253:155,1,42.5,2|2,1:0|0:0,0:0:0:0:
388,370,157640,6,0,B|413:334|419:289|392:255|392:255|352:236|319:274,1,203.999993774414,6|8,1:2|1:2,0:0:0:0:
172,377,158163,2,0,L|127:362,2,42.5,8|8|4,1:2|0:0|1:3,0:0:0:0:
64,191,158512,1,4,0:3:0:0:
86,183,158599,1,4,0:3:0:0:
109,176,158686,1,8,0:3:0:0:
131,169,158773,1,8,0:3:0:0:
153,162,158861,6,0,L|184:259,1,101.999996887207,6|0,1:0|0:0,0:0:0:0:
64,191,159210,1,2,1:0:0:0:
278,33,159384,2,0,L|246:130,1,101.999996887207,10|0,0:0|1:0,0:0:0:0:
255,146,159646,1,8,0:0:0:0:
263,158,159733,2,0,L|303:171,1,42.5,2|6,1:0|0:3,0:0:0:0:
474,69,159908,1,4,0:3:0:0:
474,69,159995,1,6,0:3:0:0:
474,69,160082,2,0,L|460:109,1,42.5,8|8,0:3|0:3,0:0:0:0:
387,299,160256,2,0,L|373:258,1,42.5,10|8,0:3|0:3,0:0:0:0:
172,101,160431,6,0,B|191:16|284:4|366:45|362:156|287:191|287:191|212:224|226:339|226:339|231:265|292:239,1,611.999981323243,14|2,0:0|0:0,0:0:0:0:
0,106,161826,6,0,P|12:69|22:33,1,76.4999976654053,6|0,1:2|0:0,0:0:0:0:
135,0,162175,6,0,P|102:96|70:193,1,203.999993774414,14|0,1:2|1:0,0:0:0:0:
140,349,162698,1,0,0:0:0:0:
140,349,162785,1,2,0:0:0:0:
140,349,162873,1,10,0:0:0:0:
0,247,163047,1,2,0:0:0:0:
159,380,163221,6,0,P|203:364|248:351,1,93.5000028533936,2|0,1:2|0:0,0:0:0:0:
423,239,163570,2,0,P|378:224|334:210,1,93.5000028533936,10|0,0:2|0:0,0:0:0:0:
460,330,163919,1,2,1:2:0:0:
416,144,164094,1,0,0:0:0:0:
246,318,164268,2,0,B|278:346|278:346|387:313,1,140.25000428009,10|0,0:0|0:0,0:0:0:0:
462,378,164617,6,0,P|404:307|407:215,1,187.000005706787,2|8,1:2|0:0,0:0:0:0:
477,87,165140,1,0,0:0:0:0:
302,261,165315,2,0,P|304:169|246:98,1,187.000005706787,2|8,1:2|0:0,0:0:0:0:
119,28,165838,2,0,L|104:76,1,46.7500014266968,2|2,0:0|0:0,0:0:0:0:
1,265,166012,5,2,1:2:0:0:
177,150,166187,1,2,0:0:0:0:
3,53,166361,1,10,0:0:0:0:
186,159,166535,1,2,0:0:0:0:
10,274,166710,2,0,P|22:229|36:184,1,93.5000028533936,2|0,1:2|0:0,0:0:0:0:
235,46,167059,2,0,P|248:91|263:135,1,93.5000028533936,10|0,0:0|0:0,0:0:0:0:
108,356,167408,6,0,P|139:335|177:332,1,76.4999976654053,6|0,1:2|0:0,0:0:0:0:
289,309,167756,6,0,P|215:244|116:251,1,203.999993774414,14|0,1:2|1:0,0:0:0:0:
30,384,168280,5,0,0:0:0:0:
30,384,168367,1,2,0:0:0:0:
30,384,168454,2,0,P|17:339|2:295,1,93.5000028533936,10|0,0:0|0:0,0:0:0:0:
144,162,168803,2,0,P|128:208|115:251,1,93.5000028533936,2|0,1:2|0:0,0:0:0:0:
0,74,169152,2,0,P|15:120|28:163,1,93.5000028533936,10|0,0:0|0:0,0:0:0:0:
212,6,169501,1,2,1:2:0:0:
96,96,169675,1,0,0:0:0:0:
345,40,169849,2,0,P|323:106|302:173,1,140.25000428009,10|0,0:0|0:0,0:0:0:0:
374,300,170198,6,0,P|343:217|249:212,1,187.000005706787,2|8,1:2|0:0,0:0:0:0:
159,321,170721,1,0,0:0:0:0:
0,163,170896,2,0,P|88:133|177:105,1,187.000005706787,2|8,1:2|0:0,0:0:0:0:
102,235,171419,2,0,L|146:221,1,46.7500014266968,2|2,0:0|0:0,0:0:0:0:
227,18,171594,6,0,P|269:74|269:143,1,140.25000428009,6|0,1:2|0:0,0:0:0:0:
254,179,171942,2,0,P|298:192|342:207,1,93.5000028533936,8|0,0:0|0:0,0:0:0:0:
480,252,172291,1,0,1:0:0:0:
380,62,172466,1,8,0:0:0:0:
371,92,172553,1,8,0:0:0:0:
361,122,172640,1,10,0:0:0:0:
227,271,172815,1,8,0:0:0:0:
217,241,172902,1,8,0:0:0:0:
208,211,172989,6,0,P|170:184|124:184,1,93.5000028533936,6|0,1:2|0:0,0:0:0:0:
319,384,173338,2,0,P|356:357|402:356,1,93.5000028533936,14|0,1:2|0:0,0:0:0:0:
246,185,173687,2,0,P|250:230|228:270,1,93.5000028533936,2|0,1:2|0:0,0:0:0:0:
455,222,174035,2,0,P|413:203|389:164,1,93.5000028533936,10|0,0:0|0:0,0:0:0:0:
238,1,174384,6,0,P|223:45|209:89,1,93.5000028533936,2|0,1:2|0:0,0:0:0:0:
28,224,174733,2,0,P|13:179|-1:135,1,93.5000028533936,10|0,0:0|0:0,0:0:0:0:
185,263,175082,2,0,P|153:298|122:332,1,93.5000028533936,2|0,1:2|0:0,0:0:0:0:
141,108,175431,2,0,P|187:117|232:127,1,93.5000028533936,10|0,0:0|0:0,0:0:0:0:
372,344,175780,6,0,B|432:290|432:290|397:182,1,187.000005706787,2|8,1:2|0:0,0:0:0:0:
303,81,176303,1,2,0:0:0:0:
249,303,176477,2,0,P|234:258|219:214,1,93.5000028533936,2|0,1:2|0:0,0:0:0:0:
312,67,176826,1,10,0:0:0:0:
122,220,177001,2,0,P|136:175|151:131,1,93.5000028533936,2|0,0:0|1:0,0:0:0:0:
334,336,177349,5,2,0:0:0:0:
239,126,177524,1,10,0:0:0:0:
133,335,177698,2,0,P|89:320|44:305,1,93.5000028533936,2|0,0:0|1:0,0:0:0:0:
164,181,178047,1,2,0:0:0:0:
157,343,178221,1,10,0:0:0:0:
50,214,178396,1,2,0:0:0:0:
269,374,178570,6,0,B|294:339|299:295|274:260|274:260|232:241|202:279,1,203.999993774414,6|10,1:2|0:0,0:0:0:0:
336,135,179094,2,0,P|350:179|365:223,1,93.5000028533936,2|0,0:0|1:0,0:0:0:0:
510,207,179442,1,2,0:0:0:0:
466,0,179617,2,0,P|451:44|436:88,1,93.5000028533936,10|0,0:0|0:0,0:0:0:0:
512,325,179966,6,0,P|468:310|424:295,1,93.5000028533936,2|0,1:2|0:2,0:2:0:0:
248,165,180315,2,0,P|292:150|336:135,1,93.5000028533936,10|0,0:0|0:0,0:0:0:0:
159,301,180663,1,2,1:2:0:0:
62,148,180838,1,0,1:0:0:0:
173,327,181012,1,10,0:0:0:0:
269,69,181187,5,0,1:0:0:0:
269,69,181274,1,0,1:0:0:0:
269,69,181361,5,14,0:0:0:0:
97,264,181535,1,0,1:0:0:0:
360,269,181710,1,0,1:0:0:0:
194,21,181884,5,14,0:0:0:0:
258,315,182059,1,2,1:2:0:0:
391,43,182233,1,0,1:0:0:0:
138,287,182408,5,12,0:0:0:0:
91,59,182582,1,0,1:0:0:0:
300,379,182756,5,12,1:2:0:0:
394,126,182931,1,0,1:0:0:0:
119,384,183105,6,0,P|99:289|168:244,1,152.999995330811,14|0,0:0|0:0,0:0:0:0:
167,237,183454,1,10,1:2:0:0:
183,251,183541,1,8,0:0:0:0:
199,265,183628,2,0,L|243:250,1,46.7500014266968,8|8,0:0|0:0,0:0:0:0:
436,54,183803,1,10,1:2:0:0:
391,42,183890,1,8,0:0:0:0:
348,57,183977,1,8,0:0:0:0:
318,92,184064,1,8,0:0:0:0:
313,139,184152,6,0,P|328:173|342:208,1,76.4999976654053,6|0,1:2|0:0,0:0:0:0:
436,54,184501,6,0,P|404:150|373:248,1,203.999993774414,14|0,1:2|1:0,0:0:0:0:
434,384,185024,1,0,0:0:0:0:
434,384,185111,1,2,0:0:0:0:
434,384,185198,1,10,0:0:0:0:
342,209,185373,1,2,0:0:0:0:
434,384,185547,6,0,P|389:369|345:356,1,93.5000028533936,2|0,1:2|0:0,0:0:0:0:
165,200,185896,2,0,P|210:185|255:173,1,93.5000028533936,10|0,0:0|0:0,0:0:0:0:
85,344,186245,1,2,1:2:0:0:
41,169,186419,1,0,0:0:0:0:
204,384,186594,2,0,P|246:330|243:261,1,140.25000428009,10|0,0:0|0:0,0:0:0:0:
351,185,186942,6,0,B|246:164|277:252|178:230,1,187.000005706787,2|8,1:2|0:2,0:2:0:0:
83,91,187466,1,0,0:0:0:0:
114,360,187640,2,0,P|202:330|291:301,1,187.000005706787,2|8,1:2|0:0,0:0:0:0:
360,116,188163,2,0,L|404:129,1,46.7500014266968,2|2,0:0|0:0,0:0:0:0:
512,231,188338,6,0,P|479:258|428:261,1,93.5000028533936,2|0,1:2|0:0,0:0:0:0:
347,106,188687,2,0,P|380:79|431:76,1,93.5000028533936,8|0,0:0|1:0,0:0:0:0:
477,94,188948,1,8,0:0:0:0:
477,94,189035,2,0,P|462:138|448:182,1,93.5000028533936,2|0,1:2|0:0,0:0:0:0:
228,323,189384,2,0,P|213:278|198:234,1,93.5000028533936,10|0,0:0|0:0,0:0:0:0:
27,59,189733,6,0,P|64:56|96:35,1,76.4999976654053,6|0,1:2|0:0,0:0:0:0:
171,100,190082,6,0,P|72:90|0:157,1,203.999993774414,14|0,1:2|1:0,0:0:0:0:
130,296,190605,1,0,0:0:0:0:
130,296,190692,1,2,0:0:0:0:
130,296,190780,1,10,0:0:0:0:
99,171,190954,1,2,0:0:0:0:
237,358,191128,6,0,P|251:313|266:269,1,93.5000028533936,2|0,1:2|0:0,0:0:0:0:
152,107,191477,2,0,P|197:91|242:78,1,93.5000028533936,10|0,0:0|0:0,0:0:0:0:
343,236,191826,1,2,1:2:0:0:
197,175,192001,1,0,0:0:0:0:
403,45,192175,2,0,P|388:90|374:135,1,93.5000028533936,10|0,0:0|0:0,0:0:0:0:
415,291,192524,5,2,1:2:0:0:
415,291,192698,1,0,0:0:0:0:
212,107,192873,2,0,L|246:212,1,110.499994941712,12|0,0:0|0:0,0:0:0:0:
374,133,193221,5,2,1:2:0:0:
374,133,193396,1,0,0:0:0:0:
155,315,193570,2,0,L|260:350,1,110.499994941712,12|2,0:0|0:0,0:0:0:0:
121,133,193919,5,6,1:2:0:0:
0,255,194094,1,4,0:3:0:0:
17,249,194181,1,4,0:3:0:0:
32,244,194268,1,8,0:0:0:0:
201,331,194442,1,8,0:0:0:0:
186,326,194529,1,8,0:0:0:0:
169,320,194616,1,0,1:0:0:0:
347,182,194791,2,0,L|333:226,1,46.7500014266968,4|4,0:3|0:3,0:0:0:0:
403,371,194966,1,2,1:2:0:0:
441,373,195053,1,8,0:3:0:0:
477,355,195140,1,2,3:2:0:0:
500,322,195227,1,8,0:3:0:0:
502,282,195315,6,0,P|470:204|449:120,1,165.749992412568,6|0,1:2|0:0,0:0:0:0:
386,71,195663,2,0,P|425:44|474:46,1,97.7500018644333,14|8,1:2|0:0,0:0:0:0:
488,55,195925,1,8,0:0:0:0:
502,64,196012,1,10,1:2:0:0:
324,190,196187,1,8,0:0:0:0:
347,182,196274,1,8,0:0:0:0:
370,174,196361,1,10,1:2:0:0:
237,15,196535,2,0,L|222:62,1,48.8750009322167,8|8,0:0|0:0,0:0:0:0:
158,277,196710,6,0,P|142:228|126:180,1,97.7500018644333,6|8,1:2|0:0,0:0:0:0:
141,175,196971,1,8,0:0:0:0:
157,170,197059,1,10,1:2:0:0:
323,318,197233,1,8,0:0:0:0:
301,309,197320,1,8,0:0:0:0:
278,301,197407,1,10,1:2:0:0:
64,374,197582,1,8,0:0:0:0:
51,333,197669,1,8,0:0:0:0:
63,291,197756,1,6,3:2:0:0:
97,265,197843,1,4,0:3:0:0:
140,264,197931,1,8,0:3:0:0:
145,279,198018,1,8,0:3:0:0:
151,295,198105,6,0,P|175:200|213:110,1,195.500003728867,6|0,1:2|1:0,0:0:0:0:
265,260,198628,1,10,0:0:0:0:
40,147,198803,1,2,1:2:0:0:
62,139,198890,1,8,0:0:0:0:
85,131,198977,6,0,L|100:177,1,48.8750009322167,8|0,0:0|0:0,0:0:0:0:
265,260,199152,2,0,L|217:249,1,48.8750009322167,2|8,1:2|0:0,0:0:0:0:
63,351,199326,2,0,L|96:314,1,48.8750009322167,10|8,0:0|0:0,0:0:0:0:
215,155,199501,6,0,P|271:169|324:183,1,97.7500018644333,4|8,1:2|0:0,0:0:0:0:
318,192,199762,1,8,0:0:0:0:
326,208,199849,1,8,1:2:0:0:
512,42,200024,5,10,0:0:0:0:
476,20,200112,1,10,0:0:0:0:
431,21,200199,1,2,1:0:0:0:
394,43,200286,1,6,0:3:0:0:
373,80,200373,1,6,0:3:0:0:
375,125,200460,1,10,0:0:0:0:
404,157,200547,1,10,1:2:0:0:
420,151,200634,1,10,0:3:0:0:
436,146,200721,1,10,0:0:0:0:
452,141,200808,1,10,0:0:0:0:
480,131,200896,6,0,P|439:226|413:328,1,203.999993774414,6|8,1:2|0:0,0:0:0:0:
250,223,201419,1,0,1:0:0:0:
250,223,201506,1,2,0:0:0:0:
250,223,201594,1,10,0:0:0:0:
334,318,201768,1,0,1:0:0:0:
147,215,201942,1,10,0:0:0:0:
377,35,202117,6,0,B|327:5|274:51|296:66|249:105|189:72,1,203.999993774414,6|0,1:2|1:0,0:0:0:0:
58,0,202640,1,8,0:0:0:0:
170,191,202815,1,8,0:0:0:0:
170,191,202902,1,8,0:0:0:0:
170,191,202989,1,10,1:2:0:0:
335,59,203163,2,0,L|349:104,1,46.7500014266968,4|2,0:3|0:0,0:0:0:0:
406,268,203338,1,8,0:3:0:0:
256,281,203513,1,2,3:2:0:0:
460,197,203687,6,0,P|496:256|477:323,1,144.500002756119,6|0,1:2|0:0,0:0:0:0:
362,346,204210,1,2,1:2:0:0:
304,145,204384,2,0,P|372:121|441:100,1,144.500002756119,14|0,0:0|1:0,0:0:0:0:
235,311,204908,6,0,P|179:291|128:276,1,108.375002067089,6|0,1:2|0:0,0:0:0:0:
111,285,205256,2,0,L|99:251,1,36.1250006890297,10|2,0:0|0:0,0:0:0:0:
68,177,205431,2,0,P|32:189|0:199,1,72.2500013780594,2|2,0:0|1:2,0:0:0:0:
87,38,205781,5,8,0:0:0:0:
77,68,205897,2,0,L|137:87,1,48.1666675853729,8|4,0:0|0:3,0:0:0:0:
203,170,206128,5,0,0:0:0:0:
193,140,206245,2,0,L|253:121,1,48.1666675853729,8|8,0:3|0:3,0:0:0:0:
350,35,206477,6,0,B|385:75|385:75|352:184,1,144.500002756119,4|0,1:0|0:0,0:0:0:0:
243,209,207001,2,0,L|254:243,1,36.1250006890297,0|0,1:0|1:0,0:0:0:0:
289,370,207175,1,10,0:0:0:0:
409,296,207349,1,6,0:3:0:0:
409,296,207437,1,8,0:3:0:0:
409,296,207524,1,10,0:3:0:0:
196,332,207698,6,0,P|127:308|58:287,1,144.500002756119,4|0,1:0|1:0,0:0:0:0:
2,173,208221,2,0,P|36:160|70:150,1,72.2500013780594,10|2,0:0|0:0,0:0:0:0:
185,23,208570,2,0,L|219:34,3,36.1250006890297,8|8|8|8,1:2|0:0|0:0|0:0,0:0:0:0:
285,152,208919,2,0,L|277:117,1,36.1250006890297,8|8,1:2|0:0,0:0:0:0:
346,0,209094,2,0,L|319:24,1,36.1250006890297,8|8,0:0|0:0,0:0:0:0:
391,213,209268,5,6,1:0:0:0:
465,88,209442,1,2,1:0:0:0:
423,319,209617,1,10,0:0:0:0:
337,83,209791,1,10,0:0:0:0:
337,83,209878,1,8,0:0:0:0:
337,83,209966,1,2,1:0:0:0:
210,271,210140,2,0,P|162:267|133:241,1,85,2|8,1:0|0:0,0:0:0:0:
326,382,210489,6,0,P|402:351|430:273,1,170,6|2,1:0|1:0,0:0:0:0:
312,179,211012,1,10,0:0:0:0:
501,84,211187,1,10,0:0:0:0:
501,84,211274,1,8,0:0:0:0:
501,84,211361,1,2,1:0:0:0:
331,288,211535,1,2,1:0:0:0:
232,75,211710,1,10,0:0:0:0:
459,262,211884,5,10,0:0:0:0:
459,262,211971,1,8,0:0:0:0:
459,262,212059,1,6,1:0:0:0:
178,384,212233,1,10,0:0:0:0:
178,384,212320,1,8,0:0:0:0:
178,384,212408,2,0,L|195:329,1,42.5,10|0,0:0|0:0,0:0:0:0:
280,59,212582,6,0,L|231:74,1,50.9999984436036,2|0,1:0|0:0,0:0:0:0:
287,43,212931,6,0,L|335:58,1,50.9999984436036,2|0,1:0|0:0,0:0:0:0:
0,242,213280,6,0,B|-25:207|-30:163|-5:128|-5:128|37:109|67:147,1,203.999993774414,4|6,1:0|0:3,0:0:0:0:
78,168,213716,1,4,0:3:0:0:
88,189,213803,2,0,L|128:175,1,42.5,10|8,0:3|0:3,0:0:0:0:
365,53,213977,6,0,P|247:76|249:150,1,203.999993774414,6|0,1:0|1:0,0:0:0:0:
481,225,214501,2,0,L|494:184,1,42.5,10|8,0:0|0:0,0:0:0:0:
317,123,214675,2,0,L|303:82,1,42.5,10|8,0:0|0:0,0:0:0:0:
422,0,214849,6,0,B|397:75|397:75|419:115|419:115|395:193,1,203.999993774414,6|8,1:0|0:0,0:0:0:0:
254,274,215373,1,0,0:0:0:0:
254,274,215460,1,2,0:0:0:0:
254,274,215547,1,0,1:0:0:0:
431,349,215721,1,0,0:0:0:0:
275,169,215896,2,0,L|288:128,1,42.5,8|2,0:0|0:0,0:0:0:0:
254,274,216070,6,0,P|196:306|119:282,1,127.5,2|0,0:0|0:0,0:0:0:0:
138,295,216419,1,2,0:0:0:0:
138,295,216506,2,0,L|152:255,1,42.5,2|10,0:0|0:0,0:0:0:0:
214,62,216768,1,2,0:0:0:0:
2,207,216942,1,2,1:0:0:0:
273,185,217117,1,2,0:0:0:0:
47,32,217291,2,0,L|68:96,1,42.5,10|2,0:0|0:0,0:0:0:0:
94,180,217466,2,0,L|116:244,1,42.5,2|2,0:0|0:0,0:0:0:0:
80,382,217640,6,0,P|143:329|226:335,1,170,0|8,1:0|0:0,0:0:0:0:
372,188,218163,2,0,P|353:226|336:265,1,85,2|0,0:0|1:0,0:0:0:0:
176,72,218512,2,0,P|195:110|212:149,1,85,2|8,0:0|0:0,0:0:0:0:
422,0,218861,5,2,0:0:0:0:
422,0,218948,1,2,0:0:0:0:
422,0,219035,1,2,1:0:0:0:
256,218,219210,1,2,1:0:0:0:
422,0,219384,2,0,P|462:13|502:25,1,85,8|2,0:0|1:0,0:0:0:0:
512,54,219646,1,2,0:0:0:0:
512,54,219733,2,0,L|495:106,1,42.5,8|4,0:0|0:3,0:0:0:0:
385,228,219908,2,0,L|371:187,1,42.5,8|0,0:3|1:0,0:0:0:0:
512,356,220082,6,0,P|470:384|420:383,1,101.999996887207,8|8,0:0|0:0,0:0:0:0:
401,370,220344,1,8,0:0:0:0:
383,355,220431,5,14,0:2:0:0:
444,170,220605,1,0,1:0:0:0:
280,335,220780,5,10,0:2:0:0:
348,126,220954,1,0,1:0:0:0:
148,355,221128,5,10,0:2:0:0:
87,170,221302,1,0,1:0:0:0:
251,335,221477,5,10,0:2:0:0:
183,126,221652,2,0,L|231:141,1,50.9999984436036,0|0,1:0|1:0,0:0:0:0:
439,199,221826,5,14,0:0:0:0:
216,267,222001,1,0,1:0:0:0:
387,66,222175,5,10,0:0:0:0:
170,205,222349,1,0,1:0:0:0:
447,119,222524,5,10,0:0:0:0:
216,56,222698,1,0,1:0:0:0:
446,244,222873,5,10,0:0:0:0:
153,162,223047,1,0,1:0:0:0:
463,41,223221,5,6,1:2:0:0:
453,34,223570,1,0,1:0:0:0:
407,181,223745,1,0,1:0:0:0:
290,63,223919,1,2,1:0:0:0:
372,247,224094,1,0,1:0:0:0:
361,45,224268,1,0,1:0:0:0:
301,265,224442,1,0,1:0:0:0:
184,0,224617,5,10,0:2:0:0:
407,181,224791,1,8,0:0:0:0:
116,269,224966,1,8,0:0:0:0:
414,104,225140,1,8,0:0:0:0:
353,318,225315,5,10,1:2:0:0:
240,205,225489,1,6,0:3:0:0:
251,384,225663,1,2,1:0:0:0:
330,222,225838,1,10,0:3:0:0:
135,332,226012,6,0,P|86:315|38:300,2,101.999996887207,6|0|2,1:0|1:0|1:0,0:0:0:0:
0,384,227059,1,2,1:0:0:0:
0,215,227233,1,0,0:0:0:0:
0,215,227320,1,2,0:0:0:0:
0,215,227408,2,0,P|48:198|96:183,1,101.999996887207,2|0,1:0|1:0,0:0:0:0:
306,20,228105,6,0,L|298:44,3,25.4999992218018,2|2|0|2,1:0|0:0|0:0|0:0,0:0:0:0:
380,137,228454,2,0,L|372:112,3,25.4999992218018,2|2|0|2,1:0|0:0|0:0|0:0,0:0:0:0:
500,55,228803,6,0,P|451:38|402:23,1,101.999996887207,2|0,1:0|1:0,0:0:0:0:
468,157,229326,2,0,L|493:149,1,25.4999992218018,2|2,0:0|0:0,0:0:0:0:
380,137,229501,2,0,P|380:187|409:227,1,101.999996887207,2|2,1:0|1:0,0:0:0:0:
241,354,230024,5,0,0:0:0:0:
241,354,230111,1,2,0:0:0:0:
241,354,230198,2,0,P|192:336|144:322,1,101.999996887207,2|0,1:0|1:0,0:0:0:0:
89,238,230721,1,0,0:0:0:0:
196,165,230896,2,2,L|188:140,1,25.4999992218018,0|2,1:0|0:0,0:0:0:0:
125,85,231070,2,0,L|132:60,1,25.4999992218018,0|2,0:0|0:0,0:0:0:0:
233,14,231245,2,0,L|298:35,1,50.9999984436036,0|2,1:0|0:0,0:0:0:0:
292,42,231506,1,2,0:0:0:0:
305,52,231594,6,0,P|354:34|402:20,1,101.999996887207,6|2,1:0|1:0,0:0:0:0:
512,169,232117,2,0,P|463:151|415:137,1,101.999996887207,2|2,0:0|0:0,0:0:0:0:
415,137,232640,1,0,1:0:0:0:
145,287,232989,6,0,P|161:335|176:384,1,101.999996887207,2|2,1:0|1:0,0:0:0:0:
5,261,233687,2,0,P|19:212|36:163,1,101.999996887207,2|2,1:0|1:0,0:0:0:0:
190,321,234210,5,0,0:0:0:0:
190,321,234297,1,2,0:0:0:0:
190,321,234384,2,0,P|238:305|287:290,1,101.999996887207,2|0,1:0|1:0,0:0:0:0:
339,174,234908,2,0,L|364:182,1,25.4999992218018,2|2,0:0|0:0,0:0:0:0:
422,249,235083,2,0,P|450:207|449:157,1,101.999996887207,2|0,1:0|1:0,0:0:0:0:
292,0,235780,6,0,L|267:8,3,25.4999992218018,0|0|0|2,1:0|0:0|0:0|0:0,0:0:0:0:
215,88,236128,2,0,L|190:80,3,25.4999992218018,0|0|0|2,1:0|0:0|0:0|0:0,0:0:0:0:
77,44,236477,2,0,L|85:69,1,25.4999992218018,10|8,1:2|0:0,0:0:0:0:
126,160,236652,2,0,L|118:185,1,25.4999992218018,10|8,0:0|0:0,0:0:0:0:
27,325,236826,1,10,1:2:0:0:
20,304,236913,1,8,0:0:0:0:
13,284,237000,1,10,0:0:0:0:
7,264,237087,1,8,0:0:0:0:
0,243,237175,6,0,B|77:218|74:284|148:265,1,152.999995330811,4|8,1:0|0:0,0:0:0:0:
34,346,237698,1,2,0:0:0:0:
126,160,237873,2,0,P|162:171|198:183,1,76.4999976654053,2|2,1:0|1:0,0:0:0:0:
139,311,238221,1,10,0:0:0:0:
5,159,238396,1,2,0:0:0:0:
5,159,238570,6,0,P|17:122|27:86,1,76.4999976654053,0|0,1:0|1:0,0:0:0:0:
246,0,238919,2,0,P|210:14|174:26,1,76.4999976654053,8|0,0:0|1:0,0:0:0:0:
201,109,239181,1,8,0:0:0:0:
201,109,239268,2,0,P|236:97|273:85,1,76.4999976654053,2|0,1:0|1:0,0:0:0:0:
393,205,239617,2,0,P|357:192|320:182,1,76.4999976654053,10|0,0:0|0:0,0:0:0:0:
512,22,239966,6,0,P|459:74|470:147,2,152.999995330811,2|8|2,1:0|0:0|1:0,0:0:0:0:
320,182,240838,1,8,0:0:0:0:
320,182,240925,1,8,0:0:0:0:
320,182,241012,1,10,0:0:0:0:
481,384,241187,6,0,B|513:285|513:285|419:254,1,203.999993774414,6|0,1:0|1:0,0:0:0:0:
246,281,241710,2,0,P|258:317|269:353,1,76.4999976654053,8|0,0:0|1:0,0:0:0:0:
280,384,241971,1,8,0:0:0:0:
280,384,242059,1,0,1:0:0:0:
366,250,242233,1,0,1:0:0:0:
160,368,242408,2,0,P|124:356|88:345,1,76.4999976654053,10|2,0:0|1:0,0:0:0:0:
12,221,242669,5,0,1:0:0:0:
22,212,242756,2,0,B|78:262|78:262|36:391,1,203.999993774414,12|2,0:0|1:0,0:0:0:0:
160,283,243280,1,10,0:0:0:0:
32,202,243454,2,0,L|45:159,3,42.5,8|8|8|8,1:2|0:0|0:0|0:0,0:0:0:0:
159,90,243803,2,0,L|114:100,1,42.5,10|8,1:2|0:0,0:0:0:0:
0,35,243977,2,0,L|31:68,1,42.5,10|8,0:0|0:0,0:0:0:0:
174,212,244152,6,0,L|214:199,3,42.5,10|8|8|8,1:2|0:0|0:0|0:0,0:0:0:0:
291,310,244501,2,0,L|259:281,1,42.5,10|8,1:2|0:0,0:0:0:0:
317,159,244675,2,0,L|308:200,1,42.5,10|8,0:0|0:0,0:0:0:0:
445,360,244849,1,8,1:2:0:0:
445,360,244937,1,8,0:0:0:0:
445,360,245024,2,0,L|404:374,1,42.5,8|8,0:0|0:0,0:0:0:0:
472,163,245198,1,8,1:2:0:0:
472,163,245286,1,8,0:0:0:0:
472,163,245373,2,0,L|512:177,1,42.5,8|8,0:0|0:0,0:0:0:0:
287,310,245547,5,6,1:0:0:0:
371,58,245721,1,0,1:0:0:0:
462,280,245896,1,8,0:0:0:0:
256,82,246070,1,0,1:0:0:0:
256,82,246158,1,8,0:0:0:0:
256,82,246245,2,0,P|268:41|282:1,1,85,2|0,1:2|1:0,0:0:0:0:
328,207,246594,1,10,0:0:0:0:
64,0,246768,6,0,P|96:96|127:193,1,203.999993774414,6|0,1:0|1:0,0:0:0:0:
3,351,247291,2,0,P|14:312|29:270,1,85,8|0,0:0|1:0,0:0:0:0:
224,170,247640,1,4,0:3:0:0:
189,157,247727,1,4,0:3:0:0:
152,165,247814,1,8,0:3:0:0:
127,193,247901,1,0,1:0:0:0:
120,230,247989,2,0,P|135:270|146:311,1,85,12|0,0:0|1:0,0:0:0:0:
403,126,248338,5,14,1:2:0:0:
221,378,248512,1,4,0:3:0:0:
220,373,248599,1,4,0:3:0:0:
218,368,248686,1,10,0:3:0:0:
303,25,248861,5,14,1:2:0:0:
422,317,249035,1,4,0:3:0:0:
424,312,249122,1,4,0:3:0:0:
425,307,249210,6,0,L|400:232,1,55.2499974708558,2|0,1:0|0:0,0:0:0:0:
214,138,249384,6,0,L|290:154,1,55.2499974708558,10|0,0:0|0:0,0:0:0:0:
465,39,249559,6,0,L|412:96,1,55.2499974708558,10|0,1:2|0:0,0:0:0:0:
46,375,251128,6,0,B|-61:342|-50:208|25:167|129:163|167:286|167:286|191:372|285:405|370:390|403:328,1,701.250021400452,6|0,1:2|0:0,0:0:0:0:
408,309,252524,2,0,L|389:251,1,46.7500014266968,2|4,3:2|0:3,0:0:0:0:
334,182,252698,2,0,L|352:124,1,46.7500014266968,8|8,0:3|0:3,0:0:0:0:
386,24,252873,1,14,0:0:0:0:
505,243,253221,6,2,L|512:265,1,23.3750007133484,10|2,0:0|2:0,0:0:0:0:
474,254,253309,6,2,L|477:277,1,23.3750007133484,10|2,0:0|2:0,0:0:0:0:
442,261,253396,6,2,L|441:284,1,23.3750007133484,10|2,0:0|2:0,0:0:0:0:
409,257,253483,6,2,L|404:279,1,23.3750007133484,10|2,0:0|2:0,0:0:0:0:
374,242,253570,5,10,0:0:0:0:
338,218,253658,1,8,0:0:0:0:
294,201,253745,1,8,0:0:0:0:
242,204,253832,1,8,0:0:0:0:
190,226,253919,6,0,P|205:129|223:33,1,195.500003728867,6|8,1:2|0:0,0:0:0:0:
338,218,254442,1,0,0:0:0:0:
84,307,254617,2,0,P|68:210|50:114,1,195.500003728867,2|8,1:2|0:0,0:0:0:0:
207,26,255140,2,0,L|196:88,1,48.8750009322167,2|2,0:0|0:0,0:0:0:0:
177,234,255315,6,0,P|223:217|269:203,1,97.7500018644333,2|0,1:2|0:0,0:0:0:0:
384,44,255663,2,0,P|430:58|476:75,1,97.7500018644333,8|0,0:0|0:0,0:0:0:0:
297,291,256012,2,0,P|270:250|269:202,1,97.7500018644333,2|0,1:2|0:0,0:0:0:0:
459,0,256361,2,0,P|486:41|487:89,1,97.7500018644333,10|0,0:0|1:0,0:0:0:0:
434,158,256623,1,8,0:0:0:0:
434,158,256710,6,0,P|397:145|361:134,1,76.4999976654053,6|0,1:2|0:0,0:0:0:0:
470,269,257059,6,0,P|369:234|268:202,1,212.5,14|0,1:2|1:0,0:0:0:0:
165,68,257582,1,0,0:0:0:0:
165,68,257669,1,2,0:0:0:0:
165,68,257756,1,10,0:0:0:0:
239,290,257931,1,2,0:0:0:0:
395,73,258105,6,0,P|440:56|487:41,1,97.7500018644333,2|0,1:2|0:0,0:0:0:0:
354,233,258454,2,0,P|308:216|261:202,1,97.7500018644333,10|0,0:0|0:0,0:0:0:0:
458,368,258803,1,2,1:2:0:0:
399,153,258977,1,0,0:0:0:0:
279,372,259152,2,0,P|206:371|149:328,1,146.62500279665,10|0,0:0|0:0,0:0:0:0:
95,182,259501,6,0,B|146:229|146:229|101:374,1,195.500003728867,2|8,1:2|0:0,0:0:0:0:
1,191,260024,1,0,0:0:0:0:
193,5,260198,2,0,P|224:100|257:202,1,195.500003728867,2|8,1:2|0:0,0:0:0:0:
418,311,260721,2,0,L|433:264,1,48.8750009322167,10|8,0:0|0:0,0:0:0:0:
499,70,260896,5,6,1:2:0:0:
324,264,261070,1,8,0:0:0:0:
204,42,261245,5,8,0:0:0:0:
245,26,261332,1,4,0:3:0:0:
280,51,261419,2,0,L|259:118,1,48.8750009322167,4|8,0:3|0:3,0:0:0:0:
114,224,261594,5,0,1:0:0:0:
137,186,261681,1,8,0:3:0:0:
180,186,261768,2,0,L|202:252,1,48.8750009322167,8|8,0:3|0:0,0:0:0:0:
87,364,261942,2,0,L|119:326,1,48.8750009322167,10|4,0:0|0:3,0:0:0:0:
288,356,262117,2,0,L|219:342,1,48.8750009322167,2|8,3:2|0:3,0:0:0:0:
41,149,262291,6,0,P|57:194|71:241,1,97.7500018644333,6|0,1:2|0:0,0:0:0:0:
251,26,262640,2,0,P|202:27|163:54,1,97.7500018644333,14|0,1:2|0:0,0:0:0:0:
338,204,262989,2,0,P|361:161|357:113,1,97.7500018644333,2|0,1:2|0:0,0:0:0:0:
137,186,263338,2,0,P|162:227|205:248,1,97.7500018644333,10|0,0:0|0:0,0:0:0:0:
399,384,263687,6,0,P|414:332|434:273,1,97.7500018644333,2|0,1:2|0:0,0:0:0:0:
497,65,264035,2,0,P|481:111|468:158,1,97.7500018644333,10|0,0:0|0:0,0:0:0:0:
318,334,264384,2,0,P|303:282|283:223,1,97.7500018644333,2|0,1:2|0:0,0:0:0:0:
220,15,264733,2,0,P|235:61|248:108,1,97.7500018644333,10|0,0:0|0:0,0:0:0:0:
68,315,265082,6,0,B|44:280|38:238|64:205|64:205|102:187|133:223,1,195.500003728867,2|8,1:2|0:0,0:0:0:0:
197,354,265605,1,2,0:0:0:0:
365,158,265780,2,0,P|320:143|272:127,1,97.7500018644333,2|0,1:2|0:0,0:0:0:0:
366,287,266128,1,10,0:0:0:0:
483,33,266303,2,0,P|438:47|390:63,1,97.7500018644333,2|0,0:0|1:0,0:0:0:0:
233,257,266652,5,2,0:0:0:0:
139,56,266826,1,10,0:0:0:0:
243,293,267001,2,0,P|289:278|336:263,1,97.7500018644333,2|0,0:0|1:0,0:0:0:0:
467,158,267349,1,2,0:0:0:0:
402,327,267524,1,10,0:0:0:0:
389,63,267698,5,10,0:0:0:0:
389,63,267785,1,8,0:0:0:0:
389,63,267873,2,0,B|264:42|300:140|191:115,1,212.5,6|10,1:2|0:0,0:0:0:0:
29,23,268396,2,0,P|46:70|60:115,1,97.7500018644333,2|0,0:0|1:0,0:0:0:0:
207,197,268745,1,2,0:0:0:0:
0,348,268919,2,0,P|14:301|31:255,1,97.7500018644333,10|0,0:0|0:0,0:0:0:0:
260,89,269268,6,0,P|276:135|290:181,1,97.7500018644333,2|0,1:2|0:0,0:0:0:0:
481,286,269617,2,0,P|495:239|512:193,1,97.7500018644333,10|0,0:0|0:0,0:0:0:0:
290,349,269966,1,2,1:2:0:0:
369,151,270140,1,0,1:0:0:0:
489,381,270315,1,10,0:0:0:0:
489,381,270402,1,4,0:3:0:0:
489,381,270489,2,0,L|442:366,1,48.8750009322167,4|8,0:3|0:3,0:0:0:0:
442,77,270663,5,14,0:0:0:0:
210,249,270838,1,0,1:0:0:0:
494,247,271012,1,0,1:0:0:0:
187,45,271187,5,14,0:0:0:0:
340,322,271361,1,2,1:2:0:0:
394,13,271535,1,0,1:0:0:0:
237,359,271710,5,12,0:0:0:0:
291,18,271884,1,0,1:0:0:0:
478,327,272059,1,12,1:2:0:0:
455,298,272146,1,8,0:0:0:0:
426,281,272233,1,8,0:0:0:0:
391,278,272321,1,8,0:0:0:0:
360,288,272408,2,0,L|344:334,3,48.8750009322167,10|8|8|8,1:2|0:0|0:0|0:0,0:0:0:0:
201,154,272756,1,10,1:2:0:0:
201,154,272844,1,8,0:0:0:0:
201,154,272931,2,0,L|248:144,1,48.8750009322167,8|8,0:0|0:0,0:0:0:0:
164,358,273105,1,10,1:2:0:0:
164,358,273192,1,8,0:0:0:0:
164,358,273280,2,0,L|132:321,1,48.8750009322167,8|8,0:0|0:0,0:0:0:0:
16,120,273454,6,0,P|-2:153|1:196,1,76.4999976654053,6|0,1:2|0:0,0:0:0:0:
130,68,273803,6,0,P|47:128|42:231,1,212.5,14|0,1:2|1:0,0:0:0:0:
201,154,274326,1,0,0:0:0:0:
201,154,274413,1,2,0:0:0:0:
201,154,274501,1,10,0:0:0:0:
7,47,274675,1,2,0:0:0:0:
159,260,274849,6,0,P|205:243|251:229,1,97.7500018644333,2|0,1:2|0:0,0:0:0:0:
357,55,275198,2,0,P|311:38|265:24,1,97.7500018644333,10|0,0:0|0:0,0:0:0:0:
415,238,275547,1,2,1:2:0:0:
261,142,275721,1,0,0:0:0:0:
495,27,275896,2,0,P|478:73|464:119,1,97.7500018644333,10|0,0:0|1:0,0:0:0:0:
344,218,276158,5,8,0:0:0:0:
331,210,276245,2,0,P|404:150|499:155,1,195.500003728867,2|8,1:2|0:0,0:0:0:0:
349,298,276768,1,0,0:0:0:0:
165,108,276942,2,0,B|230:82|230:82|187:233,1,195.500003728867,2|8,1:2|0:0,0:0:0:0:
45,303,277466,2,0,L|23:236,1,48.8750009322167,2|2,0:0|0:0,0:0:0:0:
192,343,277640,6,0,B|139:316|93:362|118:363|70:408|14:379,1,195.500003728867,2|8,1:2|0:0,0:0:0:0:
0,122,278163,1,8,0:0:0:0:
0,122,278251,1,8,0:0:0:0:
0,122,278338,2,0,P|46:136|92:153,1,97.7500018644333,10|0,1:2|0:0,0:0:0:0:
262,28,278687,2,0,P|215:41|169:59,1,97.7500018644333,10|0,0:0|0:0,0:0:0:0:
344,293,279035,6,0,P|354:257|368:221,1,76.4999976654053,6|0,1:2|0:0,0:0:0:0:
229,320,279384,6,0,P|264:220|294:118,1,212.5,14|0,1:2|1:0,0:0:0:0:
344,293,279908,1,0,0:0:0:0:
344,293,279995,1,2,0:0:0:0:
344,293,280082,1,10,0:0:0:0:
207,121,280256,1,2,0:0:0:0:
367,321,280431,6,0,P|413:305|459:290,1,97.7500018644333,2|0,1:2|0:0,0:0:0:0:
339,135,280780,1,10,0:0:0:0:
216,355,280954,2,0,P|170:339|124:324,1,97.7500018644333,2|0,0:2|1:0,0:0:0:0:
2,151,281303,2,0,P|48:135|94:120,1,97.7500018644333,2|8,0:0|0:0,0:0:0:0:
0,367,281652,5,0,0:0:0:0:
0,367,281739,1,2,0:0:0:0:
0,367,281826,2,0,P|48:305|124:292,1,159.375,6|0,1:2|0:0,0:0:0:0:
136,302,282175,1,10,0:0:0:0:
0,112,282349,2,0,P|17:162|31:204,1,97.7500018644333,2|0,0:0|1:0,0:0:0:0:
0,364,282698,1,2,0:0:0:0:
153,160,282873,2,0,P|220:136|291:111,1,146.62500279665,10|0,0:0|0:0,0:0:0:0:
305,107,283221,5,0,1:0:0:0:
111,53,283396,1,8,0:0:0:0:
271,236,283570,1,8,0:0:0:0:
293,0,283745,1,0,1:0:0:0:
150,234,283919,1,8,0:0:0:0:
150,234,284006,1,4,0:3:0:0:
150,234,284094,2,0,L|134:187,1,48.8750009322167,8|8,0:3|0:3,0:0:0:0:
256,313,284268,2,0,L|223:350,1,48.8750009322167,10|0,0:0|0:0,0:0:0:0:
271,181,284442,2,0,L|319:190,1,48.8750009322167,10|8,0:0|0:0,0:0:0:0:
466,384,284617,6,0,B|492:347|497:301|471:264|471:264|427:244|395:284,1,212.5,6|0,1:2|1:0,0:0:0:0:
203,384,285140,1,8,0:0:0:0:
212,355,285227,1,8,0:0:0:0:
221,326,285314,1,8,1:2:0:0:
116,129,285489,1,8,0:0:0:0:
125,158,285576,1,8,0:0:0:0:
134,187,285663,2,0,L|180:172,1,48.8750009322167,10|4,1:2|0:3,0:0:0:0:
328,114,285838,2,0,L|282:99,1,48.8750009322167,2|8,3:2|0:3,0:0:0:0:
56,58,286012,6,0,P|96:31|144:30,1,97.7500018644333,6|8,1:2|0:0,0:0:0:0:
162,43,286274,1,8,0:0:0:0:
174,59,286361,1,10,1:2:0:0:
259,233,286535,1,8,0:0:0:0:
43,308,286710,1,2,1:2:0:0:
52,279,286797,1,8,0:0:0:0:
61,250,286884,1,8,0:0:0:0:
286,308,287059,2,0,L|239:324,1,48.8750009322167,10|4,1:2|0:3,0:0:0:0:
115,359,287233,2,0,L|161:375,1,48.8750009322167,2|8,3:2|0:0,0:0:0:0:
370,229,287408,6,0,B|415:268|415:268|387:368,1,159.375,6|0,1:2|0:0,0:0:0:0:
381,384,287756,1,2,1:2:0:0:
512,161,287931,2,0,P|465:146|419:129,1,97.7500018644333,10|0,0:0|1:0,0:0:0:0:
398,131,288192,1,8,0:0:0:0:
378,140,288280,1,10,0:0:0:0:
259,233,288454,1,0,1:0:0:0:
384,40,288628,2,0,L|440:21,1,48.8750009322167,10|8,0:0|0:0,0:0:0:0:
279,141,288803,6,0,P|232:125|186:110,1,97.7500018644333,4|8,1:2|0:0,0:0:0:0:
174,91,289065,1,8,0:0:0:0:
165,71,289152,1,8,1:2:0:0:
0,237,289326,1,4,0:3:0:0:
35,211,289413,1,4,0:3:0:0:
79,206,289501,1,4,0:3:0:0:
120,222,289588,1,4,0:3:0:0:
149,255,289675,1,8,0:3:0:0:
157,297,289762,1,8,0:3:0:0:
147,340,289849,2,2,L|100:354,1,48.8750009322167,10|10,0:3|0:3,0:0:0:0:
0,237,290024,2,2,L|46:252,1,48.8750009322167,10|10,0:3|0:3,0:0:0:0:
243,358,290198,6,0,B|270:271|270:271|248:227|248:227|271:150,1,212.5,6|8,1:2|0:0,0:0:0:0:
157,297,290721,1,0,1:0:0:0:
157,297,290809,1,2,0:0:0:0:
157,297,290896,1,2,0:0:0:0:
360,202,291070,1,0,1:0:0:0:
171,115,291245,1,10,0:0:0:0:
366,376,291419,6,0,B|427:324|427:324|390:197,1,212.5,6|0,1:2|1:0,0:0:0:0:
512,23,291942,2,0,P|465:37|418:52,1,97.7500018644333,8|8,0:0|0:0,0:0:0:0:
410,68,292204,5,8,0:0:0:0:
400,83,292291,2,0,L|351:67,1,48.8750009322167,2|0,1:2|0:0,0:0:0:0:
272,206,292466,1,0,1:0:0:0:
264,189,292553,2,0,L|301:154,1,48.8750009322167,10|8,0:2|0:0,0:0:0:0:
222,18,292727,1,0,0:0:0:0:
239,19,292815,2,0,L|249:69,1,48.8750009322167,2|0,1:2|0:0,0:0:0:0:
140,223,292989,1,10,0:0:0:0:
137,214,293076,1,4,0:3:0:0:
134,205,293163,1,8,0:3:0:0:
131,196,293251,1,0,1:0:0:0:
140,170,293338,6,2,B|109:131|65:151|65:151|39:188|44:234|70:271,1,212.5,12|10,0:0|0:0,0:0:0:0:
188,384,293861,1,4,0:3:0:0:
305,156,294035,1,8,0:0:0:0:
37,349,294210,6,0,B|139:375|122:270|234:312,1,212.5,6|0,1:2|1:0,0:0:0:0:
403,157,294733,1,10,0:2:0:0:
333,384,294908,2,0,L|313:325,1,48.8750009322167,10|8,0:2|0:0,0:0:0:0:
218,172,295082,1,2,1:2:0:0:
432,305,295256,1,2,1:2:0:0:
197,190,295431,1,10,0:0:0:0:
490,48,295605,5,10,0:0:0:0:
490,48,295692,1,8,0:0:0:0:
490,48,295780,2,0,L|511:111,3,48.8750009322167,14|8|8|8,1:2|0:0|0:0|0:0,0:0:0:0:
508,198,296128,2,0,L|461:182,1,48.8750009322167,10|8,1:2|0:0,0:0:0:0:
335,26,296303,1,10,0:0:0:0:
335,26,296390,1,8,0:0:0:0:
335,26,296477,2,0,L|313:92,1,48.8750009322167,8|8,1:2|0:0,0:0:0:0:
212,236,296652,1,10,0:0:0:0:
212,236,296739,1,8,0:0:0:0:
212,236,296826,2,0,L|196:189,1,48.8750009322167,8|4,1:2|0:3,0:0:0:0:
53,19,297001,1,10,3:2:0:0:
56,12,297088,1,8,0:3:0:0:
58,6,297175,5,14,1:2:0:0:
0,301,297349,1,14,1:2:0:0:
60,0,297524,1,14,1:2:0:0:
139,114,297698,5,0,1:0:0:0:
139,114,297785,1,8,0:0:0:0:
139,114,297873,2,0,L|185:98,1,48.8750009322167,10|8,0:0|0:0,0:0:0:0:
274,37,298047,2,0,L|320:52,1,48.8750009322167,4|4,0:3|0:3,0:0:0:0:
420,134,298221,1,4,0:3:0:0:
415,149,298308,1,8,0:3:0:0:
410,165,298395,1,8,0:3:0:0:
405,180,298482,1,8,0:3:0:0:
400,196,298569,5,6,1:2:0:0:
406,206,298919,1,0,1:2:0:0:
312,166,299094,1,0,1:0:0:0:
433,107,299268,1,2,1:2:0:0:
306,47,299442,1,0,1:0:0:0:
406,206,299617,1,2,1:2:0:0:
486,28,299791,1,0,1:0:0:0:
453,288,299966,5,10,0:0:0:0:
296,31,300140,1,8,0:0:0:0:
254,327,300315,1,8,0:0:0:0:
499,131,300489,1,8,0:0:0:0:
173,120,300663,1,8,0:0:0:0:
495,0,300838,1,0,1:0:0:0:
495,0,300925,1,0,1:0:0:0:
495,0,301012,1,14,0:0:0:0:
249,15,301187,2,0,L|303:32,1,55.2499974708558,2|0,1:2|1:0,0:0:0:0:
499,131,301361,5,14,0:0:0:0:
243,154,301535,2,0,L|303:134,1,55.2499974708558,0|0,1:0|1:0,0:0:0:0:
487,305,301710,5,10,0:0:0:0:
394,31,301884,1,2,1:2:0:0:
376,343,302059,5,8,0:0:0:0:
273,41,302233,1,2,1:2:0:0:
265,381,302408,5,8,0:0:0:0:
151,48,302582,1,2,1:2:0:0:
487,305,302756,5,14,1:2:0:0:
273,117,302931,1,14,1:2:0:0:
32,309,303105,1,14,1:2:0:0:
264,232,304152,5,6,1:2:0:0:
252,240,304501,2,0,P|295:259|318:219,1,102,2|0,1:2|0:0,0:0:0:0:
240,248,304849,2,0,P|299:274|330:218,1,140.25000428009,2|0,1:2|0:0,0:0:0:0:
228,256,305198,2,0,P|302:288|342:217,1,178.499994552612,2|0,1:2|0:0,0:0:0:0:
325,179,305547,5,10,0:0:0:0:
147,302,305721,1,8,0:0:0:0:
412,344,305896,1,8,0:0:0:0:
232,141,306070,1,8,0:0:0:0:
318,384,306245,1,8,1:2:0:0:
318,384,306332,1,8,0:0:0:0:
318,384,306419,2,0,L|337:323,1,53.125,8|8,0:0|0:0,0:0:0:0:
379,88,306594,1,8,1:2:0:0:
379,88,306681,1,8,0:0:0:0:
379,88,306768,2,0,L|399:148,1,53.125,8|8,0:0|0:0,0:0:0:0:
471,351,306942,6,0,P|522:297|512:224,1,152.999995330811,6|0,1:0|0:0,0:0:0:0:
476,140,307291,2,0,P|425:155|362:176,1,101.999996887207,12|0,1:2|0:0,0:0:0:0:
318,384,307640,1,2,1:0:0:0:
440,269,307815,1,0,0:0:0:0:
233,111,307989,2,0,P|247:155|261:199,1,93.5000028533936,8|0,0:0|0:0,0:0:0:0:
59,310,308338,6,0,P|73:266|87:222,1,93.5000028533936,2|0,1:0|0:0,0:0:0:0:
177,366,308687,1,8,0:0:0:0:
0,233,308861,1,2,0:0:0:0:
177,366,309035,2,0,P|221:352|265:338,1,93.5000028533936,2|0,1:0|0:0,0:0:0:0:
400,184,309384,2,0,P|355:168|310:155,1,93.5000028533936,10|0,0:0|0:0,0:0:0:0:
440,384,309733,6,0,B|478:264|478:264|422:292,1,187.000005706787,2|8,1:0|0:0,0:0:0:0:
330,384,310256,1,0,0:0:0:0:
437,190,310431,2,0,P|421:145|408:101,1,93.5000028533936,2|0,1:0|0:0,0:0:0:0:
288,26,310780,1,8,0:0:0:0:
512,152,310954,5,0,0:0:0:0:
512,152,311041,1,2,0:0:0:0:
512,152,311128,2,0,P|441:149|404:252,1,187.000005706787,2|8,1:0|0:0,0:0:0:0:
213,145,311652,1,2,0:0:0:0:
238,118,311739,1,2,0:0:0:0:
275,113,311826,1,2,1:0:0:0:
382,171,312001,1,2,0:0:0:0:
254,0,312175,2,0,P|209:13|165:29,1,93.5000028533936,10|8,0:0|0:0,0:0:0:0:
33,12,312437,5,8,0:0:0:0:
26,0,312524,2,0,P|120:10|140:104,1,203.999993774414,6|10,1:0|0:0,0:0:0:0:
199,232,313047,1,0,0:0:0:0:
59,79,313221,2,0,P|44:124|30:168,1,93.5000028533936,2|0,1:0|0:0,0:0:0:0:
227,320,313570,2,0,P|212:275|198:231,1,93.5000028533936,10|0,0:0|0:0,0:0:0:0:
386,371,313919,6,0,P|412:332|414:286,1,93.5000028533936,2|0,1:0|0:0,0:0:0:0:
236,134,314268,2,0,P|256:176|295:200,1,93.5000028533936,10|0,0:0|0:0,0:0:0:0:
512,112,314617,2,0,P|465:108|424:130,1,93.5000028533936,2|8,1:0|0:0,0:0:0:0:
416,145,314878,1,8,0:0:0:0:
407,162,314966,2,0,L|421:206,1,46.7500014266968,8|8,1:2|0:0,0:0:0:0:
195,314,315140,1,4,0:3:0:0:
206,282,315227,1,8,0:3:0:0:
216,251,315314,5,14,0:0:0:0:
224,244,315663,1,0,1:0:0:0:
75,321,315838,1,0,1:0:0:0:
39,165,316012,1,2,1:0:0:0:
129,259,316187,1,0,1:0:0:0:
101,113,316361,1,0,1:0:0:0:
32,248,316535,1,0,1:0:0:0:
171,72,316710,5,10,0:0:0:0:
195,314,316884,1,8,0:0:0:0:
26,87,317059,1,8,0:0:0:0:
0,344,317233,1,4,0:3:0:0:
8,341,317320,1,4,0:3:0:0:
16,338,317407,1,6,0:3:0:0:
153,158,317582,1,8,0:3:0:0:
351,329,317756,6,0,P|278:304|205:281,1,152.999995330811,4|0,1:0|0:0,0:0:0:0:
110,182,318105,6,0,B|139:144|182:163|182:163|206:199|202:243|177:278,1,203.999993774414,12|0,1:2|1:0,0:0:0:0:
16,338,318628,1,8,0:0:0:0:
16,338,318716,1,8,0:0:0:0:
16,338,318803,2,0,P|31:293|44:248,1,93.5000028533936,10|8,1:2|1:2,0:0:0:0:
37,233,319065,1,8,0:0:0:0:
28,219,319152,1,8,1:2:0:0:
172,60,319326,2,0,L|158:16,1,46.7500014266968,0|8,1:0|0:0,0:0:0:0:
62,118,319501,6,0,P|100:144|146:146,1,93.5000028533936,6|0,1:0|1:0,0:0:0:0:
162,142,319762,1,8,0:0:0:0:
177,137,319849,1,0,1:0:0:0:
361,17,320024,1,0,1:0:0:0:
335,8,320111,1,8,0:0:0:0:
310,0,320198,1,2,1:0:0:0:
461,175,320373,1,0,1:0:0:0:
487,166,320460,1,8,0:0:0:0:
512,158,320547,1,8,1:2:0:0:
291,314,320721,1,0,1:0:0:0:
246,300,320808,1,8,0:0:0:0:
199,284,320896,6,0,P|223:211|246:138,1,152.999995330811,6|0,1:0|0:0,0:0:0:0:
234,60,321245,6,0,L|205:69,3,29.7499990921021,2|2|2|2,0:0|0:0|0:0|0:0,0:0:0:0:
122,126,321594,6,0,L|160:138,3,40.3749989218712,2|2|2|2,0:0|0:0|0:0|0:0,0:0:0:0:
333,267,321942,6,0,L|280:284,1,55.2499974708558,2|2,0:0|0:0,0:0:0:0:
88,370,322117,2,0,L|113:378,1,27.6249987354279,2|2,0:0|0:0,0:0:0:0:
93,363,322204,2,0,L|118:371,1,27.6249987354279,2|2,0:0|0:0,0:0:0:0:
98,356,322291,1,0,1:0:0:0:
91,141,322640,5,10,1:2:0:0:
94,253,322756,5,10,1:2:0:0:
203,250,322873,5,10,1:2:0:0:
202,140,322989,5,10,1:2:0:0:
