osu file format v14

[General]
AudioFilename: audio.mp3
AudioLeadIn: 0
PreviewTime: 63078
Countdown: 0
SampleSet: Soft
StackLeniency: 0.7
Mode: 2
LetterboxInBreaks: 0
WidescreenStoryboard: 0

[Editor]
Bookmarks: 16683,39008,64125,86450,114357,136683,161799,184125,203660,225985,251101,273427,306915
DistanceSpacing: 1.2
BeatDivisor: 4
GridSize: 16
TimelineZoom: 2.650002

[Metadata]
Title:Flyers!!!
TitleUnicode:Flyers!!!
Artist:765 MILLION ALLSTARS
ArtistUnicode:765 MILLION ALLSTARS
Creator:Greaper
Version:COLLAB MASTER!!!
Source:アイドルマスター ミリオンライブ!
Tags:Usaha Takekii Takeki Nana Abe Hanasaka Yui Video Game アイマス ミリマス ミリシタ idolmaster 堀江晶太 imas im@s 765pro idolm@ster million live the@ter generation 11 mltd japanese idol wave vg
BeatmapID:3495959
BeatmapSetID:1710928

[Difficulty]
HPDrainRate:6
CircleSize:4
OverallDifficulty:9.3
ApproachRate:9.3
SliderMultiplier:1.9
SliderTickRate:2

[Events]
//Background and Video events
0,0,"flyers.jpg",0,0
//Break Periods
//Storyboard Layer 0 (Background)
//Storyboard Layer 1 (Fail)
//Storyboard Layer 2 (Pass)
//Storyboard Layer 3 (Foreground)
//Storyboard Layer 4 (Overlay)
//Storyboard Sound Samples

[TimingPoints]
525,461.538461538462,4,2,1,50,1,0
525,-80,4,2,1,50,0,0
1948,-80,4,2,1,40,0,0
2371,-80,4,2,1,50,0,0
5640,-80,4,2,1,40,0,0
6063,-80,4,2,1,50,0,0
14371,-80,4,2,1,55,0,0
14601,-80,4,2,1,60,0,0
14832,-80,4,2,1,65,0,0
15063,-80,4,2,1,5,0,0
15294,348.837209302326,4,2,1,70,1,0
15991,-100,4,2,1,60,0,0
27852,-100,4,2,1,50,0,0
39014,-100,4,2,1,60,0,0
50177,-100,4,2,1,65,0,0
55759,-100,4,2,1,70,0,0
58549,-100,4,2,1,75,0,0
61166,-100,4,2,1,80,0,0
64131,-90.9090909090909,4,2,1,90,0,1
97619,-90.9090909090909,4,2,1,90,0,0
103200,-90.9090909090909,4,2,1,90,0,1
108782,-90.9090909090909,4,2,1,90,0,0
111573,-90.9090909090909,4,2,1,90,0,1
114363,-100,4,2,1,70,0,0
125875,-100,4,2,1,50,0,0
128317,-100,4,2,1,60,0,0
131107,-100,4,2,1,70,0,0
147852,-100,4,2,1,75,0,0
156224,-100,4,2,1,80,0,0
158840,-100,4,2,1,85,0,0
161631,-100,4,2,1,5,0,0
161805,-90.9090909090909,4,2,1,90,0,1
195294,-90.9090909090909,4,2,1,90,0,0
200875,-90.9090909090909,4,2,1,90,0,1
203666,-100,4,2,1,75,0,0
225991,-100,4,2,1,65,0,0
242735,-100,4,2,1,70,0,0
245526,-100,4,2,1,75,0,0
248317,-100,4,2,1,80,0,0
249538,-100,4,2,1,90,0,0
251107,-35.7142857142857,4,2,1,90,0,1
251195,-100,4,2,1,90,0,0
251456,-100,4,2,1,90,0,0
253898,-90.9090909090909,4,2,1,90,0,1
284595,-90.9090909090909,4,2,1,90,0,1
290176,-90.9090909090909,4,2,1,90,0,1
295759,-90.9090909090909,4,2,1,90,0,0
298549,-90.9090909090909,4,2,1,90,0,1
303084,-90.9090909090909,4,2,1,90,0,0
304131,-90.9090909090909,4,2,1,90,0,1
306921,-100,4,2,1,75,0,0
315294,-100,4,2,1,90,0,0

[Colours]
Combo1 : 140,244,167
Combo2 : 242,125,125
Combo3 : 255,244,108
Combo4 : 125,138,255

[HitObjects]
346,315,525,6,0,P|386:266|328:185,1,178.125,4|8,0:2|0:2,0:0:0:0:
268,174,986,1,8,0:2:0:0:
327,140,1140,1,8,0:2:0:0:
387,126,1294,1,8,0:2:0:0:
236,107,1448,2,0,L|72:100,1,158.333333333333,8|0,0:2|0:2,0:0:0:0:
203,205,1909,5,8,0:2:0:0:
220,217,1948,1,0,0:2:0:0:
236,225,1985,1,0,0:2:0:0:
249,249,2025,1,0,0:2:0:0:
255,259,2062,1,0,0:2:0:0:
258,283,2101,1,0,0:2:0:0:
257,298,2139,1,0,0:2:0:0:
248,319,2178,1,0,0:2:0:0:
240,334,2216,1,0,0:2:0:0:
219,351,2255,1,0,0:2:0:0:
209,357,2293,1,0,0:2:0:0:
47,281,2371,6,0,L|39:150,1,118.75,4|0,0:2|0:2,0:0:0:0:
95,143,2717,1,0,0:2:0:0:
192,244,2832,1,8,0:2:0:0:
250,194,2985,1,8,0:2:0:0:
243,118,3139,1,8,0:2:0:0:
178,80,3293,1,8,0:2:0:0:
18,65,3601,1,0,0:2:0:0:
262,68,3755,2,0,L|427:71,1,158.333333333333,4|0,0:2|0:2,0:0:0:0:
161,316,4217,6,0,P|130:257|218:189,1,178.125,4|8,0:2|0:2,0:0:0:0:
268,185,4678,1,8,0:2:0:0:
347,180,4832,1,8,0:2:0:0:
268,133,4986,1,8,0:2:0:0:
116,145,5140,2,0,P|58:103|86:32,1,158.333333333333,8|0,0:2|0:2,0:0:0:0:
207,49,5601,5,8,0:2:0:0:
211,68,5640,1,0,0:2:0:0:
212,87,5678,1,0,0:2:0:0:
210,107,5717,1,0,0:2:0:0:
205,126,5755,1,0,0:2:0:0:
196,144,5794,1,0,0:2:0:0:
185,160,5832,1,0,0:2:0:0:
171,174,5871,1,0,0:2:0:0:
155,186,5909,1,0,0:2:0:0:
137,194,5948,1,0,0:2:0:0:
118,200,5986,1,0,0:2:0:0:
277,312,6063,6,0,L|408:320,1,118.75,4|0,0:2|0:2,0:0:0:0:
366,236,6409,1,0,0:2:0:0:
269,337,6524,1,8,0:2:0:0:
211,287,6677,1,8,0:2:0:0:
218,211,6831,1,8,0:2:0:0:
283,173,6985,1,8,0:2:0:0:
443,126,7293,1,0,0:2:0:0:
199,129,7447,1,12,0:2:0:0:
119,130,7600,1,8,0:2:0:0:
40,131,7754,1,8,0:2:0:0:
292,314,7909,6,0,P|350:281|274:154,1,237.5,4|8,0:2|0:2,0:0:0:0:
211,136,8525,1,8,0:2:0:0:
291,100,8678,1,8,0:2:0:0:
427,100,8832,2,0,L|435:266,1,158.333333333333,8|8,0:2|0:2,0:0:0:0:
200,274,9294,2,0,L|34:289,1,158.333333333333,4|0,0:2|0:2,0:0:0:0:
322,340,9755,6,0,P|383:272|308:156,1,237.5,4|8,0:2|0:2,0:0:0:0:
238,153,10371,1,8,0:2:0:0:
319,114,10525,1,8,0:2:0:0:
183,88,10678,1,8,0:2:0:0:
103,86,10831,1,0,0:2:0:0:
24,85,10985,1,0,0:2:0:0:
265,193,11140,2,0,L|452:196,1,158.333333333333,4|0,0:2|0:2,0:0:0:0:
140,320,11601,6,0,P|73:256|154:161,1,237.5,4|2,0:2|0:2,0:0:0:0:
271,160,12217,1,2,0:2:0:0:
149,159,12371,1,2,0:2:0:0:
388,138,12525,2,0,L|396:299,1,158.333333333333,8|8,0:2|0:2,0:0:0:0:
141,319,12986,1,6,0:2:0:0:
269,315,13140,1,2,0:2:0:0:
397,317,13294,1,2,0:2:0:0:
157,245,13448,5,4,0:2:0:0:
256,192,13678,12,0,15063,0:2:0:0:
412,216,15294,5,0,1:2:0:0:
412,216,15642,1,0,1:2:0:0:
149,213,15991,2,0,L|91:206,1,47.5,8|8,1:2|0:2,0:0:0:0:
295,190,16166,2,0,L|353:189,1,47.5,8|8,0:2|0:2,0:0:0:0:
149,213,16340,2,0,L|91:206,1,47.5,8|8,1:2|0:2,0:0:0:0:
295,190,16515,2,0,L|353:189,1,47.5,8|8,0:2|0:2,0:0:0:0:
105,134,16689,6,0,P|83:203|103:278,1,142.5,4|0,0:2|0:2,0:0:0:0:
355,208,17038,2,0,L|368:308,1,95,12|0,0:2|0:2,0:0:0:0:
205,209,17387,2,0,L|95:205,2,95,0|0|8,1:2|0:2|0:2,0:0:0:0:
300,217,17910,1,0,0:2:0:0:
58,206,18084,6,0,L|54:102,1,95,2|0,1:2|0:2,0:0:0:0:
167,78,18433,1,8,0:2:0:0:
405,170,18607,2,0,L|414:54,1,95,2|0,0:2|1:2,0:0:0:0:
180,119,18956,1,2,0:2:0:0:
419,249,19131,6,0,P|466:202|372:120,1,190,2|0,0:2|1:2,0:0:0:0:
303,150,19654,1,0,0:2:0:0:
136,241,19828,2,0,L|333:240,1,190,8|0,0:2|1:2,0:0:0:0:
186,185,20352,1,2,0:2:0:0:
318,154,20526,2,0,L|439:154,1,95,10|0,0:2|0:2,0:0:0:0:
169,296,20875,6,0,L|374:296,1,190,2|8,1:2|0:2,0:0:0:0:
203,226,21398,2,0,L|137:226,1,47.5,2|2,0:2|0:2,0:0:0:0:
379,174,21573,2,0,L|387:75,1,95,0|2,1:2|0:2,0:0:0:0:
122,45,21921,2,0,L|115:147,1,95,10|0,0:2|0:2,0:0:0:0:
395,244,22270,6,0,L|199:244,1,190,4|8,1:2|0:2,0:0:0:0:
353,195,22794,2,0,L|359:101,1,95,0|0,0:2|1:2,0:0:0:0:
254,75,23142,1,2,0:2:0:0:
84,197,23317,2,0,L|78:103,1,95,10|0,0:2|0:2,0:0:0:0:
334,201,23666,6,0,P|383:175|324:88,1,190,2|8,1:2|0:2,0:0:0:0:
227,142,24189,1,0,0:2:0:0:
392,242,24363,1,2,1:2:0:0:
416,202,24450,1,0,1:2:0:0:
412,155,24537,1,10,0:2:0:0:
381,121,24624,1,8,0:2:0:0:
218,81,24712,2,0,L|270:77,1,47.5,8|8,0:2|0:2,0:0:0:0:
430,61,24887,2,0,L|482:57,1,47.5,8|4,0:3|0:3,0:0:0:0:
223,174,25061,6,0,L|28:175,1,190,12|8,0:2|0:2,0:0:0:0:
140,116,25584,1,0,1:2:0:0:
407,198,25759,6,0,L|413:96,1,95,10|0,0:2|1:2,0:0:0:0:
153,197,26107,2,0,L|145:90,1,95,8|0,0:2|1:2,0:0:0:0:
433,134,26456,5,10,0:2:0:0:
290,165,26631,1,8,0:2:0:0:
52,91,26805,1,8,0:2:0:0:
195,110,26980,1,8,0:2:0:0:
51,78,27154,5,10,0:2:0:0:
320,128,27328,2,0,L|396:129,1,47.5,0|8,1:2|0:2,0:0:0:0:
153,152,27503,2,0,L|84:152,1,47.5,8|8,0:2|0:3,0:0:0:0:
277,199,27677,2,0,L|334:199,1,47.5,4|4,0:3|0:3,0:0:0:0:
163,270,27852,6,0,P|125:185|159:99,1,190,4|2,1:2|1:2,0:0:0:0:
256,119,28375,1,0,0:2:0:0:
417,117,28549,2,0,L|424:21,1,95,2|0,1:2|0:2,0:0:0:0:
323,25,28898,2,0,L|426:23,1,95,2|2,1:2|0:2,0:0:0:0:
156,192,29247,6,0,L|346:192,1,190,0|2,1:2|1:2,0:0:0:0:
361,161,29770,1,0,0:2:0:0:
198,228,29945,2,0,L|28:229,1,142.5,2|2,1:2|0:2,0:0:0:0:
7,168,30294,2,0,L|123:168,1,95,0|0,1:2|0:2,0:0:0:0:
345,276,30642,6,0,P|408:251|338:182,1,190,2|2,1:2|1:2,0:0:0:0:
187,200,31166,1,2,0:2:0:0:
109,184,31340,1,0,1:2:0:0:
82,101,31514,1,0,0:2:0:0:
121,24,31689,1,0,1:2:0:0:
200,25,31863,1,0,0:2:0:0:
374,171,32038,6,0,L|376:60,1,95,2|0,1:2|0:2,0:0:0:0:
212,173,32387,2,0,L|210:62,1,95,2|2,1:2|0:2,0:0:0:0:
391,73,32735,2,0,L|395:176,1,95,0|0,1:2|0:2,0:0:0:0:
338,198,32997,1,2,0:3:0:0:
155,200,33084,2,0,L|42:200,1,95,0|0,1:2|0:2,0:0:0:0:
114,164,33346,1,0,0:2:0:0:
301,298,33433,6,0,L|491:287,1,190,4|0,1:2|1:2,0:0:0:0:
497,231,33956,1,2,0:2:0:0:
331,288,34131,2,0,L|211:288,2,95,2|0|0,1:2|0:2|1:2,0:0:0:0:
428,284,34654,1,2,0:2:0:0:
259,327,34828,6,0,P|181:317|108:224,1,190,2|2,1:2|1:2,0:0:0:0:
207,187,35352,1,0,0:2:0:0:
58,92,35526,2,0,L|162:92,1,95,2|0,1:2|0:2,0:0:0:0:
299,94,35875,2,0,L|187:95,1,95,2|0,1:2|0:2,0:0:0:0:
460,297,36224,6,0,L|462:103,1,190,2|0,1:2|1:2,0:0:0:0:
365,92,36747,1,0,0:2:0:0:
132,188,36921,2,0,L|129:86,1,95,2|0,1:3|0:2,0:0:0:0:
296,178,37270,2,0,L|304:76,1,95,2|0,1:3|0:2,0:0:0:0:
48,79,37619,5,4,1:2:0:0:
195,93,37794,2,0,L|242:67,2,47.5,0|8|8,1:2|0:2|0:2,0:0:0:0:
51,180,38142,2,0,L|45:274,1,95,2|0,1:2|0:2,0:0:0:0:
279,171,38491,2,0,L|285:265,1,95,2|8,1:2|0:2,0:0:0:0:
229,290,38753,1,8,0:2:0:0:
76,179,38840,2,0,L|149:182,1,47.5,8|12,0:3|0:3,0:0:0:0:
321,104,39014,6,0,P|386:157|334:243,1,190,4|8,1:2|0:2,0:0:0:0:
251,260,39538,1,0,0:2:0:0:
79,276,39712,2,0,L|73:173,1,95,2|0,1:2|0:2,0:0:0:0:
221,160,40061,1,10,0:2:0:0:
73,156,40235,1,0,0:2:0:0:
307,187,40410,6,0,L|496:187,1,190,2|8,1:2|0:2,0:0:0:0:
230,114,41107,2,0,L|428:115,1,190,2|10,1:2|0:2,0:0:0:0:
125,272,41805,6,0,P|80:239|135:138,1,190,2|8,1:2|0:2,0:0:0:0:
376,151,42328,1,2,0:2:0:0:
299,151,42502,1,0,1:2:0:0:
251,227,42676,1,0,0:2:0:0:
279,311,42851,1,8,0:2:0:0:
352,329,43025,1,0,0:2:0:0:
103,324,43200,6,0,L|110:201,1,95,2|0,1:2|0:2,0:0:0:0:
261,215,43549,1,10,0:2:0:0:
16,192,43724,2,0,L|223:177,1,190,2|0,0:2|0:2,0:0:0:0:
108,239,44247,2,0,L|105:341,1,95,8|0,0:2|0:2,0:0:0:0:
103,366,44509,1,0,0:2:0:0:
288,346,44596,6,0,L|479:345,1,190,4|10,1:2|0:2,0:0:0:0:
325,269,45119,2,0,L|321:169,1,95,2|0,0:2|1:2,0:0:0:0:
169,241,45468,2,0,L|165:141,1,95,2|8,0:2|0:2,0:0:0:0:
313,138,45817,1,0,0:2:0:0:
63,155,45991,6,0,L|179:149,1,95,2|0,1:2|0:2,0:0:0:0:
16,304,46340,2,0,L|22:202,1,95,10|0,0:2|0:2,0:0:0:0:
264,207,46689,1,2,1:2:0:0:
142,193,46863,1,0,0:2:0:0:
422,194,47038,2,0,L|373:183,1,47.5,8|8,0:2|0:2,0:0:0:0:
315,141,47212,2,0,L|311:72,1,47.5,4|4,0:3|0:3,0:0:0:0:
496,176,47387,6,0,P|492:97|395:44,1,190,4|0,1:2|1:2,0:0:0:0:
309,43,47910,1,8,0:2:0:0:
72,66,48084,1,0,1:2:0:0:
207,81,48259,1,8,0:2:0:0:
72,66,48433,1,8,0:2:0:0:
374,188,48607,6,0,L|169:205,1,190,4|0,1:2|1:2,0:0:0:0:
437,248,49131,2,0,L|447:352,1,95,8|0,0:2|0:2,0:0:0:0:
399,353,49392,1,8,0:2:0:0:
233,336,49480,2,0,L|114:329,1,95,8|8,0:2|0:3,0:0:0:0:
269,261,49828,1,4,0:3:0:0:
136,258,50003,1,12,0:3:0:0:
417,259,50177,6,0,P|485:223|398:68,1,285,4|0,1:2|1:2,0:0:0:0:
275,62,50875,2,0,L|424:53,2,142.5,10|2|2,0:2|0:2|1:2,0:0:0:0:
32,271,51573,6,0,P|55:218|257:114,1,285,2|0,1:2|1:2,0:0:0:0:
111,45,52270,2,0,L|5:39,2,95,10|0|0,0:2|0:2|0:2,0:0:0:0:
430,301,52968,6,0,P|434:248|324:165,1,190,2|0,1:2|0:2,0:0:0:0:
215,146,53491,1,0,1:2:0:0:
459,120,53666,2,0,L|256:90,1,190,10|2,0:2|0:2,0:0:0:0:
365,50,54189,1,0,1:2:0:0:
130,66,54363,5,2,1:2:0:0:
251,133,54538,2,0,L|350:139,2,95,8|0|0,0:2|0:2|1:2,0:0:0:0:
16,192,55061,2,0,L|165:200,1,142.5,10|0,0:2|0:2,0:0:0:0:
328,258,55410,2,0,L|172:261,1,142.5,14|0,0:2|0:2,0:0:0:0:
380,340,55759,6,0,L|476:342,2,95,4|0|8,1:2|1:2|0:2,0:0:0:0:
114,276,56282,2,0,L|105:171,1,95,2|0,1:2|0:2,0:0:0:0:
339,160,56631,1,2,1:2:0:0:
197,154,56805,1,10,0:2:0:0:
445,120,56980,2,0,L|507:118,1,47.5,10|8,0:2|0:2,0:0:0:0:
290,69,57154,5,4,1:2:0:0:
414,82,57328,1,0,1:2:0:0:
290,69,57503,1,8,0:2:0:0:
32,96,57677,2,0,L|28:218,1,95,2|0,1:2|0:2,0:0:0:0:
278,228,58026,1,2,1:2:0:0:
138,237,58200,2,0,L|19:242,1,95,10|0,0:2|1:2,0:0:0:0:
336,317,58549,6,0,L|139:320,1,190,4|8,1:2|0:2,0:0:0:0:
285,254,59073,1,0,1:2:0:0:
32,192,59247,2,0,L|27:86,1,95,10|0,0:2|1:2,0:0:0:0:
273,78,59596,1,10,0:2:0:0:
145,71,59770,1,0,1:2:0:0:
423,210,59945,5,10,0:2:0:0:
290,202,60119,1,0,1:2:0:0:
52,197,60294,1,10,0:2:0:0:
187,207,60468,1,8,0:2:0:0:
52,197,60642,1,8,0:2:0:0:
301,279,60817,1,10,0:2:0:0:
319,293,60860,2,0,L|317:371,1,71.25,8|8,0:2|0:2,0:0:0:0:
43,310,61166,5,4,1:2:0:0:
316,168,61514,1,2,1:2:0:0:
76,141,61689,2,0,L|70:34,1,95,10|0,0:2|1:2,0:0:0:0:
117,32,61950,1,0,1:2:0:0:
314,44,62038,2,0,L|410:41,1,95,10|0,0:2|1:2,0:0:0:0:
246,108,62299,2,0,L|177:111,2,47.5,2|8|8,0:2|0:2|0:3,0:0:0:0:
439,165,62561,2,0,L|445:230,1,47.5,4|4,0:3|0:3,0:0:0:0:
206,258,62735,5,8,0:2:0:0:
162,242,62822,1,2,0:2:0:0:
143,200,62909,1,2,0:2:0:0:
160,158,62996,1,2,0:2:0:0:
204,141,63083,1,2,0:2:0:0:
472,150,63433,2,0,L|409:141,1,47.5,8|8,1:2|0:2,0:0:0:0:
211,86,63607,2,0,L|149:81,1,47.5,8|8,0:2|0:2,0:0:0:0:
381,208,63782,2,0,L|384:273,1,47.5,8|8,1:2|0:2,0:0:0:0:
168,259,63956,2,0,L|105:251,1,47.5,8|8,0:2|0:2,0:0:0:0:
413,343,64131,6,0,P|459:286|409:234,1,156.750004783631,4|0,1:2|0:2,0:0:0:0:
175,142,64480,2,0,L|389:142,1,209.000006378174,12|0,0:2|1:2,0:0:0:0:
400,86,65003,1,0,0:2:0:0:
146,48,65177,1,10,0:2:0:0:
301,80,65352,1,0,0:2:0:0:
53,225,65526,6,0,L|47:113,1,104.500003189087,2|0,1:2|0:2,0:0:0:0:
301,194,65875,2,0,L|307:82,1,104.500003189087,10|0,0:2|0:2,0:0:0:0:
180,63,66224,1,2,1:2:0:0:
364,122,66398,1,2,0:2:0:0:
184,216,66573,2,0,L|62:216,1,104.500003189087,10|0,0:2|0:2,0:0:0:0:
394,299,66921,6,0,P|467:253|375:192,1,209.000006378174,2|10,1:2|0:2,0:0:0:0:
285,219,67445,1,0,0:2:0:0:
39,123,67619,1,0,1:2:0:0:
212,84,67794,1,2,0:2:0:0:
45,76,67968,2,0,L|41:196,1,104.500003189087,10|0,0:2|0:2,0:0:0:0:
386,276,68317,6,0,L|172:275,1,209.000006378174,2|8,1:2|0:2,0:0:0:0:
166,216,68840,1,0,0:2:0:0:
465,181,69014,2,0,L|477:64,1,104.500003189087,2|0,1:2|0:2,0:0:0:0:
297,146,69363,2,0,L|288:32,1,104.500003189087,10|0,0:2|0:2,0:0:0:0:
111,171,69712,6,0,P|61:156|109:90,1,156.750004783631,2|0,1:2|0:2,0:0:0:0:
310,289,70061,2,0,L|67:288,1,209.000006378174,12|0,0:2|1:2,0:0:0:0:
263,207,70584,1,0,0:2:0:0:
22,138,70759,1,10,0:2:0:0:
162,124,70933,1,0,0:2:0:0:
435,301,71107,6,0,L|442:185,1,104.500003189087,2|0,1:2|0:2,0:0:0:0:
195,201,71456,2,0,L|188:84,1,104.500003189087,10|0,0:2|0:2,0:0:0:0:
317,84,71805,1,2,1:2:0:0:
139,169,71980,1,2,0:2:0:0:
318,182,72154,2,0,L|434:183,1,104.500003189087,10|0,0:2|0:2,0:0:0:0:
94,322,72503,6,0,P|36:303|95:210,1,209.000006378174,2|8,1:2|0:2,0:0:0:0:
215,262,73026,1,0,0:2:0:0:
468,178,73200,2,0,L|346:178,2,104.500003189087,2|0|8,1:2|0:2|0:2,0:0:0:0:
286,131,73724,1,2,0:2:0:0:
36,338,73898,6,0,L|36:219,1,104.500003189087,2|0,1:2|0:2,0:0:0:0:
296,190,74247,1,10,0:2:0:0:
150,223,74421,2,0,L|28:224,1,104.500003189087,2|8,0:2|0:3,0:0:0:0:
310,135,74770,2,0,L|326:201,1,52.2500015945435,2|8,1:2|0:2,0:0:0:0:
134,240,74945,2,0,L|17:240,1,104.500003189087,10|8,0:2|0:2,0:0:0:0:
96,192,75206,1,8,0:2:0:0:
393,283,75294,6,0,P|438:248|373:179,1,156.750004783631,4|0,1:2|0:2,0:0:0:0:
208,324,75642,2,0,L|203:214,1,104.500003189087,12|0,0:2|0:2,0:0:0:0:
376,249,75991,2,0,L|494:248,1,104.500003189087,2|0,1:2|0:2,0:0:0:0:
307,57,76340,2,0,L|302:167,1,104.500003189087,10|0,0:2|0:2,0:0:0:0:
54,237,76689,6,0,L|169:237,1,104.500003189087,2|0,1:2|0:2,0:0:0:0:
331,221,77038,2,0,L|336:111,1,104.500003189087,10|0,0:2|0:2,0:0:0:0:
78,155,77387,1,2,1:2:0:0:
240,108,77561,1,2,0:2:0:0:
72,67,77735,2,0,L|199:67,1,104.500003189087,10|0,0:2|0:2,0:0:0:0:
429,267,78084,6,0,L|436:142,1,104.500003189087,2|0,1:2|0:2,0:0:0:0:
180,163,78433,2,0,L|63:165,1,104.500003189087,10|0,0:2|0:2,0:0:0:0:
352,302,78782,1,2,1:2:0:0:
193,263,78956,1,2,0:2:0:0:
352,223,79131,1,8,0:2:0:0:
105,89,79305,2,0,L|99:205,1,104.500003189087,2|0,0:2|1:2,0:0:0:0:
370,140,79654,5,2,0:2:0:0:
208,102,79828,1,10,0:2:0:0:
459,223,80003,2,0,L|461:97,1,104.500003189087,2|0,0:2|1:2,0:0:0:0:
209,88,80352,2,0,L|88:89,1,104.500003189087,2|8,0:2|0:2,0:0:0:0:
282,43,80700,2,0,L|343:43,1,52.2500015945435,2|0,0:2|0:2,0:0:0:0:
132,234,80875,6,0,L|-6:231,2,104.500003189087,4|0|8,1:2|0:2|0:2,0:0:0:0:
386,234,81398,2,0,L|276:233,1,104.500003189087,2|0,0:2|1:2,0:0:0:0:
448,136,81747,1,2,0:2:0:0:
176,163,81921,2,0,P|121:146|178:99,1,156.750004783631,10|0,0:2|0:2,0:0:0:0:
384,264,82270,6,0,L|504:262,2,104.500003189087,4|0|8,1:2|0:2|0:2,0:0:0:0:
116,251,82794,2,0,L|235:250,1,104.500003189087,2|0,0:2|1:2,0:0:0:0:
380,153,83142,1,2,0:2:0:0:
134,107,83317,2,0,L|19:107,1,104.500003189087,10|0,0:2|1:2,0:0:0:0:
94,68,83578,1,0,1:2:0:0:
328,230,83666,6,0,L|331:346,1,104.500003189087,12|0,0:2|1:2,0:0:0:0:
171,321,84014,1,0,1:2:0:0:
427,197,84189,5,12,0:2:0:0:
268,169,84363,1,0,1:2:0:0:
427,197,84538,1,2,1:2:0:0:
150,215,84712,2,0,L|143:108,1,104.500003189087,12|0,0:2|0:2,0:0:0:0:
402,95,85061,2,0,L|329:89,1,52.2500015945435,8|12,0:3|0:3,0:0:0:0:
160,72,85235,2,0,L|87:66,1,52.2500015945435,8|12,0:3|0:3,0:0:0:0:
355,297,85410,6,0,B|370:263|370:263|362:186,1,104.500003189087,12|0,0:2|0:2,0:0:0:0:
181,277,85759,1,0,1:2:0:0:
419,179,85933,2,0,L|361:174,1,52.2500015945435,8|8,0:2|0:2,0:0:0:0:
160,141,86107,2,0,L|97:135,1,52.2500015945435,8|8,1:2|0:2,0:0:0:0:
336,133,86282,2,0,L|404:132,1,52.2500015945435,8|8,0:2|0:2,0:0:0:0:
175,195,86456,6,0,L|16:202,1,156.750004783631,4|0,1:2|0:2,0:0:0:0:
253,314,86805,2,0,P|319:296|314:171,1,209.000006378174,12|0,0:2|1:2,0:0:0:0:
214,145,87328,1,0,0:2:0:0:
483,97,87503,1,10,0:2:0:0:
347,93,87677,1,0,0:2:0:0:
66,113,87852,6,0,L|62:228,1,104.500003189087,2|0,1:2|0:2,0:0:0:0:
308,235,88200,2,0,L|189:242,1,104.500003189087,10|0,0:2|0:2,0:0:0:0:
359,288,88549,1,2,1:2:0:0:
97,319,88724,1,2,0:2:0:0:
232,325,88898,2,0,L|336:315,1,104.500003189087,10|0,0:2|0:2,0:0:0:0:
71,243,89247,6,0,P|24:206|88:101,1,209.000006378174,2|10,1:2|0:2,0:0:0:0:
192,109,89770,1,0,0:2:0:0:
442,205,89945,1,2,1:2:0:0:
198,209,90119,1,2,0:2:0:0:
324,206,90294,2,0,L|330:94,1,104.500003189087,10|0,0:2|0:2,0:0:0:0:
57,112,90642,6,0,L|273:105,1,209.000006378174,2|8,1:2|0:2,0:0:0:0:
127,181,91166,1,0,0:2:0:0:
384,184,91340,2,0,L|389:312,1,104.500003189087,2|0,1:2|0:2,0:0:0:0:
238,298,91689,2,0,L|132:305,1,104.500003189087,10|0,0:2|1:2,0:0:0:0:
79,304,91950,1,8,0:2:0:0:
314,246,92038,6,0,P|316:316|230:361,1,156.750004783631,4|0,1:2|0:2,0:0:0:0:
54,357,92387,2,0,L|270:346,2,209.000006378174,12|0|10,0:2|1:2|0:2,0:0:0:0:
44,264,93259,1,0,0:2:0:0:
316,248,93433,6,0,L|320:135,1,104.500003189087,2|0,1:2|0:2,0:0:0:0:
167,180,93782,2,0,L|159:60,1,104.500003189087,10|0,0:2|0:2,0:0:0:0:
423,75,94131,2,0,L|289:68,1,104.500003189087,2|2,1:2|0:2,0:0:0:0:
27,70,94480,2,0,L|160:72,1,104.500003189087,10|0,0:2|0:2,0:0:0:0:
428,301,94828,6,0,P|467:224|404:183,1,156.750004783631,2|0,1:2|0:2,0:0:0:0:
236,185,95177,2,0,L|109:176,1,104.500003189087,12|0,0:2|0:2,0:0:0:0:
296,134,95526,2,0,L|453:129,1,156.750004783631,2|0,1:2|0:2,0:0:0:0:
268,309,95875,2,0,L|385:308,1,104.500003189087,12|0,0:2|0:2,0:0:0:0:
82,316,96224,6,0,L|78:194,1,104.500003189087,0|8,1:2|0:2,0:0:0:0:
334,196,96573,1,10,0:2:0:0:
201,184,96747,1,2,1:2:0:0:
181,132,96834,1,8,0:2:0:0:
197,79,96921,1,8,1:2:0:0:
251,71,97009,1,8,0:2:0:0:
356,67,97096,2,0,L|413:62,1,52.2500015945435,12|12,0:3|0:3,0:0:0:0:
219,37,97270,2,0,L|86:30,1,104.500003189087,4|8,0:3|0:3,0:0:0:0:
403,144,97619,6,0,P|442:184|397:262,1,156.750004783631,4|0,1:2|0:2,0:0:0:0:
216,272,97968,2,0,L|94:279,1,104.500003189087,10|0,0:2|1:2,0:0:0:0:
59,287,98230,1,8,0:2:0:0:
158,199,98317,2,0,L|161:94,1,104.500003189087,2|0,1:2|1:2,0:0:0:0:
106,83,98578,1,0,1:2:0:0:
291,57,98666,2,0,L|400:51,1,104.500003189087,10|8,0:2|0:2,0:0:0:0:
448,45,98927,1,8,0:2:0:0:
232,343,99014,6,0,L|96:351,1,104.500003189087,4|0,1:2|0:2,0:0:0:0:
123,281,99276,1,8,0:2:0:0:
312,268,99363,2,0,L|320:135,1,104.500003189087,10|0,0:2|0:2,0:0:0:0:
263,155,99625,1,8,0:2:0:0:
80,154,99712,1,0,1:2:0:0:
34,133,99799,1,8,0:2:0:0:
33,84,99886,1,8,0:2:0:0:
78,63,99973,1,8,0:2:0:0:
246,56,100061,2,0,L|95:48,1,104.500003189087,2|8,1:2|0:2,0:0:0:0:
87,42,100323,1,8,0:2:0:0:
321,126,100410,6,0,L|442:133,1,104.500003189087,4|8,1:2|0:2,0:0:0:0:
425,199,100671,1,8,0:2:0:0:
332,206,100759,2,0,L|207:209,1,104.500003189087,10|0,0:2|0:2,0:0:0:0:
386,253,101107,2,0,L|391:358,1,104.500003189087,2|0,1:2|1:2,0:0:0:0:
336,364,101369,1,8,0:2:0:0:
153,318,101456,2,0,L|82:316,1,52.2500015945435,10|0,0:2|0:2,0:0:0:0:
200,276,101631,2,0,L|271:274,1,52.2500015945435,10|8,0:2|0:2,0:0:0:0:
69,226,101805,6,0,L|63:108,1,104.500003189087,4|0,1:2|1:2,0:0:0:0:
119,105,102067,1,0,1:2:0:0:
211,97,102154,2,0,L|332:88,1,104.500003189087,8|4,0:2|0:3,0:0:0:0:
367,85,102416,1,4,0:3:0:0:
191,166,102503,2,0,L|187:245,1,52.2500015945435,8|0,0:3|1:2,0:0:0:0:
349,201,102677,2,0,L|345:280,1,52.2500015945435,8|8,0:3|0:3,0:0:0:0:
133,271,102852,2,0,L|60:262,1,52.2500015945435,4|4,0:3|0:3,0:0:0:0:
160,320,103026,2,0,L|233:329,1,52.2500015945435,12|12,0:3|0:3,0:0:0:0:
446,340,103200,6,0,L|449:230,1,104.500003189087,4|0,1:2|0:2,0:0:0:0:
182,230,103549,2,0,L|59:220,1,104.500003189087,10|0,0:2|1:2,0:0:0:0:
225,171,103898,1,2,0:2:0:0:
61,166,104073,2,0,L|54:50,1,104.500003189087,2|8,1:2|0:2,0:0:0:0:
356,57,104421,6,0,L|130:53,1,209.000006378174,4|2,1:2|1:2,0:0:0:0:
301,121,104945,1,10,0:2:0:0:
148,122,105119,2,0,L|145:181,1,52.2500015945435,0|8,0:2|0:2,0:0:0:0:
330,205,105294,2,0,L|451:212,1,104.500003189087,2|0,1:2|1:2,0:0:0:0:
347,264,105555,2,0,L|259:267,1,52.2500015945435,2|8,0:2|0:2,0:0:0:0:
440,283,105817,2,0,L|443:343,1,52.2500015945435,2|0,1:2|1:2,0:0:0:0:
209,339,105991,5,2,1:2:0:0:
169,308,106078,1,8,0:3:0:0:
169,258,106165,1,8,0:3:0:0:
210,228,106252,1,8,0:3:0:0:
391,189,106340,2,0,L|508:184,1,104.500003189087,14|0,0:2|0:2,0:0:0:0:
210,150,106689,2,0,L|382:141,1,156.750004783631,4|2,1:2|0:2,0:0:0:0:
369,87,107038,1,8,0:2:0:0:
107,76,107212,6,0,P|46:110|115:201,1,209.000006378174,4|0,1:2|1:2,0:0:0:0:
374,217,107735,1,10,0:2:0:0:
237,227,107910,2,0,L|174:231,1,52.2500015945435,0|8,0:2|0:2,0:0:0:0:
373,302,108084,2,0,L|501:308,1,104.500003189087,2|0,1:2|1:2,0:0:0:0:
156,133,108433,1,10,0:2:0:0:
313,122,108607,2,0,L|384:116,1,52.2500015945435,10|8,0:2|0:2,0:0:0:0:
149,56,108782,6,0,L|33:49,1,104.500003189087,4|0,1:2|1:2,0:0:0:0:
301,186,109131,1,10,0:2:0:0:
156,195,109305,2,0,L|150:303,1,104.500003189087,0|10,1:2|0:2,0:0:0:0:
429,321,109654,2,0,L|296:322,1,104.500003189087,2|8,1:2|0:2,0:0:0:0:
71,346,110003,2,0,L|10:347,1,52.2500015945435,2|0,1:2|1:2,0:0:0:0:
250,175,110177,5,10,0:2:0:0:
113,166,110352,1,8,0:2:0:0:
379,187,110526,2,0,P|428:137|366:81,1,156.750004783631,8|8,0:2|0:2,0:0:0:0:
298,73,110875,2,0,L|223:66,1,52.2500015945435,8|8,0:2|0:2,0:0:0:0:
309,28,111049,2,0,L|384:21,1,52.2500015945435,4|4,0:3|0:3,0:0:0:0:
203,126,111224,1,8,0:3:0:0:
162,156,111311,1,8,0:3:0:0:
157,206,111398,1,12,0:3:0:0:
191,244,111485,1,12,0:3:0:0:
428,286,111573,6,0,L|211:294,1,209.000006378174,4|10,1:2|0:2,0:0:0:0:
353,345,112096,1,0,0:2:0:0:
103,336,112270,2,0,L|98:208,1,104.500003189087,10|8,0:2|0:2,0:0:0:0:
250,219,112619,1,10,0:2:0:0:
98,231,112794,1,8,0:2:0:0:
372,139,112968,5,10,0:2:0:0:
218,134,113142,1,8,0:2:0:0:
372,139,113317,1,8,0:2:0:0:
218,134,113491,1,8,0:2:0:0:
492,70,113666,2,0,L|493:178,1,104.500003189087,12|0,0:2|0:2,0:0:0:0:
439,188,113927,1,8,0:2:0:0:
229,229,114014,2,0,L|157:236,1,52.2500015945435,8|0,0:2|1:2,0:0:0:0:
413,287,114189,2,0,L|341:294,1,52.2500015945435,8|8,0:2|0:2,0:0:0:0:
132,316,114363,6,0,L|28:312,1,95,4|0,0:2|0:0,0:0:0:0:
275,228,114712,2,0,L|380:230,1,95,12|0,0:2|0:2,0:0:0:0:
206,216,115061,1,0,1:2:0:0:
123,183,115235,1,0,0:2:0:0:
124,93,115409,1,8,0:2:0:0:
207,61,115584,1,0,0:2:0:0:
446,200,115758,6,0,L|332:201,1,95,2|0,1:2|0:2,0:0:0:0:
496,99,116107,1,8,0:2:0:0:
247,172,116281,2,0,L|245:74,1,95,2|0,0:2|1:2,0:0:0:0:
483,58,116630,1,2,0:2:0:0:
227,193,116805,6,0,L|29:190,1,190,2|0,0:2|1:2,0:0:0:0:
32,142,117328,1,0,0:2:0:0:
286,218,117503,2,0,P|341:200|286:108,1,190,8|0,0:2|1:2,0:0:0:0:
134,97,118026,1,2,0:2:0:0:
301,129,118200,2,0,L|310:9,1,95,10|0,0:2|0:2,0:0:0:0:
66,222,118549,6,0,L|263:224,1,190,2|8,1:2|0:2,0:0:0:0:
98,135,119072,2,0,L|86:50,1,47.5,2|2,0:2|0:2,0:0:0:0:
295,102,119247,1,0,1:2:0:0:
168,69,119421,1,2,0:2:0:0:
419,36,119595,2,0,L|426:138,1,95,10|0,0:2|0:2,0:0:0:0:
369,161,119857,1,0,0:0:0:0:
175,277,119945,6,0,P|126:251|202:181,1,190,4|8,1:2|0:2,0:0:0:0:
336,207,120468,2,0,L|342:113,1,95,0|0,0:2|1:2,0:0:0:0:
181,100,120816,1,2,0:2:0:0:
343,143,120991,2,0,L|460:143,1,95,10|0,0:2|0:2,0:0:0:0:
178,201,121340,6,0,L|59:201,1,95,2|0,1:2|0:0,0:0:0:0:
250,50,121689,2,0,L|368:50,1,95,8|0,0:2|0:2,0:0:0:0:
177,255,122038,2,0,L|180:185,1,47.5,2|0,1:2|1:2,0:0:0:0:
247,169,122212,2,0,L|314:165,1,47.5,10|8,0:2|0:2,0:0:0:0:
111,89,122387,2,0,L|184:84,1,47.5,8|8,0:2|0:2,0:0:0:0:
336,68,122561,2,0,L|413:61,1,47.5,8|4,0:3|0:3,0:0:0:0:
148,228,122735,6,0,L|43:224,1,95,12|0,0:2|0:0,0:0:0:0:
290,105,123084,2,0,L|398:105,2,95,8|0|10,0:2|1:2|0:2,0:0:0:0:
128,103,123607,1,0,1:2:0:0:
373,227,123782,2,0,L|475:226,1,95,8|0,0:2|1:2,0:0:0:0:
208,157,124131,5,10,0:2:0:0:
447,137,124305,1,8,0:2:0:0:
200,86,124480,2,0,L|192:195,1,95,8|8,0:2|0:3,0:0:0:0:
265,211,124741,1,8,0:3:0:0:
418,165,124828,2,0,L|488:159,1,47.5,2|4,1:2|0:3,0:0:0:0:
237,133,125003,2,0,L|171:130,1,47.5,4|4,0:3|1:3,0:0:0:0:
450,47,125177,6,0,P|475:102|447:201,1,142.5,12|0,0:2|0:2,0:0:0:0:
230,206,125526,1,8,0:2:0:0:
360,275,125700,2,0,L|362:159,1,95,8|2,0:2|0:2,0:0:0:0:
219,140,126049,2,0,L|114:140,1,95,0|0,0:2|0:2,0:0:0:0:
28,80,126398,2,0,L|136:79,1,95,0|0,0:2|0:2,0:0:0:0:
287,225,126747,6,0,P|343:203|276:126,1,190,2|0,0:2|0:2,0:0:0:0:
144,158,127270,2,0,L|139:57,1,95,2|0,0:2|0:2,0:0:0:0:
299,83,127619,2,0,L|410:83,1,95,2|0,0:2|0:2,0:0:0:0:
492,79,127881,2,0,L|491:1,1,47.5,2|0,0:2|0:2,0:0:0:0:
349,32,128142,1,2,0:2:0:0:
98,223,128317,6,0,P|45:192|105:111,1,190,4|0,1:2|0:2,0:0:0:0:
271,120,128840,2,0,L|348:119,1,47.5,4|4,0:3|0:3,0:0:0:0:
174,182,129014,1,8,0:3:0:0:
310,183,129276,1,8,0:3:0:0:
137,133,129538,1,12,0:3:0:0:
286,98,129712,2,0,L|167:99,1,95,2|0,1:2|0:2,0:0:0:0:
142,66,129974,1,0,0:2:0:0:
369,201,130061,6,0,L|374:83,1,95,12|0,0:2|0:2,0:0:0:0:
100,172,130410,2,0,L|95:54,1,95,4|0,1:2|0:2,0:0:0:0:
150,50,130671,1,8,0:2:0:0:
333,110,130759,2,0,L|433:109,1,95,8|8,0:2|0:2,0:0:0:0:
375,75,131020,1,8,0:2:0:0:
158,241,131107,6,0,L|57:240,2,95,4|0|8,1:2|0:2|0:2,0:0:0:0:
311,229,131631,1,0,0:2:0:0:
145,208,131805,1,2,1:2:0:0:
62,175,131979,1,0,0:2:0:0:
57,86,132153,1,8,0:2:0:0:
137,45,132328,1,0,0:2:0:0:
390,176,132503,6,0,L|169:170,1,190,2|8,1:2|0:2,0:0:0:0:
187,137,133026,1,0,0:2:0:0:
353,148,133200,2,0,L|452:149,1,95,2|0,1:2|0:2,0:0:0:0:
293,238,133549,2,0,L|197:235,1,95,10|0,0:2|0:2,0:0:0:0:
145,215,133811,1,0,0:2:0:0:
332,325,133898,6,0,P|391:321|478:197,2,190,2|8|0,1:2|0:2|1:2,0:0:0:0:
219,289,134770,1,0,0:2:0:0:
370,203,134945,2,0,L|373:96,1,95,8|8,0:2|0:2,0:0:0:0:
317,78,135206,1,8,0:2:0:0:
155,125,135294,6,0,L|54:123,1,95,4|8,1:2|0:3,0:0:0:0:
117,79,135555,1,8,0:3:0:0:
284,146,135642,2,0,L|337:142,1,47.5,4|4,0:3|0:3,0:0:0:0:
128,282,135817,2,0,P|97:238|140:154,1,142.5,4|0,1:2|0:2,0:0:0:0:
342,113,136166,6,0,L|330:235,1,95,4|8,1:2|0:2,0:0:0:0:
172,157,136514,2,0,L|89:158,1,47.5,8|8,0:2|0:2,0:0:0:0:
323,324,136689,6,0,P|374:298|302:206,1,190,4|8,1:2|0:2,0:0:0:0:
44,192,137387,2,0,L|250:185,1,190,2|10,1:2|0:2,0:0:0:0:
375,185,137910,1,0,0:2:0:0:
123,304,138084,6,0,L|115:193,1,95,2|0,1:2|0:0,0:0:0:0:
263,220,138433,2,0,L|364:219,1,95,8|0,0:2|0:0,0:0:0:0:
364,163,138695,1,0,0:0:0:0:
266,139,138782,2,0,L|259:83,2,47.5,2|0|0,1:2|0:0|0:0,0:0:0:0:
410,96,139131,2,0,L|410:0,1,95,10|0,0:2|0:0,0:0:0:0:
362,6,139392,1,0,0:0:0:0:
195,25,139480,6,0,L|74:25,1,95,4|0,1:2|0:0,0:0:0:0:
242,93,139828,2,0,L|347:106,1,95,8|2,0:2|0:2,0:0:0:0:
97,115,140177,1,0,1:2:0:0:
37,184,140351,1,0,0:2:0:0:
64,271,140525,1,8,0:2:0:0:
152,295,140700,1,0,0:2:0:0:
421,285,140875,6,0,L|198:270,1,190,2|10,1:2|0:2,0:0:0:0:
380,204,141398,1,2,0:0:0:0:
125,188,141573,1,0,1:0:0:0:
235,155,141747,2,0,L|293:150,1,47.5,8|8,0:0|0:0,0:0:0:0:
116,135,141921,1,8,0:2:0:0:
77,111,142008,1,8,0:3:0:0:
78,66,142095,1,12,0:3:0:0:
117,44,142182,1,12,0:3:0:0:
333,50,142270,6,0,L|446:61,1,95,4|0,1:2|0:0,0:0:0:0:
292,136,142619,1,10,0:2:0:0:
435,155,142794,2,0,L|443:254,1,95,2|0,0:2|1:2,0:0:0:0:
209,262,143142,2,0,L|87:268,1,95,2|8,0:2|0:2,0:0:0:0:
254,302,143491,1,0,0:2:0:0:
16,288,143666,6,0,L|18:183,1,95,2|0,1:2|0:2,0:0:0:0:
156,182,144014,2,0,L|162:291,1,95,10|0,0:2|0:2,0:0:0:0:
27,283,144363,1,2,1:2:0:0:
161,276,144538,1,0,0:2:0:0:
399,257,144712,2,0,L|279:265,1,95,8|4,0:2|0:3,0:0:0:0:
256,267,144974,1,4,0:3:0:0:
59,198,145061,6,0,L|54:86,1,95,12|0,0:2|1:2,0:0:0:0:
190,78,145410,1,10,0:2:0:0:
55,79,145584,1,0,1:2:0:0:
295,136,145759,1,10,0:2:0:0:
167,152,145933,2,0,L|160:258,1,95,2|0,1:2|1:2,0:0:0:0:
409,277,146282,6,0,L|195:280,1,190,4|0,1:2|1:2,0:0:0:0:
457,206,146805,2,0,L|459:85,1,95,8|0,0:2|0:2,0:0:0:0:
306,62,147154,1,8,0:2:0:0:
297,106,147241,1,0,0:0:0:0:
315,149,147328,1,8,0:3:0:0:
359,167,147415,1,0,0:0:0:0:
190,179,147503,2,0,L|81:185,1,95,4|12,0:3|0:3,0:0:0:0:
347,362,147852,6,0,P|389:339|335:233,1,190,4|0,1:2|0:2,0:0:0:0:
249,238,148375,1,0,1:0:0:0:
394,167,148549,2,0,L|245:158,2,142.5,10|2|2,0:2|0:2|1:2,0:0:0:0:
139,268,149247,6,0,L|23:255,2,95,2|8|0,1:2|1:2|1:2,0:0:0:0:
255,136,149770,1,0,0:0:0:0:
80,96,149944,2,0,L|11:11,2,95,10|0|0,0:2|0:2|0:2,0:0:0:0:
496,288,150642,6,0,L|267:266,1,190,2|0,1:2|0:2,0:0:0:0:
435,199,151165,1,0,1:2:0:0:
291,205,151340,2,0,L|280:98,1,95,10|0,0:0|1:0,0:0:0:0:
138,203,151689,2,0,L|127:96,1,95,10|0,0:0|0:0,0:0:0:0:
382,318,152037,5,2,1:2:0:0:
261,251,152212,2,0,L|162:245,2,95,8|0|0,0:2|0:2|1:2,0:0:0:0:
496,192,152735,2,0,L|347:184,1,142.5,10|0,0:2|0:2,0:0:0:0:
184,126,153084,2,0,L|340:123,1,142.5,14|0,0:2|0:2,0:0:0:0:
132,44,153433,6,0,L|36:42,2,95,4|0|8,1:2|1:2|0:2,0:0:0:0:
398,108,153956,2,0,L|298:111,1,95,2|0,1:2|0:2,0:0:0:0:
161,116,154305,1,2,1:2:0:0:
398,231,154479,1,10,0:2:0:0:
150,265,154654,2,0,L|88:267,1,47.5,10|8,0:2|0:2,0:0:0:0:
305,316,154828,5,4,1:2:0:0:
181,303,155002,1,0,1:2:0:0:
244,310,155090,1,0,0:0:0:0:
305,316,155177,1,8,0:2:0:0:
32,288,155351,2,0,L|28:166,1,95,2|0,1:2|0:2,0:0:0:0:
278,156,155700,1,2,1:2:0:0:
16,144,155874,2,0,L|122:152,1,95,14|0,0:2|1:2,0:0:0:0:
435,241,156223,6,0,P|422:148|347:85,1,190,4|8,1:2|0:2,0:0:0:0:
227,130,156747,1,0,1:2:0:0:
480,192,156921,2,0,L|485:298,1,95,10|0,0:2|1:2,0:0:0:0:
239,306,157270,1,10,0:2:0:0:
367,313,157444,1,0,1:2:0:0:
89,174,157619,5,10,0:2:0:0:
217,184,157794,2,0,L|223:102,1,47.5,8|8,0:2|0:2,0:0:0:0:
72,88,157968,2,0,L|72:24,1,47.5,10|0,0:2|1:2,0:0:0:0:
135,21,158142,2,0,L|204:17,1,47.5,0|8,1:2|1:2,0:0:0:0:
351,53,158317,2,0,L|402:52,1,47.5,8|0,0:2|1:2,0:0:0:0:
205,98,158491,1,8,0:3:0:0:
148,104,158578,1,8,0:3:0:0:
91,114,158665,1,4,0:3:0:0:
469,74,158840,5,4,1:2:0:0:
196,216,159188,1,2,1:2:0:0:
436,243,159363,2,0,L|442:350,1,95,10|0,0:2|1:2,0:0:0:0:
395,352,159624,1,8,0:2:0:0:
198,340,159712,2,0,L|200:280,1,47.5,2|8,1:2|0:3,0:0:0:0:
250,278,159887,1,8,0:3:0:0:
441,197,159973,2,0,L|510:194,2,47.5,2|4|4,1:2|0:3|0:3,0:0:0:0:
248,140,160235,2,0,L|179:140,1,47.5,2|8,1:2|0:3,0:0:0:0:
394,51,160410,5,12,0:2:0:0:
256,192,160759,12,0,161631,0:2:0:0:
159,253,161805,6,0,P|125:174|162:115,1,156.750004783631,4|0,1:2|0:2,0:0:0:0:
367,259,162154,2,0,L|130:252,1,209.000006378174,12|0,0:2|1:2,0:0:0:0:
143,201,162677,1,0,0:2:0:0:
398,106,162852,1,10,0:2:0:0:
240,71,163026,1,0,0:2:0:0:
492,220,163200,6,0,L|498:81,1,104.500003189087,2|0,1:2|0:2,0:0:0:0:
237,122,163549,2,0,L|120:123,1,104.500003189087,10|0,0:2|0:2,0:0:0:0:
382,209,163898,1,2,1:2:0:0:
225,248,164073,1,2,0:2:0:0:
391,285,164247,2,0,L|398:164,1,104.500003189087,10|0,0:2|0:2,0:0:0:0:
122,294,164596,6,0,L|11:294,2,104.500003189087,2|0|10,1:2|0:0|0:2,0:0:0:0:
300,257,165119,1,0,0:2:0:0:
121,181,165294,2,0,L|119:65,1,104.500003189087,0|2,1:2|0:2,0:0:0:0:
379,68,165642,2,0,L|508:66,1,104.500003189087,10|0,0:2|0:2,0:0:0:0:
169,241,165991,6,0,P|113:206|179:108,1,209.000006378174,2|8,1:2|0:2,0:0:0:0:
326,159,166514,1,0,0:2:0:0:
53,243,166689,2,0,L|43:136,1,104.500003189087,2|0,1:2|0:2,0:0:0:0:
219,141,167038,2,0,L|227:32,1,104.500003189087,10|0,0:2|0:2,0:0:0:0:
406,173,167387,6,0,P|458:148|409:83,1,156.750004783631,2|0,1:2|0:2,0:0:0:0:
214,274,167735,2,0,L|433:267,1,209.000006378174,12|0,0:2|1:2,0:0:0:0:
317,202,168259,1,0,0:2:0:0:
136,285,168433,2,0,L|19:286,1,104.500003189087,10|0,0:2|0:2,0:0:0:0:
318,254,168782,6,0,L|443:255,1,104.500003189087,2|0,1:2|0:2,0:0:0:0:
235,182,169131,2,0,L|231:77,1,104.500003189087,10|0,0:2|0:2,0:0:0:0:
47,246,169480,1,2,1:2:0:0:
208,184,169654,1,2,0:2:0:0:
44,169,169828,2,0,L|36:44,1,104.500003189087,10|0,0:2|0:2,0:0:0:0:
345,202,170177,6,0,L|469:203,2,104.500003189087,2|0|8,1:2|0:0|0:2,0:0:0:0:
232,215,170700,1,0,0:2:0:0:
469,123,170875,2,0,L|473:247,1,104.500003189087,2|0,1:2|0:2,0:0:0:0:
211,237,171224,2,0,L|326:237,1,104.500003189087,8|2,0:2|0:2,0:0:0:0:
52,194,171573,6,0,L|48:71,1,104.500003189087,2|0,1:2|0:2,0:0:0:0:
316,56,171921,1,10,0:2:0:0:
74,149,172096,2,0,L|197:149,1,104.500003189087,2|8,0:2|0:3,0:0:0:0:
350,143,172445,2,0,L|358:59,1,52.2500015945435,2|8,1:2|0:2,0:0:0:0:
190,202,172619,1,10,0:2:0:0:
336,213,172794,2,0,L|433:212,1,52.2500015945435,8|8,0:2|0:2,0:0:0:0:
124,343,172968,6,0,L|116:154,1,156.750004783631,4|0,1:2|0:2,0:0:0:0:
319,279,173317,2,0,L|454:278,1,104.500003189087,12|0,0:2|0:2,0:0:0:0:
251,183,173666,2,0,L|243:51,1,104.500003189087,2|0,1:2|0:2,0:0:0:0:
423,148,174014,2,0,L|431:16,1,104.500003189087,10|0,0:2|0:2,0:0:0:0:
166,164,174363,6,0,L|55:165,1,104.500003189087,2|0,1:2|0:2,0:0:0:0:
243,120,174712,2,0,L|248:9,1,104.500003189087,10|0,0:2|0:2,0:0:0:0:
68,241,175061,2,0,L|179:236,1,104.500003189087,2|2,1:2|0:2,0:0:0:0:
355,234,175410,2,0,P|389:184|387:64,1,156.750004783631,10|0,0:2|0:0,0:0:0:0:
225,132,175759,6,0,L|100:132,1,104.500003189087,2|0,1:2|0:2,0:0:0:0:
374,133,176107,2,0,L|379:250,1,104.500003189087,10|0,0:2|0:2,0:0:0:0:
124,342,176456,1,2,1:2:0:0:
271,295,176631,1,2,0:2:0:0:
116,299,176805,1,8,0:2:0:0:
403,336,176980,6,0,L|412:207,1,104.500003189087,2|0,0:2|1:2,0:0:0:0:
148,169,177328,1,2,0:2:0:0:
299,128,177503,1,10,0:2:0:0:
37,59,177677,2,0,L|41:179,1,104.500003189087,2|0,0:2|1:2,0:0:0:0:
295,187,178026,2,0,L|174:187,2,104.500003189087,2|8|2,0:2|0:2|0:2,0:0:0:0:
45,341,178549,6,0,P|26:284|112:178,1,209.000006378174,4|8,1:2|0:2,0:0:0:0:
394,197,179073,2,0,L|400:51,1,104.500003189087,2|0,0:2|1:2,0:0:0:0:
123,80,179421,1,2,0:2:0:0:
279,137,179596,2,0,L|416:136,1,104.500003189087,10|0,0:2|0:0,0:0:0:0:
120,309,179945,6,0,L|11:309,2,104.500003189087,4|0|8,1:2|0:2|0:2,0:0:0:0:
393,291,180468,2,0,L|398:176,1,104.500003189087,2|0,0:2|1:2,0:0:0:0:
135,164,180817,1,2,0:2:0:0:
295,123,180991,2,0,L|405:123,1,104.500003189087,10|0,0:2|1:2,0:0:0:0:
339,80,181253,1,0,1:2:0:0:
98,248,181340,6,0,L|93:130,1,104.500003189087,12|0,0:2|1:2,0:0:0:0:
277,125,181689,1,0,1:2:0:0:
33,297,181863,5,12,0:2:0:0:
184,242,182038,1,0,1:2:0:0:
36,223,182212,1,2,1:2:0:0:
310,276,182387,6,0,L|321:164,1,104.500003189087,12|0,0:2|0:2,0:0:0:0:
58,147,182735,2,0,L|51:8,1,104.500003189087,8|8,0:3|0:3,0:0:0:0:
363,118,183084,2,0,L|471:118,1,104.500003189087,12|0,0:2|0:0,0:0:0:0:
219,219,183433,2,0,L|143:213,1,52.2500015945435,0|0,1:2|0:0,0:0:0:0:
86,182,183607,2,0,L|84:116,1,52.2500015945435,8|8,0:2|0:2,0:0:0:0:
297,98,183782,2,0,L|369:91,1,52.2500015945435,8|8,1:2|0:2,0:0:0:0:
130,139,183956,2,0,L|63:149,1,52.2500015945435,8|8,0:2|0:2,0:0:0:0:
316,246,184131,6,0,L|483:250,1,156.750004783631,4|0,1:2|0:2,0:0:0:0:
259,323,184480,2,0,P|172:283|190:171,1,209.000006378174,12|0,0:2|1:2,0:0:0:0:
286,146,185003,1,0,0:2:0:0:
17,98,185178,1,10,0:2:0:0:
153,94,185352,1,0,0:2:0:0:
446,113,185527,6,0,L|450:228,1,104.500003189087,2|0,1:2|0:2,0:0:0:0:
204,235,185875,2,0,L|197:117,1,104.500003189087,10|0,0:2|0:2,0:0:0:0:
351,296,186224,1,2,1:2:0:0:
89,327,186399,1,2,0:2:0:0:
224,333,186573,2,0,L|328:323,1,104.500003189087,10|0,0:2|0:2,0:0:0:0:
37,224,186921,6,0,P|42:153|185:104,1,209.000006378174,2|10,1:2|0:2,0:0:0:0:
267,142,187445,1,0,0:2:0:0:
16,288,187620,1,2,1:2:0:0:
261,242,187794,1,2,0:2:0:0:
136,242,187969,2,0,L|130:130,1,104.500003189087,10|0,0:2|0:2,0:0:0:0:
410,82,188317,6,0,L|194:75,1,209.000006378174,2|8,1:2|0:2,0:0:0:0:
92,95,188840,2,0,L|86:150,1,52.2500015945435,0|0,0:2|0:0,0:0:0:0:
271,173,189014,2,0,L|399:178,1,104.500003189087,2|0,1:2|0:2,0:0:0:0:
200,255,189364,2,0,L|83:249,1,104.500003189087,10|0,0:2|1:2,0:0:0:0:
374,326,189713,6,0,P|441:301|431:221,1,156.750004783631,4|0,1:2|0:2,0:0:0:0:
226,335,190062,2,0,L|10:324,1,209.000006378174,12|0,0:2|1:2,0:0:0:0:
296,286,190759,2,0,L|301:178,1,104.500003189087,10|0,0:2|0:2,0:0:0:0:
20,177,191108,6,0,L|128:171,1,104.500003189087,2|0,1:2|0:2,0:0:0:0:
272,166,191457,2,0,L|280:46,1,104.500003189087,10|0,0:2|0:2,0:0:0:0:
31,71,191806,2,0,L|165:64,1,104.500003189087,2|2,1:2|0:2,0:0:0:0:
411,89,192155,2,0,L|414:198,1,104.500003189087,10|0,0:2|0:2,0:0:0:0:
105,302,192503,6,0,L|284:298,1,156.750004783631,2|0,1:2|0:2,0:0:0:0:
83,235,192852,2,0,L|70:125,1,104.500003189087,12|0,0:2|0:2,0:0:0:0:
338,134,193201,2,0,L|166:129,1,156.750004783631,2|0,1:2|0:2,0:0:0:0:
362,71,193550,2,0,L|480:70,1,104.500003189087,12|0,0:2|0:2,0:0:0:0:
151,288,193898,5,0,1:2:0:0:
295,285,194073,1,8,0:2:0:0:
151,288,194247,2,0,L|146:172,1,104.500003189087,10|2,0:2|1:2,0:0:0:0:
200,168,194509,1,8,0:2:0:0:
307,159,194596,1,0,1:2:0:0:
16,128,194770,2,0,L|78:123,1,52.2500015945435,12|12,0:3|0:3,0:0:0:0:
293,37,194945,2,0,L|426:30,1,104.500003189087,4|8,0:3|0:3,0:0:0:0:
344,94,195206,1,0,0:0:0:0:
156,172,195294,6,0,P|117:212|162:290,1,156.750004783631,4|0,1:2|0:2,0:0:0:0:
373,288,195643,2,0,L|251:295,1,104.500003189087,10|0,0:2|1:2,0:0:0:0:
216,300,195905,1,8,0:2:0:0:
399,237,195992,2,0,L|402:132,1,104.500003189087,2|0,1:2|1:2,0:0:0:0:
347,121,196253,1,0,1:2:0:0:
159,165,196341,2,0,L|50:159,1,104.500003189087,10|8,0:2|0:2,0:0:0:0:
51,97,196602,1,8,0:2:0:0:
287,343,196689,6,0,L|423:351,1,104.500003189087,4|0,1:2|0:2,0:0:0:0:
443,354,196951,1,8,0:2:0:0:
256,288,197038,2,0,L|248:155,1,104.500003189087,10|0,0:2|0:2,0:0:0:0:
306,169,197300,1,8,0:2:0:0:
487,132,197387,2,0,L|362:126,1,104.500003189087,2|8,1:2|1:3,0:0:0:0:
330,120,197648,1,8,1:3:0:0:
150,162,197735,2,0,L|145:96,1,52.2500015945435,10|12,0:0|0:3,0:0:0:0:
238,77,197910,2,0,L|243:22,1,52.2500015945435,12|4,0:3|0:3,0:0:0:0:
36,35,198084,6,0,L|33:155,1,104.500003189087,4|8,1:2|0:2,0:0:0:0:
89,152,198346,1,8,0:2:0:0:
180,206,198433,1,10,0:2:0:0:
40,224,198607,1,0,0:2:0:0:
320,248,198782,2,0,L|324:185,1,52.2500015945435,2|0,1:2|1:0,0:0:0:0:
241,162,198956,2,0,L|180:149,1,52.2500015945435,8|8,1:2|0:2,0:0:0:0:
377,87,199131,1,10,0:2:0:0:
112,75,199306,2,0,L|39:66,1,52.2500015945435,10|8,0:2|0:2,0:0:0:0:
296,296,199480,6,0,L|429:301,1,104.500003189087,4|0,1:2|1:2,0:0:0:0:
404,363,199742,1,0,1:2:0:0:
351,376,199828,1,8,0:2:0:0:
82,344,200003,2,0,L|78:284,1,52.2500015945435,4|4,0:3|0:3,0:0:0:0:
287,116,200177,2,0,L|345:114,1,52.2500015945435,8|0,0:3|1:2,0:0:0:0:
150,125,200352,2,0,L|67:123,1,52.2500015945435,8|8,0:3|0:3,0:0:0:0:
285,200,200526,2,0,L|287:253,1,52.2500015945435,4|4,0:3|0:3,0:0:0:0:
206,271,200700,2,0,L|143:275,1,52.2500015945435,12|12,0:3|0:3,0:0:0:0:
395,315,200875,6,0,P|445:288|382:175,1,209.000006378174,4|10,1:2|0:2,0:0:0:0:
231,160,201398,1,0,1:2:0:0:
398,173,201573,1,2,0:2:0:0:
131,111,201747,2,0,L|126:230,1,104.500003189087,2|8,1:2|0:2,0:0:0:0:
405,266,202096,6,0,L|154:290,1,209.000006378174,4|2,1:2|1:2,0:0:0:0:
448,214,202619,2,0,L|449:102,1,104.500003189087,10|0,0:2|0:2,0:0:0:0:
396,96,202881,1,8,0:2:0:0:
211,126,202968,2,0,L|91:117,1,104.500003189087,2|8,1:2|1:3,0:0:0:0:
270,194,203317,2,0,L|379:202,1,104.500003189087,8|2,0:2|1:2,0:0:0:0:
82,303,203666,6,0,P|41:258|164:104,1,285,4|0,1:2|1:0,0:0:0:0:
416,224,204363,2,0,L|286:215,2,95,12|0|0,0:0|0:0|1:0,0:0:0:0:
161,182,204887,6,0,L|161:77,1,95,4|0,1:2|0:0,0:0:0:0:
322,155,205235,2,0,L|227:155,1,95,10|0,0:0|0:0,0:0:0:0:
222,125,205584,1,0,1:0:0:0:
384,97,205759,1,10,0:0:0:0:
55,71,205991,1,4,0:3:0:0:
55,71,206107,1,8,0:3:0:0:
229,73,206224,1,4,0:3:0:0:
229,73,206340,1,4,0:3:0:0:
421,319,206456,6,0,P|469:301|407:213,1,190,4|2,1:2|0:0,0:0:0:0:
322,251,206980,1,0,1:2:0:0:
88,182,207154,2,0,L|86:76,1,95,10|0,0:2|1:3,0:0:0:0:
145,63,207416,1,8,1:3:0:0:
291,70,207503,2,0,L|351:62,1,47.5,8|8,1:3|1:3,0:0:0:0:
160,181,207677,6,0,L|52:177,2,95,4|0|0,1:2|0:2|1:2,0:0:0:0:
418,227,208200,2,0,L|295:227,1,95,10|0,0:2|0:2,0:0:0:0:
90,169,208549,2,0,L|95:62,1,95,2|0,1:2|1:2,0:0:0:0:
157,61,208811,1,8,0:2:0:0:
308,126,208898,2,0,L|249:130,1,47.5,8|8,0:2|0:2,0:0:0:0:
90,242,209073,2,0,L|143:234,1,47.5,8|8,0:2|0:2,0:0:0:0:
344,276,209247,6,0,L|464:277,1,95,4|0,1:2|1:2,0:0:0:0:
198,278,209596,2,0,L|91:277,1,95,10|0,0:2|0:2,0:0:0:0:
151,220,209857,1,0,1:2:0:0:
338,180,209945,1,0,1:2:0:0:
100,174,210119,2,0,L|230:171,1,95,2|8,1:2|0:2,0:0:0:0:
439,302,210468,6,0,P|486:264|417:164,1,190,2|2,1:2|1:2,0:0:0:0:
139,190,210991,2,0,L|30:190,1,95,10|0,0:2|1:2,0:0:0:0:
101,228,211253,1,8,0:2:0:0:
265,121,211340,1,0,1:2:0:0:
143,98,211514,1,0,1:2:0:0:
383,214,211689,2,0,L|504:214,1,95,10|0,0:2|1:2,0:0:0:0:
427,170,211950,1,0,1:2:0:0:
129,336,212038,6,0,L|252:335,1,95,2|0,1:2|1:2,0:0:0:0:
125,260,212299,2,0,L|120:202,1,47.5,8|8,0:2|0:2,0:0:0:0:
404,279,212561,2,0,L|410:161,1,95,2|0,1:2|0:2,0:0:0:0:
124,277,212910,2,0,L|120:166,1,95,2|0,1:2|0:2,0:0:0:0:
413,87,213259,6,0,L|201:89,1,190,4|0,1:2|1:2,0:0:0:0:
271,60,213695,1,8,1:3:0:0:
434,182,213782,2,0,L|493:178,1,47.5,12|12,1:3|1:3,0:0:0:0:
229,235,213956,6,0,L|129:232,1,95,6|0,1:2|0:2,0:0:0:0:
384,318,214305,2,0,L|390:202,1,95,2|8,1:2|0:2,0:0:0:0:
323,200,214567,1,8,0:2:0:0:
150,174,214654,2,0,L|80:164,1,47.5,8|8,0:2|0:2,0:0:0:0:
371,192,214828,6,0,L|377:80,1,95,4|0,1:2|0:2,0:0:0:0:
140,157,215177,2,0,L|12:156,2,95,10|0|0,0:2|0:2|1:2,0:0:0:0:
304,140,215700,1,2,0:2:0:0:
67,228,215875,2,0,L|65:123,1,95,10|0,0:2|0:2,0:0:0:0:
350,216,216224,6,0,P|419:195|358:122,1,190,2|8,1:2|0:2,0:0:0:0:
225,132,216747,1,0,0:2:0:0:
373,196,216921,1,0,1:2:0:0:
135,277,217096,1,2,0:2:0:0:
375,334,217270,1,10,0:2:0:0:
412,303,217357,1,2,0:2:0:0:
375,334,217445,1,2,0:2:0:0:
108,196,217619,6,0,L|341:196,1,190,2|10,1:2|0:2,0:0:0:0:
132,167,218142,2,0,L|125:61,1,95,2|0,0:2|1:2,0:0:0:0:
290,134,218491,2,0,L|297:28,1,95,2|8,0:2|0:2,0:0:0:0:
459,149,218840,2,0,L|466:43,1,95,2|0,0:2|1:2,0:0:0:0:
302,170,219189,1,0,1:2:0:0:
446,126,219363,1,8,0:2:0:0:
196,55,219538,6,0,L|187:152,1,95,0|8,1:2|0:2,0:0:0:0:
249,188,219799,1,8,0:3:0:0:
403,165,219887,2,0,L|482:157,1,47.5,2|0,1:2|1:2,0:0:0:0:
170,230,220061,2,0,L|57:230,1,95,10|0,0:2|1:2,0:0:0:0:
25,177,220323,1,8,0:2:0:0:
304,242,220410,6,0,L|442:241,1,95,12|0,0:2|1:2,0:0:0:0:
160,241,220759,2,0,L|22:240,1,95,10|0,0:2|1:2,0:0:0:0:
303,164,221107,1,10,0:2:0:0:
66,120,221282,1,0,1:2:0:0:
317,168,221456,2,0,L|323:43,1,95,10|0,0:2|1:2,0:0:0:0:
259,38,221718,1,0,1:2:0:0:
90,288,221805,6,0,L|212:283,1,95,10|0,0:2|1:2,0:0:0:0:
435,219,222154,2,0,L|313:214,1,95,10|0,0:2|1:2,0:0:0:0:
102,114,222503,1,10,0:2:0:0:
349,69,222677,1,2,1:2:0:0:
88,112,222852,2,0,L|83:212,1,95,10|0,0:2|1:2,0:0:0:0:
384,291,223200,6,0,P|447:265|366:202,1,190,4|0,1:2|1:2,0:0:0:0:
278,224,223724,1,2,0:2:0:0:
42,121,223898,1,10,0:2:0:0:
17,61,224014,1,0,0:2:0:0:
79,10,224131,1,0,0:2:0:0:
292,153,224247,1,10,1:2:0:0:
353,98,224363,1,0,0:2:0:0:
300,28,224480,1,0,0:2:0:0:
88,250,224596,6,0,L|80:137,1,95,4|8,1:2|0:2,0:0:0:0:
326,136,224945,1,8,0:2:0:0:
184,146,225119,1,8,0:2:0:0:
438,268,225294,5,8,0:2:0:0:
328,224,225468,1,8,0:3:0:0:
335,106,225642,1,4,0:3:0:0:
450,77,225817,1,12,0:3:0:0:
174,76,225991,6,0,P|124:153|201:206,1,190,4|0,1:2|1:2,0:0:0:0:
358,211,226689,1,2,1:2:0:0:
186,244,227038,1,0,1:2:0:0:
455,282,227387,6,0,L|460:81,1,190,2|0,1:2|1:2,0:0:0:0:
262,84,228084,2,0,L|256:196,1,95,2|0,1:2|0:2,0:0:0:0:
360,178,228433,2,0,L|354:290,1,95,2|0,1:2|0:2,0:0:0:0:
207,303,228782,6,0,L|8:296,1,190,2|0,1:2|1:2,0:0:0:0:
18,207,229305,1,0,0:2:0:0:
160,207,229480,2,0,L|359:221,1,190,2|0,1:2|1:2,0:0:0:0:
81,172,230177,6,0,P|25:131|95:60,1,190,2|0,1:2|1:2,0:0:0:0:
279,73,230875,1,0,1:2:0:0:
93,101,231224,2,0,L|85:199,1,95,2|0,1:2|0:2,0:0:0:0:
336,283,231573,6,0,P|338:211|224:157,1,190,6|0,1:2|1:2,0:0:0:0:
151,153,232096,2,0,L|351:138,1,190,2|2,0:2|0:2,0:0:0:0:
436,126,232619,1,0,1:2:0:0:
134,136,232968,6,0,L|116:352,1,190,2|0,1:2|1:2,0:0:0:0:
311,153,233666,2,0,L|102:167,1,190,2|0,1:2|1:2,0:0:0:0:
391,277,234363,6,0,P|443:249|361:73,1,285,2|0,1:2|0:2,0:0:0:0:
289,78,235061,1,2,1:2:0:0:
192,73,235235,1,0,0:2:0:0:
285,36,235410,1,0,1:2:0:0:
385,16,235584,1,0,0:2:0:0:
134,223,235759,6,0,L|127:110,1,95,2|0,1:3|0:2,0:0:0:0:
278,168,236107,2,0,L|284:50,1,95,2|0,1:3|0:2,0:0:0:0:
39,72,236456,2,0,L|105:68,1,47.5,8|8,1:2|0:2,0:0:0:0:
233,58,236631,2,0,L|299:54,1,47.5,8|8,0:2|0:2,0:0:0:0:
86,69,236805,2,0,L|152:65,1,47.5,8|8,1:2|0:2,0:0:0:0:
280,55,236980,2,0,L|346:51,1,47.5,8|8,0:2|0:2,0:0:0:0:
114,145,237154,6,0,P|65:179|129:278,1,190,4|8,1:2|0:2,0:0:0:0:
209,287,237677,1,0,0:2:0:0:
356,299,237852,2,0,L|360:199,1,95,2|0,1:2|1:2,0:0:0:0:
218,184,238200,1,10,0:2:0:0:
358,174,238375,1,2,0:2:0:0:
114,183,238549,6,0,L|16:175,1,95,2|0,1:2|1:2,0:0:0:0:
127,261,238898,2,0,L|274:260,1,142.5,8|8,0:2|0:2,0:0:0:0:
196,195,239247,2,0,L|189:74,1,95,2|0,1:2|1:2,0:0:0:0:
345,93,239596,2,0,L|466:90,1,95,10|0,0:2|0:2,0:0:0:0:
200,51,239945,6,0,L|76:41,1,95,2|0,1:2|1:2,0:0:0:0:
253,91,240294,2,0,L|256:192,1,95,10|0,0:2|0:2,0:0:0:0:
16,192,240642,2,0,L|136:198,1,95,2|0,1:2|0:2,0:0:0:0:
283,231,240904,2,0,L|348:236,1,47.5,8|8,0:2|0:2,0:0:0:0:
72,324,241166,6,0,P|24:286|76:173,1,190,4|2,1:2|1:2,0:0:0:0:
152,169,241689,1,8,0:2:0:0:
309,188,241863,2,0,L|315:282,1,95,2|0,0:2|1:2,0:0:0:0:
164,264,242212,1,0,1:2:0:0:
317,290,242387,2,0,L|449:309,1,95,10|2,0:2|1:2,0:0:0:0:
458,319,242648,1,0,1:2:0:0:
265,338,242735,6,0,P|220:308|285:219,1,190,12|2,0:2|0:2,0:0:0:0:
434,225,243259,1,2,0:2:0:0:
288,173,243433,1,0,1:2:0:0:
434,225,243607,1,0,0:2:0:0:
188,117,243782,2,0,L|77:110,1,95,2|2,1:2|0:2,0:0:0:0:
45,105,244044,1,0,0:2:0:0:
210,269,244131,6,0,P|256:240|194:143,1,190,2|0,1:2|1:2,0:0:0:0:
59,172,244654,2,0,L|56:234,1,47.5,10|8,0:2|0:2,0:0:0:0:
229,287,244828,2,0,L|332:296,1,95,10|8,0:2|0:2,0:0:0:0:
373,296,245090,1,8,0:2:0:0:
202,339,245177,2,0,L|134:338,1,47.5,10|0,0:2|1:2,0:0:0:0:
353,336,245352,2,0,L|421:335,1,47.5,8|8,0:2|0:2,0:0:0:0:
158,260,245526,6,0,L|147:126,1,95,4|0,1:2|1:2,0:0:0:0:
304,139,245875,1,8,0:2:0:0:
146,117,246049,2,0,L|75:113,1,47.5,0|8,0:2|0:2,0:0:0:0:
267,73,246224,2,0,L|376:77,1,95,2|0,1:2|1:2,0:0:0:0:
214,112,246573,1,8,0:2:0:0:
496,144,246747,6,0,L|284:133,1,190,4|0,1:2|1:2,0:0:0:0:
454,198,247270,2,0,L|457:326,1,95,10|0,0:2|1:2,0:0:0:0:
223,300,247619,2,0,L|103:315,1,95,8|8,1:3|1:3,0:0:0:0:
80,317,247881,1,8,1:3:0:0:
233,228,247968,2,0,L|345:222,1,95,8|0,0:2|0:2,0:0:0:0:
73,220,248317,6,0,L|79:113,1,95,10|0,0:2|1:2,0:0:0:0:
128,110,248578,1,0,1:2:0:0:
178,101,248666,1,2,1:2:0:0:
16,80,248840,2,0,L|20:187,1,95,10|8,0:2|1:3,0:0:0:0:
64,184,249102,1,8,1:3:0:0:
254,197,249189,2,0,L|306:202,1,47.5,2|0,1:2|1:2,0:0:0:0:
134,253,249363,2,0,L|129:322,1,47.5,10|8,0:2|0:2,0:0:0:0:
372,319,249538,5,4,1:2:0:0:
105,255,251107,6,0,B|382:256|382:256|393:-3,1,531.999983764649,4|2,0:2|0:2,0:0:0:0:
105,160,252154,2,0,L|104:257,1,95,2|0,0:2|0:2,0:0:0:0:
346,179,252503,5,10,0:2:0:0:
188,136,252677,1,10,0:2:0:0:
459,65,252852,1,6,0:2:0:0:
270,112,253200,6,0,L|262:52,1,47.5,8|8,1:2|0:2,0:0:0:0:
435,175,253375,2,0,L|358:167,1,47.5,8|8,0:2|0:2,0:0:0:0:
206,169,253549,2,0,L|129:161,1,47.5,8|8,1:2|0:2,0:0:0:0:
339,257,253724,2,0,L|347:334,1,47.5,8|8,0:2|0:2,0:0:0:0:
101,339,253898,6,0,P|38:297|109:219,1,209.000006378174,6|10,1:2|0:2,0:0:0:0:
354,215,254421,1,0,0:2:0:0:
208,217,254595,1,0,1:2:0:0:
355,182,254770,1,2,0:2:0:0:
99,93,254944,2,0,L|95:213,1,104.500003189087,10|0,0:2|0:2,0:0:0:0:
398,112,255293,6,0,L|184:111,1,209.000006378174,2|8,1:2|0:2,0:0:0:0:
183,154,255816,1,0,0:2:0:0:
360,180,255990,2,0,L|488:178,1,104.500003189087,2|0,1:2|0:2,0:0:0:0:
297,95,256339,2,0,L|410:95,1,104.500003189087,10|0,0:2|0:2,0:0:0:0:
348,64,256602,1,8,0:0:0:0:
112,271,256688,6,0,P|62:256|110:190,1,156.750004783631,2|0,1:2|0:2,0:0:0:0:
282,262,257038,2,0,P|333:217|302:64,1,209.000006378174,12|0,0:2|1:2,0:0:0:0:
142,79,257560,1,0,0:2:0:0:
286,81,257735,1,10,0:2:0:0:
151,94,257909,1,0,0:2:0:0:
397,232,258083,6,0,L|404:116,1,104.500003189087,2|0,1:2|0:2,0:0:0:0:
220,199,258432,2,0,L|213:82,1,104.500003189087,10|0,0:2|0:2,0:0:0:0:
467,52,258781,1,2,1:2:0:0:
315,112,258956,1,2,0:2:0:0:
472,175,259130,2,0,L|473:59,1,104.500003189087,10|0,0:2|0:2,0:0:0:0:
206,268,259480,6,0,L|447:260,1,209.000006378174,2|8,1:2|0:2,0:0:0:0:
420,233,260002,1,0,0:2:0:0:
181,199,260176,2,0,L|59:199,2,104.500003189087,2|0|8,1:2|0:2|0:2,0:0:0:0:
21,115,260700,1,2,0:2:0:0:
290,163,260874,6,0,L|427:162,1,104.500003189087,2|8,1:2|0:2,0:0:0:0:
143,105,261224,2,0,L|133:170,1,52.2500015945435,2|8,1:2|1:3,0:0:0:0:
214,201,261398,2,0,L|276:201,1,52.2500015945435,4|4,1:3|1:3,0:0:0:0:
474,146,261573,2,0,L|481:79,1,52.2500015945435,8|8,1:3|1:3,0:0:0:0:
296,102,261747,2,0,L|234:106,1,52.2500015945435,2|8,1:2|0:2,0:0:0:0:
415,174,261921,2,0,L|477:170,1,52.2500015945435,10|8,0:2|1:3,0:0:0:0:
309,234,262096,2,0,L|247:238,1,52.2500015945435,12|12,1:3|1:3,0:0:0:0:
69,121,262270,6,0,P|28:184|74:272,1,156.750004783631,4|0,1:2|0:2,0:0:0:0:
249,258,262619,2,0,L|137:253,1,104.500003189087,12|0,0:2|0:2,0:0:0:0:
35,113,262968,2,0,L|153:112,1,104.500003189087,2|0,1:2|0:2,0:0:0:0:
323,145,263317,2,0,L|328:35,1,104.500003189087,10|0,0:2|0:2,0:0:0:0:
54,237,263666,6,0,L|50:83,1,104.500003189087,2|0,1:2|0:2,0:0:0:0:
222,93,264015,2,0,L|332:93,1,104.500003189087,10|0,0:2|0:2,0:0:0:0:
156,212,264364,1,2,1:2:0:0:
305,154,264538,1,2,0:2:0:0:
157,54,264712,2,0,L|157:181,1,104.500003189087,10|0,0:2|0:2,0:0:0:0:
429,267,265061,6,0,L|431:143,1,104.500003189087,2|0,1:2|0:2,0:0:0:0:
251,96,265410,2,0,L|249:211,1,104.500003189087,10|0,0:2|0:2,0:0:0:0:
433,114,265759,1,2,1:2:0:0:
287,163,265933,1,2,0:2:0:0:
434,199,266108,1,8,0:2:0:0:
163,72,266282,2,0,L|51:73,1,104.500003189087,2|0,0:2|1:2,0:0:0:0:
307,253,266631,5,2,0:2:0:0:
63,213,266805,1,10,0:2:0:0:
211,206,266980,2,0,L|213:80,1,104.500003189087,2|0,0:2|1:2,0:0:0:0:
391,73,267329,2,0,L|270:74,1,104.500003189087,2|8,0:2|0:2,0:0:0:0:
109,170,267677,2,0,L|170:170,1,52.2500015945435,2|0,0:2|0:2,0:0:0:0:
346,218,267852,6,0,L|484:215,2,104.500003189087,4|0|8,1:2|0:2|0:2,0:0:0:0:
82,258,268375,2,0,L|81:148,1,104.500003189087,2|0,0:2|1:2,0:0:0:0:
351,127,268724,1,2,0:2:0:0:
207,152,268898,2,0,P|152:135|209:88,1,156.750004783631,10|0,0:2|0:2,0:0:0:0:
413,209,269247,6,0,L|415:86,1,104.500003189087,4|0,1:2|0:2,0:0:0:0:
160,91,269596,1,8,0:2:0:0:
306,98,269770,2,0,L|309:208,1,104.500003189087,2|0,0:2|1:2,0:0:0:0:
130,277,270119,1,2,0:2:0:0:
288,287,270294,2,0,L|403:287,1,104.500003189087,10|0,0:2|1:2,0:0:0:0:
338,249,270555,1,0,1:2:0:0:
106,184,270642,5,12,0:2:0:0:
258,132,270817,1,0,1:2:0:0:
110,116,270991,1,0,1:2:0:0:
410,184,271166,5,12,0:2:0:0:
258,132,271341,1,0,1:2:0:0:
406,116,271515,1,2,1:2:0:0:
114,222,271689,2,0,L|107:115,1,104.500003189087,12|0,0:2|0:2,0:0:0:0:
414,194,272038,6,0,L|419:129,1,52.2500015945435,4|0,1:2|1:2,0:0:0:0:
340,106,272212,2,0,L|267:103,1,52.2500015945435,8|8,0:2|0:2,0:0:0:0:
91,238,272387,2,0,L|164:235,1,52.2500015945435,10|8,0:2|0:2,0:0:0:0:
341,222,272561,2,0,L|414:219,1,52.2500015945435,8|8,0:2|0:2,0:0:0:0:
168,290,272735,2,0,L|116:293,1,52.2500015945435,8|8,0:2|0:2,0:0:0:0:
350,281,272909,2,0,L|423:278,1,52.2500015945435,8|8,0:2|0:2,0:0:0:0:
191,341,273084,2,0,L|139:344,1,52.2500015945435,8|8,0:2|1:3,0:0:0:0:
324,351,273258,2,0,L|397:348,1,52.2500015945435,8|8,1:3|0:2,0:0:0:0:
120,88,273433,6,0,P|74:156|122:198,1,156.750004783631,4|0,1:2|0:2,0:0:0:0:
326,214,273782,2,0,L|105:196,1,209.000006378174,12|0,0:2|1:2,0:0:0:0:
117,122,274305,1,0,0:2:0:0:
380,131,274480,1,10,0:2:0:0:
236,127,274654,1,0,0:2:0:0:
482,277,274829,6,0,L|476:163,1,104.500003189087,2|0,1:2|0:2,0:0:0:0:
297,189,275177,2,0,L|179:182,1,104.500003189087,10|0,0:2|0:2,0:0:0:0:
340,259,275526,1,2,1:2:0:0:
185,275,275701,1,2,0:2:0:0:
432,187,275875,2,0,L|435:58,1,104.500003189087,10|0,0:2|0:2,0:0:0:0:
150,104,276223,6,0,P|81:169|161:219,1,209.000006378174,4|12,1:2|0:2,0:0:0:0:
267,242,276747,1,0,0:2:0:0:
16,304,276922,1,2,1:2:0:0:
170,323,277096,1,0,0:2:0:0:
443,134,277270,2,0,L|449:22,1,104.500003189087,10|0,0:2|0:2,0:0:0:0:
169,194,277619,6,0,L|385:201,1,209.000006378174,2|8,1:2|0:2,0:0:0:0:
273,131,278142,2,0,L|270:74,1,52.2500015945435,0|8,1:2|1:3,0:0:0:0:
431,39,278316,2,0,L|303:34,1,104.500003189087,2|2,1:2|0:2,0:0:0:0:
160,30,278666,2,0,L|152:146,1,104.500003189087,10|0,0:2|0:2,0:0:0:0:
439,151,279015,6,0,P|480:175|428:264,1,156.750004783631,4|0,1:2|0:2,0:0:0:0:
249,308,279364,2,0,L|33:319,1,209.000006378174,12|0,0:2|1:2,0:0:0:0:
331,286,280061,2,0,L|339:180,1,104.500003189087,10|0,0:2|0:2,0:0:0:0:
75,220,280410,6,0,L|72:105,1,104.500003189087,2|0,1:2|0:2,0:0:0:0:
241,110,280759,1,10,0:2:0:0:
72,85,280933,2,0,L|184:72,1,104.500003189087,0|2,0:2|1:2,0:0:0:0:
344,74,281282,1,2,0:2:0:0:
83,152,281457,2,0,L|80:261,1,104.500003189087,10|0,0:2|0:2,0:0:0:0:
377,303,281805,6,0,L|499:298,1,104.500003189087,4|0,1:2|0:2,0:0:0:0:
236,259,282154,1,10,0:2:0:0:
367,229,282328,2,0,L|375:102,1,104.500003189087,2|0,0:2|1:2,0:0:0:0:
212,116,282677,1,2,0:2:0:0:
467,169,282852,2,0,L|475:42,1,104.500003189087,10|0,0:2|0:2,0:0:0:0:
176,305,283200,5,2,1:2:0:0:
320,302,283375,1,8,0:2:0:0:
176,305,283549,2,0,L|171:189,1,104.500003189087,10|0,0:2|1:2,0:0:0:0:
225,185,283811,1,8,1:3:0:0:
388,177,283898,2,0,L|469:173,1,52.2500015945435,10|12,0:2|0:3,0:0:0:0:
253,113,284073,2,0,L|189:113,1,52.2500015945435,12|4,1:3|1:3,0:0:0:0:
412,122,284247,2,0,L|419:4,1,104.500003189087,10|2,0:2|0:2,0:0:0:0:
364,14,284509,1,8,0:2:0:0:
179,24,284596,6,0,P|108:83|171:160,1,209.000006378174,4|0,1:2|1:2,0:0:0:0:
338,182,285119,2,0,L|347:242,1,52.2500015945435,0|0,1:2|1:2,0:0:0:0:
160,256,285294,2,0,L|31:267,1,104.500003189087,10|0,0:2|1:2,0:0:0:0:
108,317,285555,1,8,0:2:0:0:
312,314,285642,2,0,L|440:302,1,104.500003189087,10|0,0:2|1:2,0:0:0:0:
138,195,285991,6,0,L|134:72,1,104.500003189087,4|0,1:2|1:2,0:0:0:0:
187,76,286253,1,8,0:2:0:0:
344,59,286340,2,0,L|472:43,1,104.500003189087,2|8,1:2|0:2,0:0:0:0:
182,179,286689,2,0,L|179:245,1,52.2500015945435,2|8,1:2|0:2,0:0:0:0:
260,238,286863,1,8,0:2:0:0:
16,288,287038,2,0,L|135:293,1,104.500003189087,2|0,1:2|0:2,0:0:0:0:
174,292,287299,1,8,0:2:0:0:
388,230,287387,6,0,L|392:111,1,104.500003189087,6|0,1:2|0:2,0:0:0:0:
228,115,287735,1,10,0:2:0:0:
496,80,287910,2,0,L|386:76,1,104.500003189087,2|0,0:2|1:2,0:0:0:0:
338,72,288171,1,8,0:2:0:0:
152,132,288259,2,0,L|146:263,1,104.500003189087,10|0,0:2|1:2,0:0:0:0:
304,200,288607,2,0,L|371:205,1,52.2500015945435,10|8,0:2|0:2,0:0:0:0:
171,323,288782,6,0,L|55:319,1,104.500003189087,4|2,1:2|0:2,0:0:0:0:
333,344,289131,2,0,L|336:285,1,52.2500015945435,10|0,0:2|0:2,0:0:0:0:
182,249,289305,2,0,L|116:245,1,52.2500015945435,2|8,1:2|1:3,0:0:0:0:
317,158,289480,2,0,L|391:152,1,52.2500015945435,4|4,1:3|1:3,0:0:0:0:
289,119,289654,2,0,L|215:113,1,52.2500015945435,12|12,1:3|1:3,0:0:0:0:
40,165,289828,2,0,L|44:113,1,52.2500015945435,8|8,1:3|1:3,0:0:0:0:
123,75,290003,2,0,L|176:70,1,52.2500015945435,4|4,1:3|1:3,0:0:0:0:
410,58,290177,6,0,P|479:121|409:185,1,209.000006378174,4|10,1:2|0:2,0:0:0:0:
256,198,290700,1,0,1:2:0:0:
414,219,290875,1,0,0:2:0:0:
252,236,291049,2,0,L|122:248,1,104.500003189087,2|8,1:2|0:2,0:0:0:0:
459,311,291398,6,0,L|236:331,1,209.000006378174,4|2,1:2|1:2,0:0:0:0:
414,221,291921,2,0,L|421:91,1,104.500003189087,10|8,0:2|0:2,0:0:0:0:
366,108,292183,1,8,0:2:0:0:
218,103,292270,2,0,L|94:95,1,104.500003189087,2|0,1:2|1:2,0:0:0:0:
273,148,292619,2,0,L|275:264,1,104.500003189087,10|0,0:2|1:2,0:0:0:0:
16,288,292968,6,0,L|24:217,1,52.2500015945435,2|0,1:2|1:2,0:0:0:0:
101,214,293142,2,0,L|172:202,1,52.2500015945435,8|8,1:3|1:3,0:0:0:0:
367,186,293317,2,0,L|251:174,1,104.500003189087,12|0,0:2|0:2,0:0:0:0:
433,148,293666,1,8,0:2:0:0:
479,125,293753,1,8,1:3:0:0:
497,77,293840,1,2,1:2:0:0:
478,30,293927,1,8,1:3:0:0:
431,8,294014,1,8,0:2:0:0:
157,68,294189,6,0,L|404:79,1,209.000006378174,4|0,1:2|1:2,0:0:0:0:
197,140,294712,1,10,0:2:0:0:
370,162,294887,2,0,L|377:239,1,52.2500015945435,2|8,0:2|0:2,0:0:0:0:
172,244,295061,2,0,L|45:250,1,104.500003189087,2|0,1:2|1:2,0:0:0:0:
223,306,295410,1,8,0:2:0:0:
61,311,295584,2,0,L|54:366,1,52.2500015945435,8|8,0:2|0:2,0:0:0:0:
271,234,295759,6,0,L|397:229,1,104.500003189087,4|0,1:2|0:2,0:0:0:0:
129,160,296107,1,10,0:2:0:0:
286,144,296282,2,0,L|287:75,1,52.2500015945435,2|0,0:2|1:2,0:0:0:0:
94,83,296456,2,0,L|34:75,1,52.2500015945435,10|0,0:2|1:2,0:0:0:0:
242,201,296631,2,0,L|245:256,1,52.2500015945435,2|0,1:2|1:2,0:0:0:0:
157,241,296805,2,0,L|154:296,1,52.2500015945435,8|8,1:3|1:3,0:0:0:0:
370,305,296980,2,0,L|435:312,1,52.2500015945435,12|12,1:3|1:3,0:0:0:0:
186,344,297154,5,12,0:2:0:0:
444,354,297328,1,10,0:2:0:0:
186,344,297503,1,10,0:2:0:0:
81,313,297677,2,0,L|78:243,1,52.2500015945435,0|8,1:2|0:2,0:0:0:0:
264,231,297852,2,0,L|266:161,1,52.2500015945435,8|8,0:2|0:2,0:0:0:0:
181,144,298026,2,0,L|111:135,1,52.2500015945435,8|8,1:3|1:3,0:0:0:0:
289,94,298200,2,0,L|357:89,1,52.2500015945435,4|4,1:3|1:3,0:0:0:0:
181,144,298375,2,0,L|111:135,1,52.2500015945435,12|12,1:3|1:3,0:0:0:0:
391,139,298549,6,0,P|453:178|380:272,1,209.000006378174,4|2,1:2|1:2,0:0:0:0:
240,284,299073,1,0,0:2:0:0:
391,324,299247,2,0,L|499:331,1,104.500003189087,2|8,1:2|0:2,0:0:0:0:
327,348,299596,1,2,1:2:0:0:
496,368,299770,1,8,0:2:0:0:
223,168,299945,5,10,0:2:0:0:
372,170,300119,1,8,0:2:0:0:
120,149,300294,1,10,0:2:0:0:
277,143,300468,1,8,0:2:0:0:
16,176,300642,2,0,L|20:69,1,104.500003189087,10|0,0:2|1:2,0:0:0:0:
73,62,300904,1,0,1:2:0:0:
252,62,300991,2,0,L|120:60,1,104.500003189087,12|0,0:2|1:2,0:0:0:0:
448,151,301340,5,12,0:2:0:0:
281,169,301514,2,0,L|275:244,1,52.2500015945435,0|0,1:2|1:2,0:0:0:0:
461,259,301689,1,14,0:2:0:0:
332,278,301863,2,0,L|215:289,1,104.500003189087,2|12,1:2|0:2,0:0:0:0:
484,170,302212,1,2,1:2:0:0:
333,171,302387,2,0,L|328:54,1,104.500003189087,14|0,0:2|1:2,0:0:0:0:
31,50,302735,5,12,0:2:0:0:
281,52,302910,1,8,0:2:0:0:
31,50,303084,1,12,0:2:0:0:
31,50,303433,2,0,P|151:182|30:263,1,365.750011161805,0|0,0:2|0:2,0:0:0:0:
247,262,304131,6,0,L|460:245,1,209.000006378174,4|2,1:2|1:2,0:0:0:0:
308,184,304654,1,0,0:2:0:0:
463,187,304828,2,0,L|466:57,1,104.500003189087,2|0,1:2|1:2,0:0:0:0:
211,78,305177,1,10,0:2:0:0:
370,76,305352,1,8,0:2:0:0:
98,162,305526,5,10,0:2:0:0:
260,159,305700,1,8,0:2:0:0:
98,162,305875,1,10,0:2:0:0:
260,159,306049,1,8,0:2:0:0:
16,320,306224,2,0,L|22:256,1,52.2500015945435,8|0,0:2|1:2,0:0:0:0:
182,243,306398,2,0,L|244:236,1,52.2500015945435,8|8,0:2|0:2,0:0:0:0:
44,202,306573,2,0,L|120:193,1,52.2500015945435,10|8,0:2|0:2,0:0:0:0:
315,291,306747,2,0,L|312:212,1,52.2500015945435,8|8,0:2|0:2,0:0:0:0:
74,36,306921,6,0,P|25:74|66:127,1,142.5,4|0,0:2|0:2,0:0:0:0:
257,127,307270,2,0,L|369:119,1,95,12|0,0:2|0:2,0:0:0:0:
190,221,307619,2,0,L|80:217,2,95,2|0|8,1:2|0:2|0:2,0:0:0:0:
37,174,308142,1,0,0:2:0:0:
277,209,308316,6,0,L|281:105,1,95,2|0,1:2|0:2,0:0:0:0:
138,92,308665,1,8,0:2:0:0:
369,119,308839,2,0,L|473:115,1,95,2|0,0:2|1:2,0:0:0:0:
207,104,309188,1,2,0:2:0:0:
444,269,309363,6,0,L|216:249,1,190,2|0,0:2|1:2,0:0:0:0:
243,211,309886,1,0,0:2:0:0:
398,202,310061,2,0,P|445:126|388:58,1,190,10|0,0:2|1:2,0:0:0:0:
142,126,310584,1,2,0:2:0:0:
274,140,310758,2,0,L|395:140,1,95,10|0,0:2|0:2,0:0:0:0:
96,296,311107,6,0,P|42:269|108:186,1,190,2|8,1:2|0:2,0:0:0:0:
259,227,311630,2,0,L|263:291,1,47.5,2|2,0:2|0:2,0:0:0:0:
97,221,311805,2,0,L|105:122,1,95,0|2,1:2|0:2,0:0:0:0:
357,72,312153,2,0,L|364:174,1,95,10|8,0:2|0:2,0:0:0:0:
315,201,312416,1,8,0:0:0:0:
72,267,312502,6,0,L|268:267,1,190,4|8,1:2|0:2,0:0:0:0:
100,206,313026,2,0,L|94:112,1,95,0|0,0:2|1:2,0:0:0:0:
257,90,313374,1,2,0:2:0:0:
94,216,313549,2,0,L|88:122,1,95,10|0,0:2|0:2,0:0:0:0:
342,221,313898,6,0,L|126:214,1,190,2|8,1:2|0:2,0:0:0:0:
146,169,314421,1,0,0:2:0:0:
308,161,314596,2,0,L|443:156,1,95,2|10,1:2|0:2,0:0:0:0:
353,135,314856,1,8,0:2:0:0:
196,212,314944,2,0,L|144:208,1,47.5,8|8,0:2|0:2,0:0:0:0:
307,271,315119,2,0,L|359:275,1,47.5,8|4,0:3|0:3,0:0:0:0:
103,333,315293,6,0,P|45:241|102:216,1,190,12|8,0:2|0:2,0:0:0:0:
213,130,315816,1,0,1:2:0:0:
452,213,315991,6,0,L|458:111,1,95,10|0,0:2|1:2,0:0:0:0:
312,99,316340,1,8,0:2:0:0:
459,72,316514,1,0,1:2:0:0:
80,139,316688,5,10,0:2:0:0:
221,175,316863,1,8,0:2:0:0:
81,113,317038,2,0,L|74:230,1,95,8|8,0:2|0:2,0:0:0:0:
125,229,317299,1,0,0:0:0:0:
270,291,317387,6,0,L|384:287,1,95,10|0,0:2|1:2,0:0:0:0:
174,165,317735,2,0,L|11:165,1,142.5,12|0,0:2|0:0,0:0:0:0:
271,219,318084,6,0,L|461:209,1,190,4|2,1:2|1:2,0:0:0:0:
40,216,318782,2,0,L|30:86,1,95,2|8,1:2|0:2,0:0:0:0:
82,83,319044,1,8,0:2:0:0:
236,219,319131,2,0,L|226:89,1,95,10|8,0:2|0:2,0:0:0:0:
278,86,319393,1,8,0:2:0:0:
422,249,319480,6,0,L|412:119,1,95,2|8,1:2|0:2,0:0:0:0:
362,119,319742,1,8,0:2:0:0:
191,193,319828,2,0,L|79:189,1,95,10|8,0:2|0:2,0:0:0:0:
148,158,320090,1,8,0:2:0:0:
321,293,320177,6,0,L|433:289,1,95,2|8,1:2|0:2,0:0:0:0:
366,258,320439,1,8,0:2:0:0:
156,359,320526,2,0,L|152:247,1,95,10|8,0:2|0:2,0:0:0:0:
202,285,320788,1,8,0:2:0:0:
383,76,320875,6,0,P|422:101|351:68,1,712.5,4|0,1:2|0:2,0:0:0:0:
112,59,322270,5,12,0:2:0:0:
404,46,322619,1,8,0:2:0:0:
290,45,322735,1,8,0:2:0:0:
404,46,322852,1,8,0:2:0:0:
53,61,322968,1,8,0:2:0:0:
