osu file format v14

[General]
AudioFilename: audio.mp3
AudioLeadIn: 0
PreviewTime: 134977
Countdown: 0
SampleSet: Soft
StackLeniency: 0.7
Mode: 0
LetterboxInBreaks: 0
WidescreenStoryboard: 1

[Editor]
DistanceSpacing: 0.7
BeatDivisor: 4
GridSize: 8
TimelineZoom: 1

[Metadata]
Title:Dreaming!
TitleUnicode:Dreaming!
Artist:765 MILLION ALLSTARS
ArtistUnicode:765 MILLION ALLSTARS
Creator:Nana Abe
Version:Reverie
Source:アイドルマスター ミリオンライブ!
Tags:idolmaster im@s imas idolm@ster million live シアターデイズ theater days mirishita ミリシタ idol j-pop live! video game takekii takeki jpop pop japanese anime idols hanasaka yui melophobia
BeatmapID:3178352
BeatmapSetID:1555816

[Difficulty]
HPDrainRate:5
CircleSize:4.2
OverallDifficulty:9
ApproachRate:9.3
SliderMultiplier:1.8
SliderTickRate:1

[Events]
//Background and Video events
0,0,"dreaming.jpg",0,0
//Break Periods
2,159137,165906
//Storyboard Layer 0 (Background)
//Storyboard Layer 1 (Fail)
//Storyboard Layer 2 (Pass)
//Storyboard Layer 3 (Foreground)
Sprite,Foreground,Centre,"sb\glow.png",422,416 C,0,84460,,234,91,118 F,2,84460,84840,1,0 S,2,84460,84840,1.2,3.6 P,0,84460,84840,A
Sprite,Foreground,Centre,"sb\glow.png",236,326 C,0,223127,,234,91,118 F,2,223127,223327,1,0 S,2,223127,223327,0.5,1.5 P,0,223127,223327,A
Sprite,Foreground,Centre,"sb\glowh.png",362,355 C,0,223460,,100,149,207 F,2,223460,223660,1,0 S,2,223460,223660,0.5,1.5 P,0,223460,223660,A
Sprite,Foreground,Centre,"sb\glow.png",227,340 C,0,223794,,253,213,81 F,2,223794,223994,1,0 S,2,223794,223994,0.5,1.5 P,0,223794,223994,A
Sprite,Foreground,Centre,"sb\glowh.png",370,373 C,0,224127,,234,91,118 F,2,224127,224327,1,0 S,2,224127,224327,0.5,1.5 P,0,224127,224327,A
Sprite,Foreground,Centre,"sb\glow.png",217,354 C,0,224460,,100,149,207 F,2,224460,224660,1,0 S,2,224460,224660,0.5,1.5 P,0,224460,224660,A
Sprite,Foreground,Centre,"sb\glowh.png",381,391 C,0,224793,,253,213,81 F,2,224793,224993,1,0 S,2,224793,224993,0.5,1.5 P,0,224793,224993,A
Sprite,Foreground,Centre,"sb\glow.png",204,374 C,0,225127,,234,91,118 F,2,225127,225327,1,0 S,2,225127,225327,0.5,1.5 P,0,225127,225327,A
Sprite,Foreground,Centre,"sb\glowh.png",395,414 C,0,225460,,100,149,207 F,2,225460,225660,1,0 S,2,225460,225660,0.5,1.5 P,0,225460,225660,A
Sprite,Foreground,Centre,"sb\glowh.png",394,413 C,0,225544,,100,149,207 F,2,225544,225744,1,0 S,2,225544,225744,0.5,1.5 P,0,225544,225744,A
Sprite,Foreground,Centre,"sb\glowh.png",394,413 C,0,225627,,100,149,207 F,2,225627,225827,1,0 S,2,225627,225827,0.5,1.5 P,0,225627,225827,A
Sprite,Foreground,Centre,"sb\glow.png",192,180 C,0,225794,,253,213,81 F,2,225794,225994,1,0 S,2,225794,225994,0.5,1.5 P,0,225794,225994,A
Sprite,Foreground,Centre,"sb\glowh.png",390,409 C,0,226793,,253,213,81 F,2,226793,226993,1,0 S,2,226793,226993,0.5,1.5 P,0,226793,226993,A
Sprite,Foreground,Centre,"sb\glowh.png",364,87 C,0,226294,,234,91,118 F,2,226294,226494,1,0 S,2,226294,226494,0.5,1.5 P,0,226294,226494,A
Sprite,Foreground,Centre,"sb\glow.png",95,169 C,0,226627,,100,149,207 F,2,226627,226827,1,0 S,2,226627,226827,0.5,1.5 P,0,226627,226827,A
Sprite,Foreground,Centre,"sb\glow.png",437,64 C,0,226960,,234,91,118 F,2,226960,227385,1,0 S,2,226960,227385,1,3 P,0,226960,227385,A
Sprite,Foreground,Centre,"sb\glow.png",243,278 C,0,247127,,253,213,81 F,2,247127,247507,1,0 S,2,247127,247507,1.2,3.6 P,0,247127,247507,A
Sprite,Foreground,Centre,"sb\glowh.png",526,113 C,0,152460,,100,149,207 F,2,152460,152840,1,0 S,2,152460,152840,1.2,3.6 P,0,152460,152840,A
//Storyboard Layer 4 (Overlay)
//Storyboard Sound Samples

[TimingPoints]
461,333.333333333333,4,2,1,80,1,0
5794,-142.857142857143,4,2,1,60,0,0
12460,-142.857142857143,4,2,1,80,0,0
13127,-142.857142857143,4,2,1,60,0,0
13794,-100,4,2,1,80,0,0
18127,-125,4,2,1,70,0,0
18794,-83.3333333333333,4,2,1,70,0,0
19044,-83.3333333333333,4,2,1,5,0,0
19127,-100,4,2,1,80,0,0
21794,-100,4,2,1,80,0,0
22044,-100,4,2,1,5,0,0
22127,-83.3333333333333,4,2,1,80,0,0
22460,-100,4,2,1,80,0,0
24460,-100,4,2,1,80,0,0
24710,-100,4,2,1,5,0,0
24794,-83.3333333333333,4,2,1,80,0,0
25127,-100,4,2,1,80,0,0
29710,-100,4,2,1,5,0,0
29794,-125,4,2,1,80,0,0
29960,-125,4,2,1,65,0,0
40460,-111.111111111111,4,2,1,80,0,0
40710,-111.111111111111,4,2,1,5,0,0
40794,-90.9090909090908,4,2,1,80,0,0
41127,-111.111111111111,4,2,1,80,0,0
45794,-90.9090909090908,4,2,1,80,0,0
46127,-111.111111111111,4,2,1,80,0,0
51127,-100,4,2,1,80,0,0
57460,-86.9565217391304,4,2,1,80,0,0
57794,-100,4,2,1,80,0,0
61794,-90.9090909090909,4,2,1,80,0,0
62044,-90.9090909090909,4,2,1,5,0,0
62127,-90.9090909090909,4,2,1,80,0,0
66127,-125,4,2,1,80,0,0
66460,-83.3333333333333,4,2,1,80,0,0
67044,-83.3333333333333,4,2,1,5,0,0
67127,-90.9090909090909,4,2,1,80,0,1
72710,-90.9090909090909,4,2,1,5,0,1
72794,-83.3333333333333,4,2,1,80,0,1
73127,-90.9090909090909,4,2,1,80,0,1
84460,-100,4,2,1,80,0,0
85794,-100,4,2,1,80,0,0
88710,-100,4,2,1,5,0,0
88794,-83.3333333333333,4,2,1,80,0,0
89127,-100,4,2,1,80,0,0
91377,-100,4,2,1,5,0,0
91460,-83.3333333333333,4,2,1,80,0,0
91794,-100,4,2,1,80,0,0
95794,-108.234839430902,4,2,1,80,0,0
96377,-108.234839430902,4,2,1,5,0,0
96460,-125,4,2,1,80,0,0
96627,-125,4,2,1,60,0,0
106794,-111.111111111111,4,2,1,80,0,0
107044,-111.111111111111,4,2,1,5,0,0
107127,-90.9090909090909,4,2,1,80,0,0
107460,-111.111111111111,4,2,1,80,0,0
111960,-100,4,2,1,80,0,0
112294,-111.111111111111,4,2,1,80,0,0
112460,-90.9090909090908,4,2,1,80,0,0
112794,-111.111111111111,4,2,1,80,0,0
117794,-100,4,2,1,80,0,0
124127,-86.9565217391304,4,2,1,80,0,0
124460,-100,4,2,1,80,0,0
126960,-90.9090909090909,4,2,1,80,0,0
127294,-100,4,2,1,80,0,0
128460,-86.9565217391304,4,2,1,80,0,0
128710,-86.9565217391304,4,2,1,5,0,0
128794,-90.9090909090909,4,2,1,80,0,0
132294,-90.9090909090909,4,2,1,80,0,0
134794,-83.3333333333333,4,2,1,80,0,0
135044,-83.3333333333333,4,2,1,5,0,0
135127,-90.9090909090909,4,2,1,80,0,1
140710,-90.9090909090909,4,2,1,5,0,1
140794,-83.3333333333333,4,2,1,80,0,1
141127,-90.9090909090909,4,2,1,80,0,1
152460,-100,4,2,1,80,0,0
154460,-76.923076923086,4,2,1,80,0,0
154960,-76.9230769230859,4,2,1,80,0,0
155127,-66.6666666666703,4,2,1,80,0,0
155294,-100,4,2,1,80,0,0
155627,-76.9230769230976,4,2,1,80,0,0
156460,-76.9230769230976,4,2,1,80,0,0
157127,-58.8235294117647,4,2,1,80,0,0
157960,-83.3333333333333,4,2,1,80,0,0
158460,-83.3333333333333,4,2,1,5,0,0
159127,-100,4,2,1,80,0,0
166460,-122.273953082113,4,2,1,70,0,0
167044,-122.273953082113,4,2,1,5,0,0
167127,-100,4,2,1,70,0,0
169794,-100,4,2,1,80,0,1
180710,-100,4,2,1,5,0,1
180794,-100,4,2,1,80,0,1
184294,-100,4,2,1,80,0,0
184627,-100,4,2,1,80,0,0
185794,-117.647058823529,4,2,1,70,0,0
196460,-100,4,2,1,80,0,0
201794,-90.9090909090909,4,2,1,80,0,0
202044,-90.9090909090909,4,2,1,5,0,0
202127,-90.9090909090909,4,2,1,80,0,0
205627,-90.9090909090909,4,2,1,80,0,0
207127,-90.9090909090909,4,2,1,80,0,1
217794,-111.111111111111,4,2,1,72,0,1
222794,-90.9090909090909,4,2,1,80,0,1
226960,-90.9090909090909,4,2,1,80,0,0
227460,-166.666666666667,4,2,1,80,0,0
229460,-90.909090909091,4,2,1,80,0,0
230127,-79.5755968169784,4,2,1,80,0,1
230460,-90.9090909090909,4,2,1,80,0,1
235377,-90.9090909090909,4,2,1,5,0,1
235460,-83.3333333333333,4,2,1,80,0,1
235794,-90.9090909090909,4,2,1,80,0,1
247127,-166.666666666667,4,2,1,80,0,0
249794,-97.2434091291708,4,2,1,80,0,0
251127,-100,4,2,1,80,0,0
254044,-100,4,2,1,5,0,0
254127,-83.3333333333333,4,2,1,80,0,0
254460,-100,4,2,1,80,0,0
256710,-100,4,2,1,5,0,0
256794,-83.3333333333333,4,2,1,80,0,0
257127,-100,4,2,1,80,0,0
259377,-100,4,2,1,5,0,0
259460,-83.3333333333333,4,2,1,80,0,0
259794,-100,4,2,1,80,0,0
261794,-83.3333333333333,4,2,1,80,0,0
262127,-100,4,2,1,80,0,0
267127,-86.9565217391304,4,2,1,80,0,0
267377,-86.9565217391304,4,2,1,5,0,0
267460,-100,4,2,1,80,0,0
269127,-125,4,2,1,80,0,0
269460,-100,4,2,1,80,0,0
270460,-76.923076923086,4,2,1,80,0,0
270960,-76.9230769230859,4,2,1,80,0,0
271127,-66.6666666666703,4,2,1,80,0,0
271294,-100,4,2,1,80,0,0
271794,-90.9090909090909,4,2,1,80,0,0
272794,-166.666666666667,4,2,1,80,0,0
275627,-166.666666666667,4,2,1,5,0,0

[Colours]
Combo1 : 255,226,128
Combo2 : 201,155,227
Combo3 : 234,149,149
Combo4 : 224,158,201

[HitObjects]
256,192,3127,12,2,5794,0:0:0:0:
50,96,6294,6,0,P|92:140|153:137,1,125.999996154785,0|0,0:0|0:0,0:0:0:0:
153,137,6960,2,0,L|125:276,1,125.999996154785,2|0,0:0|0:0,0:0:0:0:
243,229,7460,2,0,L|321:208,1,62.9999980773926,2|0,0:0|0:0,0:0:0:0:
330,336,7794,2,0,L|197:309,1,125.999996154785,2|0,0:0|0:0,0:0:0:0:
401,253,8460,2,0,P|443:265|453:362,1,125.999996154785,2|0,0:0|0:0,0:0:0:0:
381,240,8960,2,0,P|377:196|465:153,1,125.999996154785,2|0,0:0|0:0,0:0:0:0:
481,72,9460,2,0,L|462:6,2,62.9999980773926,0|0|2,0:0|0:0|0:0,0:0:0:0:
181,282,10127,6,0,L|48:251,1,125.999996154785,0|0,0:0|0:0,0:0:0:0:
58,253,10794,1,2,0:0:0:0:
144,190,10960,1,2,0:0:0:0:
181,282,11127,1,2,0:0:0:0:
177,102,11460,1,2,0:0:0:0:
62,256,11794,1,2,0:0:0:0:
193,54,12127,1,2,0:0:0:0:
207,371,12460,5,0,1:0:0:0:
207,371,13127,2,0,L|341:346,1,125.999996154785,2|0,0:0|1:0,0:0:0:0:
412,331,13627,1,0,1:0:0:0:
235,164,13794,6,0,L|218:263,1,90,12|0,0:0|1:0,0:0:0:0:
391,168,14127,1,0,1:0:0:0:
391,168,14294,1,2,1:2:0:0:
261,70,14460,1,0,1:0:0:0:
432,33,14627,1,0,1:0:0:0:
261,70,14794,6,0,P|212:60|166:27,1,90,12|0,0:0|1:0,0:0:0:0:
331,18,15127,1,0,1:0:0:0:
372,255,15294,6,0,L|389:354,1,90,12|0,0:0|1:0,0:0:0:0:
482,184,15627,1,8,0:0:0:0:
245,253,15794,2,0,L|187:243,1,45,0|0,1:0|0:0,0:0:0:0:
323,136,15960,2,0,L|345:201,1,45,0|0,1:0|0:0,0:0:0:0:
482,318,16127,5,8,0:0:0:0:
490,338,16210,1,8,0:0:0:0:
498,359,16294,2,0,P|459:334|319:323,1,180,4|8,1:2|0:0,0:0:0:0:
195,361,16794,1,0,1:0:0:0:
335,201,16960,1,0,1:0:0:0:
73,127,17127,6,0,L|93:232,1,90,12|0,0:0|1:0,0:0:0:0:
104,287,17377,1,0,1:0:0:0:
107,299,17460,1,8,0:0:0:0:
347,52,17627,1,4,0:0:0:0:
346,52,18127,6,0,P|288:91|219:81,1,144,0|0,0:0|0:0,0:0:0:0:
268,22,18627,5,0,1:0:0:0:
268,22,18710,1,0,1:0:0:0:
268,22,18794,2,0,L|250:191,1,161.999995056153,8|0,0:0|0:0,0:0:0:0:
287,256,19127,6,0,P|370:241|417:312,1,180,4|14,0:0|0:0,0:0:0:0:
246,340,19627,1,0,1:0:0:0:
246,340,19710,1,0,1:0:0:0:
246,340,19794,1,0,1:0:0:0:
389,257,19960,1,0,1:0:0:0:
209,193,20127,1,8,0:0:0:0:
389,257,20294,6,0,P|400:202|402:160,1,90,2|0,1:2|0:0,0:0:0:0:
338,83,20627,1,0,1:0:0:0:
185,193,20794,2,0,P|174:138|172:96,1,90,10|0,0:0|0:0,0:0:0:0:
202,40,21044,1,8,0:0:0:0:
208,30,21127,1,0,1:0:0:0:
61,189,21294,1,0,1:0:0:0:
290,306,21460,1,10,0:0:0:0:
290,306,21794,2,0,P|213:307|180:362,1,135,0|0,1:0|0:0,0:0:0:0:
182,350,22127,6,0,P|263:308|182:212,1,215.999993408203,6|0,0:0|1:0,0:0:0:0:
124,278,22627,1,0,1:0:0:0:
269,152,22794,1,8,0:0:0:0:
323,374,22960,2,0,L|355:274,1,90,2|0,1:2|0:0,0:0:0:0:
395,155,23294,1,0,1:0:0:0:
471,248,23460,5,8,0:0:0:0:
326,96,23627,1,0,1:0:0:0:
326,96,23710,1,0,1:0:0:0:
326,96,23794,1,8,0:0:0:0:
507,52,23960,1,0,1:0:0:0:
249,153,24127,6,0,P|205:159|164:142,1,90,10|2,0:0|0:0,0:0:0:0:
129,12,24460,2,0,P|122:67|42:97,1,135,0|0,1:2|0:0,0:0:0:0:
55,99,24794,6,0,B|181:59|145:158|275:118,1,215.999993408203,6|0,0:0|1:0,0:0:0:0:
402,68,25294,1,0,1:0:0:0:
266,23,25460,1,8,0:0:0:0:
407,248,25627,6,0,L|514:224,1,90,2|0,1:2|0:0,0:0:0:0:
385,148,25960,1,0,1:0:0:0:
343,323,26127,2,0,P|288:317|249:290,1,90,10|0,0:0|0:0,0:0:0:0:
220,232,26377,1,0,1:0:0:0:
224,221,26460,1,0,1:0:0:0:
171,370,26627,1,2,1:2:0:0:
96,162,26794,1,8,0:0:0:0:
96,162,26877,1,8,0:0:0:0:
96,162,26960,1,0,1:0:0:0:
73,280,27127,5,8,0:0:0:0:
309,95,27294,1,8,0:0:0:0:
309,95,27627,6,0,B|346:69|346:69|403:136|336:212,1,180,4|0,1:2|1:0,0:0:0:0:
218,85,28127,1,8,0:0:0:0:
427,27,28294,1,0,1:0:0:0:
179,168,28460,6,0,P|134:163|98:136,1,90,6|0,1:2|1:0,0:0:0:0:
63,43,28794,1,8,0:0:0:0:
161,322,28960,5,4,1:2:0:0:
238,293,29127,2,0,B|277:246|271:205|271:205|206:254|246:352|342:368,1,315,2|0,0:0|0:0,0:0:0:0:
398,332,29794,6,0,P|432:322|468:320,1,72,6|0,1:2|0:0,0:0:0:0:
506,229,30127,2,0,P|471:219|435:217,1,72,0|0,1:0|0:0,0:0:0:0:
324,249,30460,2,0,P|288:246|253:237,1,72,0|0,1:0|0:0,0:0:0:0:
156,146,30794,1,2,0:0:0:0:
91,215,30960,1,2,0:0:0:0:
237,157,31127,2,0,P|266:115|219:27,1,144,2|0,1:2|1:0,0:0:0:0:
334,144,31627,2,0,L|429:163,1,72,2|0,0:0|1:0,0:0:0:0:
235,35,31960,2,0,L|165:50,1,72,2|0,0:0|1:0,0:0:0:0:
374,19,32294,5,2,0:0:0:0:
374,19,32377,1,0,0:0:0:0:
374,19,32460,2,0,P|414:67|421:153,1,144,0|0,1:0|1:0,0:0:0:0:
366,264,32960,1,0,0:0:0:0:
366,264,33127,2,0,P|386:313|416:343,1,72,0|0,1:0|0:0,0:0:0:0:
504,257,33460,2,0,P|462:224|421:213,1,72,0|0,1:0|0:0,0:0:0:0:
347,177,33710,5,0,0:0:0:0:
347,177,33794,2,0,L|325:79,1,72,0|0,1:0|0:0,0:0:0:0:
260,250,34127,2,0,L|238:348,1,72,2|0,1:2|0:0,0:0:0:0:
212,130,34460,2,0,L|190:32,1,72,2|2,1:2|0:3,0:0:0:0:
113,341,34794,1,8,0:0:0:0:
113,341,35127,6,0,B|134:254|73:282|88:184,1,144,2|0,1:2|1:0,0:0:0:0:
12,167,35627,1,0,0:0:0:0:
164,212,35794,2,0,P|203:204|233:176,1,72,0|0,1:0|0:0,0:0:0:0:
239,83,36127,1,2,1:2:0:0:
174,30,36294,1,2,0:0:0:0:
303,152,36460,6,0,L|467:127,1,144,2|0,1:2|1:0,0:0:0:0:
348,71,36960,2,0,P|337:40|370:37,1,72,2|0,0:0|1:0,0:0:0:0:
408,232,37294,2,0,P|376:243|373:210,1,72,2|0,0:0|1:0,0:0:0:0:
454,113,37627,5,2,0:0:0:0:
449,131,37710,1,0,0:0:0:0:
445,150,37794,2,0,L|301:130,1,144,2|2,1:2|1:2,0:0:0:0:
236,48,38294,1,0,0:0:0:0:
192,168,38460,2,0,P|193:212|214:250,1,72,2|2,1:2|0:0,0:0:0:0:
299,277,38794,1,0,1:0:0:0:
98,70,38960,5,10,0:0:0:0:
98,70,39460,2,0,L|120:-8,1,72,2|0,0:0|0:0,0:0:0:0:
22,113,39794,5,8,0:0:0:0:
192,68,39960,1,0,1:0:0:0:
74,238,40127,5,8,0:0:0:0:
74,238,40210,1,0,0:0:0:0:
74,238,40294,1,0,0:0:0:0:
74,238,40377,1,0,0:0:0:0:
74,237,40460,2,0,P|121:200|180:195,1,121.499996292114,4|0,1:2|0:0,0:0:0:0:
251,226,40794,6,0,P|306:234|378:122,1,198.000006042481,12|0,0:0|1:0,0:0:0:0:
422,291,41294,1,0,1:0:0:0:
290,150,41460,1,10,0:0:0:0:
471,104,41627,1,2,0:0:0:0:
290,150,41794,6,0,P|236:137|212:112,1,80.9999975280763,2|0,1:2|0:0,0:0:0:0:
255,26,42127,1,8,0:0:0:0:
314,231,42294,2,0,L|280:330,1,80.9999975280763,2|0,1:2|0:0,0:0:0:0:
393,191,42627,2,0,P|447:204|471:229,1,80.9999975280763,2|8,1:2|0:0,0:0:0:0:
199,257,42960,6,0,B|108:260|129:220|42:220,1,161.999995056153,2|0,1:2|1:0,0:0:0:0:
173,178,43460,2,0,L|200:88,1,80.9999975280763,10|0,0:0|0:0,0:0:0:0:
218,33,43710,1,8,0:0:0:0:
224,18,43794,1,2,1:2:0:0:
93,121,43960,1,2,1:2:0:0:
274,181,44127,2,0,P|328:185|372:156,1,80.9999975280763,8|0,0:2|0:0,0:0:0:0:
387,110,44377,5,0,0:0:0:0:
391,95,44460,1,2,1:2:0:0:
468,285,44627,1,0,1:0:0:0:
501,163,44794,1,8,0:0:0:0:
328,334,44960,6,0,L|233:315,1,80.9999975280763,4|0,1:2|0:0,0:0:0:0:
425,223,45294,2,0,P|469:238|461:349,1,161.999995056153,2|0,0:0|0:0,0:0:0:0:
261,149,45794,6,0,B|293:105|293:105|326:256,1,198.000006042481,4|10,1:2|0:0,0:0:0:0:
165,122,46294,1,0,1:0:0:0:
165,122,46377,1,8,0:0:0:0:
165,122,46460,1,0,1:0:0:0:
303,24,46627,1,0,1:0:0:0:
241,229,46794,1,10,0:0:0:0:
387,159,46960,1,2,0:0:0:0:
241,229,47127,6,0,P|194:228|155:210,1,80.9999975280763,2|0,1:2|1:0,0:0:0:0:
69,111,47460,1,8,0:0:0:0:
35,311,47627,1,0,1:0:0:0:
35,311,47710,1,8,0:0:0:0:
35,311,47794,1,0,1:0:0:0:
206,260,47960,2,0,P|272:256|326:350,1,161.999995056153,2|0,1:2|0:0,0:0:0:0:
103,211,48460,6,0,P|84:167|91:120,1,80.9999975280763,2|0,1:2|0:0,0:0:0:0:
278,48,48794,2,0,P|297:92|290:139,1,80.9999975280763,10|0,0:0|0:0,0:0:0:0:
243,174,49044,1,8,0:0:0:0:
243,174,49127,1,2,1:2:0:0:
166,105,49294,1,0,1:0:0:0:
370,50,49460,1,8,0:0:0:0:
45,12,49627,5,6,1:2:0:0:
45,12,49960,1,0,0:0:0:0:
144,26,50127,1,0,0:0:0:0:
152,121,50294,1,0,0:0:0:0:
67,162,50460,5,2,0:0:0:0:
242,131,50627,1,0,1:2:0:0:
122,256,50794,5,10,0:0:0:0:
242,131,50960,1,2,0:2:0:0:
226,300,51127,6,0,L|410:271,1,180,4|8,1:2|0:0,0:0:0:0:
473,171,51627,1,0,0:0:0:0:
424,357,51794,2,0,P|472:337|490:297,1,90,2|0,0:0|1:0,0:0:0:0:
396,186,52127,2,0,P|368:144|367:101,1,90,8|0,0:0|0:0,0:0:0:0:
473,5,52460,6,0,B|488:48|488:48|344:32,1,180,0|10,1:2|0:0,0:0:0:0:
188,115,52960,1,2,1:2:0:0:
188,115,53127,1,0,0:0:0:0:
279,20,53294,1,2,1:2:0:0:
256,214,53460,1,10,0:0:0:0:
79,133,53627,5,2,0:0:0:0:
79,133,53710,1,0,0:0:0:0:
79,133,53794,2,0,P|131:121|146:231,1,180,2|8,1:2|0:0,0:0:0:0:
57,235,54294,1,0,0:0:0:0:
220,288,54460,2,0,P|270:294|314:271,1,90,2|0,0:0|1:0,0:0:0:0:
410,249,54794,2,0,P|435:205|431:155,1,90,8|0,0:0|0:0,0:0:0:0:
317,133,55044,5,0,0:0:0:0:
317,133,55127,2,0,P|402:142|450:71,1,180,2|10,1:2|0:0,0:0:0:0:
282,46,55627,1,2,1:2:0:0:
206,270,55794,2,0,P|158:261|120:235,1,90,0|2,0:0|1:2,0:0:0:0:
281,191,56127,1,12,0:0:0:0:
327,363,56294,1,0,0:0:0:0:
484,270,56460,6,0,B|416:247|352:270|352:270|397:265,1,180,4|0,1:2|1:0,0:0:0:0:
512,145,56960,2,0,P|452:169|328:161,1,180,10|0,0:0|1:0,0:0:0:0:
129,244,57460,6,0,B|179:301|257:284|257:284|272:243|240:210,1,207.000003948212,12|0,0:0|0:0,0:0:0:0:
124,136,57960,2,0,P|66:133|96:22,1,180,6|0,1:2|0:0,0:0:0:0:
132,12,58377,1,8,0:0:0:0:
145,21,58460,1,0,1:0:0:0:
216,154,58627,1,0,1:0:0:0:
351,34,58794,5,8,0:0:0:0:
373,37,58877,1,8,0:0:0:0:
395,40,58960,1,8,0:0:0:0:
417,43,59044,1,8,0:0:0:0:
440,46,59127,2,0,L|255:67,1,180,6|0,1:2|1:0,0:0:0:0:
402,184,59627,2,0,P|485:183|502:101,1,180,10|0,0:0|1:0,0:0:0:0:
344,129,60127,1,10,0:0:0:0:
438,305,60294,6,0,B|335:261|361:325|264:294,1,180,4|0,1:2|1:0,0:0:0:0:
122,162,60794,2,0,P|164:200|173:240,1,90,8|0,0:0|0:0,0:0:0:0:
151,297,61044,1,8,0:0:0:0:
144,313,61127,1,0,1:0:0:0:
261,206,61294,1,0,1:0:0:0:
85,156,61460,1,10,0:0:0:0:
52,151,61543,1,8,0:0:0:0:
30,126,61626,1,8,0:0:0:0:
30,93,61710,1,8,0:0:0:0:
51,67,61794,6,0,P|128:82|190:48,1,148.50000453186,6|0,0:0|0:0,0:0:0:0:
240,0,62127,5,10,0:0:0:0:
235,156,62294,1,0,1:0:0:0:
388,89,62460,5,10,0:0:0:0:
279,253,62627,1,0,1:0:0:0:
449,250,62794,5,10,0:0:0:0:
255,359,62960,2,0,P|210:354|161:325,1,99.0000030212403,2|8,1:2|0:0,0:0:0:0:
349,313,63294,1,0,1:0:0:0:
153,229,63460,2,0,P|108:233|57:261,1,99.0000030212403,8|0,0:0|1:0,0:0:0:0:
237,272,63794,5,10,0:0:0:0:
323,114,63960,2,0,L|298:8,1,99.0000030212403,2|8,1:2|0:0,0:0:0:0:
380,185,64294,6,0,P|448:174|483:45,1,198.000006042481,4|0,1:2|1:0,0:0:0:0:
291,199,64794,2,0,L|169:159,1,99.0000030212403,10|0,0:0|0:0,0:0:0:0:
397,37,65127,1,10,0:0:0:0:
308,285,65294,1,0,1:0:0:0:
191,91,65460,1,8,0:0:0:0:
287,365,65627,1,4,1:2:0:0:
380,185,66127,6,0,P|421:177|381:226,1,144,0|0,0:0|0:0,0:0:0:0:
281,179,66627,5,0,1:0:0:0:
281,179,66710,1,0,1:0:0:0:
281,179,66794,2,0,L|447:158,1,161.999995056153,8|0,0:0|0:0,0:0:0:0:
512,204,67127,6,0,P|528:137|424:79,1,198.000006042481,4|12,0:0|0:0,0:0:0:0:
353,170,67627,1,2,0:0:0:0:
215,117,67794,2,0,P|196:57|212:13,1,99.0000030212403,0|0,1:0|0:0,0:0:0:0:
315,7,68127,1,8,0:0:0:0:
171,191,68294,6,0,L|71:171,1,99.0000030212403,2|0,0:0|1:0,0:0:0:0:
297,114,68627,1,2,0:0:0:0:
198,266,68794,1,10,0:0:0:0:
284,204,68960,1,0,0:0:0:0:
326,355,69127,1,2,1:2:0:0:
420,242,69294,1,0,0:0:0:0:
211,347,69460,2,0,L|111:327,1,99.0000030212403,10|0,0:0|0:0,0:0:0:0:
312,281,69794,6,0,B|417:268|391:339|506:311,1,198.000006042481,2|12,1:2|0:0,0:0:0:0:
332,190,70294,2,0,P|307:141|297:97,1,99.0000030212403,2|0,0:0|1:0,0:0:0:0:
361,30,70627,1,0,0:0:0:0:
218,234,70794,2,0,P|177:205|144:168,1,99.0000030212403,8|0,0:0|0:0,0:0:0:0:
260,377,71127,6,0,P|231:330|86:311,1,198.000006042481,2|8,1:2|0:0,0:0:0:0:
34,359,71627,1,0,1:0:0:0:
34,359,71710,1,8,0:0:0:0:
34,359,71794,1,0,1:0:0:0:
144,180,71960,1,2,0:3:0:0:
344,286,72127,2,0,P|385:279|364:243,1,99.0000030212403,12|0,0:0|0:0,0:0:0:0:
293,108,72460,6,0,P|242:162|255:233,1,148.50000453186,4|0,1:2|0:0,0:0:0:0:
253,230,72794,6,0,L|302:13,1,215.999993408203,12|0,0:0|1:0,0:0:0:0:
372,167,73294,1,0,0:0:0:0:
187,77,73460,1,8,0:0:0:0:
371,166,73627,6,0,P|421:165|468:150,1,99.0000030212403,2|0,0:0|1:0,0:0:0:0:
453,62,73960,1,2,0:0:0:0:
336,241,74127,2,0,L|368:361,1,99.0000030212403,10|0,0:0|0:0,0:0:0:0:
277,133,74460,1,2,1:2:0:0:
433,246,74627,1,0,0:0:0:0:
381,92,74794,1,10,0:2:0:0:
312,280,74960,1,0,0:0:0:0:
118,217,75127,6,0,B|168:165|168:165|198:318,1,198.000006042481,2|12,1:2|0:0,0:0:0:0:
80,125,75627,2,0,P|71:75|108:89,1,99.0000030212403,2|0,0:0|1:0,0:0:0:0:
93,300,75960,2,0,P|47:260|63:256,1,99.0000030212403,2|8,0:0|0:0,0:0:0:0:
191,184,76294,6,0,B|243:222|243:222|407:192,1,198.000006042481,4|0,1:2|0:0,0:0:0:0:
465,91,76794,2,0,L|361:109,1,99.0000030212403,10|0,0:0|0:0,0:0:0:0:
296,120,77044,1,8,0:0:0:0:
278,124,77127,2,0,P|251:71|264:27,1,99.0000030212403,2|0,1:2|0:0,0:0:0:0:
467,180,77460,1,10,0:0:0:0:
482,190,77543,1,8,0:0:0:0:
490,206,77626,1,8,0:0:0:0:
489,225,77709,1,8,0:0:0:0:
479,241,77793,5,6,1:2:0:0:
371,316,77960,1,0,0:0:0:0:
489,333,78127,1,10,0:0:0:0:
345,190,78294,1,0,0:0:0:0:
281,358,78460,1,2,1:2:0:0:
345,190,78627,2,0,P|300:152|295:191,1,99.0000030212403,2|8,0:0|0:0,0:0:0:0:
371,316,78960,6,0,P|315:266|189:255,1,198.000006042481,2|0,0:2|0:0,0:0:0:0:
45,327,79460,1,10,0:0:0:0:
158,170,79627,1,2,0:0:0:0:
142,323,79793,1,2,1:2:0:0:
140,91,79960,1,2,0:0:0:0:
275,341,80127,2,0,L|381:313,1,99.0000030212403,14|0,0:0|0:0,0:0:0:0:
459,167,80461,5,6,1:2:0:0:
321,208,80627,1,0,0:0:0:0:
450,257,80794,1,10,0:0:0:0:
316,133,80961,1,0,0:0:0:0:
484,65,81127,1,2,1:2:0:0:
316,133,81294,2,0,P|264:136|210:112,1,99.0000030212403,2|8,0:0|0:0,0:0:0:0:
397,203,81627,6,0,P|415:143|332:45,1,198.000006042481,4|0,1:2|1:0,0:0:0:0:
140,124,82127,1,10,0:0:0:0:
219,24,82294,2,0,L|270:38,2,49.5000015106202,0|8|0,0:0|0:0|1:0,0:0:0:0:
73,62,82627,1,0,1:0:0:0:
162,243,82794,5,10,0:0:0:0:
198,237,82877,1,8,0:0:0:0:
235,232,82960,1,10,0:0:0:0:
272,227,83043,1,8,0:0:0:0:
309,222,83127,5,10,0:0:0:0:
286,335,83294,1,0,1:0:0:0:
265,148,83460,5,10,0:0:0:0:
376,290,83627,1,0,1:0:0:0:
212,99,83794,5,10,0:0:0:0:
442,192,83960,1,0,1:0:0:0:
144,132,84127,5,10,0:0:0:0:
409,77,84294,1,0,1:0:0:0:
358,360,84460,1,6,0:2:0:0:
163,62,85294,5,0,0:0:0:0:
73,142,85460,2,0,P|29:113|19:68,1,90,8|0,0:0|0:0,0:0:0:0:
203,157,85794,6,0,B|291:140|273:217|386:182,1,180,4|14,0:0|0:0,0:0:0:0:
404,92,86294,1,0,1:0:0:0:
404,92,86377,1,0,1:0:0:0:
404,92,86461,1,0,1:0:0:0:
333,273,86627,1,0,1:0:0:0:
203,157,86794,1,8,0:0:0:0:
333,273,86960,6,0,L|438:260,1,90,2|0,1:2|0:0,0:0:0:0:
476,203,87294,1,0,1:0:0:0:
335,349,87460,2,0,L|230:362,1,90,10|0,0:0|0:0,0:0:0:0:
170,360,87711,1,8,0:0:0:0:
160,354,87794,1,0,1:0:0:0:
207,242,87961,1,0,1:0:0:0:
97,133,88127,1,10,0:0:0:0:
97,133,88461,2,0,L|62:302,1,135,0|0,1:2|0:0,0:0:0:0:
69,265,88794,6,0,P|127:210|44:140,1,215.999993408203,6|0,0:0|1:0,0:0:0:0:
207,242,89294,1,0,1:0:0:0:
315,162,89461,1,8,0:0:0:0:
112,23,89627,2,0,P|159:96|246:106,1,180,2|0,1:2|1:0,0:0:0:0:
420,106,90127,5,8,0:0:0:0:
330,249,90294,1,0,1:0:0:0:
330,249,90377,1,0,1:0:0:0:
330,249,90461,1,8,0:0:0:0:
251,65,90627,1,0,1:0:0:0:
422,259,90794,6,0,P|466:256|511:233,1,90,10|2,0:0|0:0,0:0:0:0:
289,146,91127,2,0,P|221:144|166:181,1,135,0|0,1:2|0:0,0:0:0:0:
166,181,91460,6,0,P|192:122|70:99,1,215.999993408203,6|0,0:0|1:0,0:0:0:0:
71,176,91961,1,0,1:0:0:0:
19,23,92127,1,8,0:0:0:0:
256,200,92294,6,0,P|281:143|276:110,1,90,2|0,1:2|0:0,0:0:0:0:
200,52,92627,1,0,1:0:0:0:
371,129,92794,2,0,P|426:123|465:96,1,90,10|0,0:0|0:0,0:0:0:0:
496,44,93044,1,0,1:0:0:0:
500,33,93127,1,0,1:0:0:0:
446,208,93294,1,2,1:2:0:0:
313,49,93461,1,8,0:0:0:0:
313,49,93544,1,8,0:0:0:0:
313,49,93627,1,0,1:0:0:0:
403,19,93794,5,8,0:0:0:0:
343,297,93961,1,8,0:0:0:0:
343,297,94294,6,0,P|293:230|212:253,1,180,4|0,1:2|1:0,0:0:0:0:
324,370,94794,1,8,0:0:0:0:
393,198,94961,1,0,1:0:0:0:
143,295,95127,6,0,P|98:290|62:263,1,90,6|0,1:2|1:0,0:0:0:0:
243,150,95461,1,8,0:0:0:0:
260,318,95627,1,4,1:2:0:0:
353,281,95794,6,0,B|391:208|451:206|462:237|460:291|417:304|391:298|377:212|342:214|302:231,1,291.033831302626,2|0,0:0|0:0,0:0:0:0:
222,249,96460,6,0,P|170:251|140:172,1,144,6|0,1:2|0:0,0:0:0:0:
268,159,96960,2,0,P|268:205|248:237,1,72,0|0,1:0|0:0,0:0:0:0:
196,95,97460,1,2,0:0:0:0:
268,159,97627,1,2,0:0:0:0:
363,133,97794,6,0,B|421:108|478:121|478:121|460:151,1,144,2|2,0:0|0:0,0:0:0:0:
396,83,98294,2,0,P|385:48|391:2,1,72,2|0,0:0|0:0,0:0:0:0:
421,218,98627,2,0,P|432:253|426:299,1,72,2|0,0:0|0:0,0:0:0:0:
268,159,98960,1,2,0:0:0:0:
312,230,99127,6,0,P|364:228|394:307,1,144,0|0,1:0|0:0,0:0:0:0:
269,354,99627,2,0,P|258:319|264:273,1,72,0|0,1:0|0:0,0:0:0:0:
475,214,100127,2,0,P|450:241|407:258,1,72,0|0,0:0|0:0,0:0:0:0:
204,137,100460,2,0,P|270:151|339:204,1,144,0|0,0:0|0:0,0:0:0:0:
409,155,100960,1,0,0:0:0:0:
409,155,101127,1,0,0:0:0:0:
240,220,101294,1,0,1:0:0:0:
271,47,101460,1,8,0:0:0:0:
50,344,101794,6,0,B|101:329|152:361|193:350,1,144,2|0,1:2|0:0,0:0:0:0:
99,195,102294,2,0,P|82:234|84:270,1,72,0|0,1:0|0:0,0:0:0:0:
192,350,102794,1,2,0:0:0:0:
270,317,102960,1,2,0:0:0:0:
328,378,103127,6,0,P|368:376|401:270,1,144,2|2,0:0|0:0,0:0:0:0:
327,196,103627,2,0,P|319:240|335:268,1,72,2|0,0:0|0:0,0:0:0:0:
463,104,103960,1,8,0:0:0:0:
413,188,104127,1,0,1:0:0:0:
498,197,104294,1,0,1:0:0:0:
248,70,104460,6,0,L|218:226,1,144,10|0,0:0|0:0,0:0:0:0:
343,96,104960,1,0,1:0:0:0:
343,96,105127,1,8,0:0:0:0:
157,122,105294,1,0,1:0:0:0:
320,215,105460,1,8,0:0:0:0:
125,300,105627,1,2,1:2:0:0:
125,300,106127,6,0,P|77:292|40:280,1,72,2|0,0:0|0:0,0:0:0:0:
181,215,106460,1,8,0:0:0:0:
181,215,106627,1,0,1:0:0:0:
215,367,106794,2,0,P|274:362|321:325,1,121.499996292114,8|0,0:0|0:0,0:0:0:0:
348,257,107127,6,0,B|295:227|295:227|326:375,1,198.000006042481,4|12,1:2|0:0,0:0:0:0:
435,220,107628,1,0,0:0:0:0:
435,220,107710,1,8,0:0:0:0:
435,220,107794,1,0,1:0:0:0:
446,306,107960,1,0,1:0:0:0:
351,159,108127,1,10,0:0:0:0:
512,182,108294,1,2,0:0:0:0:
351,159,108460,6,0,P|340:105|343:76,1,80.9999975280763,2|0,1:2|0:0,0:0:0:0:
452,34,108794,1,8,0:0:0:0:
268,186,108960,2,0,L|187:202,1,80.9999975280763,2|0,1:2|0:0,0:0:0:0:
416,111,109294,2,0,L|496:94,1,80.9999975280763,2|8,1:2|0:0,0:0:0:0:
240,22,109627,6,0,P|185:39|174:145,1,161.999995056153,2|0,1:2|1:0,0:0:0:0:
220,261,110127,2,0,P|234:305|231:346,1,80.9999975280763,10|0,0:0|0:0,0:0:0:0:
171,384,110377,1,8,0:0:0:0:
156,378,110461,1,2,1:2:0:0:
305,268,110627,1,2,1:2:0:0:
114,190,110794,2,0,L|96:269,1,80.9999975280763,8|0,0:2|0:0,0:0:0:0:
77,336,111044,5,0,0:0:0:0:
73,351,111127,1,2,1:2:0:0:
238,188,111294,1,0,1:0:0:0:
32,123,111461,1,8,0:0:0:0:
238,188,111627,6,0,L|338:169,1,80.9999975280763,4|0,1:2|0:0,0:0:0:0:
209,91,111960,2,0,L|31:123,1,180,2|0,0:0|0:0,0:0:0:0:
369,123,112460,6,0,B|399:51|354:7|354:7|309:11|293:43,1,198.000006042481,4|10,1:2|0:0,0:0:0:0:
412,208,112961,1,0,1:0:0:0:
412,208,113044,1,8,0:0:0:0:
412,208,113127,1,0,1:0:0:0:
282,118,113294,1,0,1:0:0:0:
309,305,113461,1,10,0:0:0:0:
463,261,113627,1,2,0:0:0:0:
231,232,113794,6,0,P|196:276|237:383,1,161.999995056153,2|8,1:2|0:0,0:0:0:0:
340,222,114294,1,0,1:0:0:0:
340,222,114377,1,8,0:0:0:0:
340,222,114461,1,0,1:0:0:0:
123,267,114627,2,0,P|45:252|9:182,1,161.999995056153,2|0,1:2|0:0,0:0:0:0:
115,103,115127,6,0,L|16:83,1,80.9999975280763,6|0,1:2|0:0,0:0:0:0:
221,241,115460,2,0,L|122:221,1,80.9999975280763,10|0,0:0|0:0,0:0:0:0:
73,209,115711,1,8,0:0:0:0:
56,206,115794,1,2,1:2:0:0:
195,127,115961,1,0,1:0:0:0:
210,329,116127,1,8,0:0:0:0:
329,70,116294,5,6,1:2:0:0:
329,70,116627,1,8,0:0:0:0:
424,103,116794,1,8,0:3:0:0:
315,175,116961,1,4,0:3:0:0:
214,132,117127,5,10,0:0:0:0:
399,186,117294,1,0,1:2:0:0:
243,258,117461,5,12,0:0:0:0:
399,186,117627,1,2,0:2:0:0:
262,347,117794,6,0,P|251:262|167:254,1,180,4|8,1:2|0:0,0:0:0:0:
108,330,118294,1,0,0:0:0:0:
264,238,118460,2,0,P|276:192|268:146,1,90,2|0,0:0|1:0,0:0:0:0:
133,119,118794,2,0,P|99:152|83:196,1,90,8|0,0:0|0:0,0:0:0:0:
300,204,119127,6,0,B|391:224|360:152|471:169,1,180,0|10,1:2|0:0,0:0:0:0:
330,119,119627,1,2,1:2:0:0:
330,119,119794,1,0,0:0:0:0:
429,238,119961,1,2,1:2:0:0:
454,66,120127,1,10,0:0:0:0:
244,299,120294,5,2,0:0:0:0:
244,299,120377,1,0,0:0:0:0:
244,299,120460,2,0,L|185:115,1,180,2|8,1:2|0:0,0:0:0:0:
134,275,120960,1,0,0:0:0:0:
316,263,121127,2,0,L|353:360,1,90,2|0,0:0|1:0,0:0:0:0:
396,225,121460,2,0,L|359:128,1,90,8|0,0:0|0:0,0:0:0:0:
414,82,121711,5,0,0:0:0:0:
414,82,121794,2,0,P|329:73|281:144,1,180,2|10,1:2|0:0,0:0:0:0:
294,10,122294,1,2,1:2:0:0:
205,175,122461,2,0,P|157:166|119:140,1,90,0|2,0:0|1:2,0:0:0:0:
116,39,122794,1,12,0:0:0:0:
116,39,122961,1,0,0:0:0:0:
29,224,123127,6,0,P|74:240|118:137,1,180,4|0,1:2|1:0,0:0:0:0:
105,310,123627,2,0,P|176:273|201:162,1,180,10|0,0:0|1:0,0:0:0:0:
382,293,124127,6,0,B|342:248|287:260|287:260|276:314|317:351,1,207.000003948212,12|0,0:0|0:0,0:0:0:0:
477,244,124627,2,0,P|501:183|419:113,1,180,6|0,1:2|0:0,0:0:0:0:
285,144,125127,1,0,1:0:0:0:
400,43,125294,1,0,1:0:0:0:
460,324,125460,1,12,0:0:0:0:
460,324,125794,6,0,P|406:327|371:222,1,180,6|0,1:2|1:0,0:0:0:0:
381,381,126294,2,0,P|456:344|443:261,1,180,10|0,0:0|1:0,0:0:0:0:
288,258,126794,1,10,0:0:0:0:
504,57,126960,6,0,P|525:106|419:174,1,198.000006042481,4|0,1:2|1:0,0:0:0:0:
276,107,127460,2,0,P|234:88|170:91,1,90,12|0,0:0|0:0,0:0:0:0:
122,120,127710,1,8,0:0:0:0:
115,135,127794,1,0,1:0:0:0:
157,18,127960,1,0,1:0:0:0:
183,213,128127,5,10,0:0:0:0:
186,235,128210,1,8,0:0:0:0:
189,257,128293,1,8,0:0:0:0:
192,279,128376,1,8,0:0:0:0:
195,302,128460,2,0,P|252:311|269:221,1,155.250002961159,6|0,0:0|0:0,0:0:0:0:
240,172,128794,5,10,0:0:0:0:
365,269,128960,1,0,1:0:0:0:
326,82,129127,5,10,0:0:0:0:
383,248,129294,1,0,1:0:0:0:
434,54,129460,5,10,0:0:0:0:
398,230,129627,2,0,L|370:343,1,99.0000030212403,2|8,1:2|0:0,0:0:0:0:
482,159,129960,1,0,1:0:0:0:
273,189,130127,2,0,P|267:132|291:84,1,99.0000030212403,8|0,0:0|1:0,0:0:0:0:
394,17,130460,5,10,0:0:0:0:
180,213,130627,2,0,L|76:191,1,99.0000030212403,2|0,1:2|0:0,0:0:0:0:
229,321,130960,6,0,B|288:263|375:286|375:286|344:338,1,198.000006042481,4|0,1:2|1:0,0:0:0:0:
132,301,131460,2,0,L|92:179,1,99.0000030212403,10|0,0:0|0:0,0:0:0:0:
250,106,131793,1,10,0:0:0:0:
75,70,131960,1,0,1:0:0:0:
282,21,132126,1,8,0:0:0:0:
203,247,132293,1,4,1:2:0:0:
203,247,132627,6,0,L|193:171,1,49.5000015106202,2|0,0:0|0:0,0:0:0:0:
278,255,132794,2,0,L|268:179,1,49.5000015106202,2|0,0:0|0:0,0:0:0:0:
335,105,132960,6,0,L|341:154,1,49.5000015106202,2|0,0:0|0:0,0:0:0:0:
408,115,133127,2,0,L|414:164,1,49.5000015106202,2|0,0:0|0:0,0:0:0:0:
482,240,133294,5,2,0:0:0:0:
478,264,133377,5,2,0:0:0:0:
475,289,133460,5,2,0:0:0:0:
472,313,133544,5,2,0:0:0:0:
469,338,133627,6,0,L|406:314,2,49.5000015106202,2|0|2,0:0|0:0|1:2,0:0:0:0:
352,226,133960,5,8,0:0:0:0:
236,353,134127,1,8,0:0:0:0:
170,79,134294,1,8,0:0:0:0:
170,79,134627,5,0,1:0:0:0:
170,79,134710,1,0,1:0:0:0:
170,79,134794,2,0,B|252:68|252:68|345:98,1,161.999995056153,8|0,0:0|0:0,0:0:0:0:
347,167,135127,6,0,P|293:158|291:32,1,198.000006042481,4|12,0:0|0:0,0:0:0:0:
373,22,135627,1,2,0:0:0:0:
425,194,135794,2,0,L|405:301,1,99.0000030212403,0|0,1:0|0:0,0:0:0:0:
512,144,136127,1,8,0:0:0:0:
301,258,136294,6,0,P|252:252|213:223,1,99.0000030212403,2|0,0:0|1:0,0:0:0:0:
359,138,136627,1,2,0:0:0:0:
416,324,136794,1,10,0:0:0:0:
279,183,136960,1,0,0:0:0:0:
294,363,137127,1,2,1:2:0:0:
361,213,137294,1,0,0:0:0:0:
152,271,137460,2,0,P|128:228|129:179,1,99.0000030212403,10|0,0:0|0:0,0:0:0:0:
237,17,137794,6,0,P|188:97|95:90,1,198.000006042481,2|12,1:2|0:0,0:0:0:0:
289,118,138294,2,0,P|312:62|311:12,1,99.0000030212403,2|0,0:0|1:0,0:0:0:0:
95,90,138627,1,0,0:0:0:0:
224,212,138794,2,0,P|272:204|318:185,1,99.0000030212403,8|0,0:0|0:0,0:0:0:0:
197,303,139127,6,0,B|81:239|106:324|-1:269,1,198.000006042481,2|8,1:2|0:0,0:0:0:0:
57,205,139627,1,0,1:0:0:0:
57,205,139710,1,8,0:0:0:0:
57,205,139794,1,0,1:0:0:0:
133,354,139960,1,2,0:3:0:0:
148,193,140127,2,0,P|155:145|194:116,1,99.0000030212403,12|0,0:0|0:0,0:0:0:0:
317,278,140460,6,0,P|367:226|356:155,1,148.50000453186,4|0,1:2|0:0,0:0:0:0:
356,155,140794,6,0,B|370:237|370:237|357:286|357:286|374:373,1,215.999993408203,12|0,0:0|1:0,0:0:0:0:
449,196,141294,1,0,0:0:0:0:
247,239,141460,1,8,0:0:0:0:
449,196,141627,6,0,P|466:136|351:88,1,198.000006042481,2|2,0:0|0:0,0:0:0:0:
236,171,142127,1,10,0:0:0:0:
236,171,142294,1,0,0:0:0:0:
274,53,142460,2,0,P|266:11|229:32,1,99.0000030212403,2|0,1:2|0:0,0:0:0:0:
310,205,142794,2,0,P|347:225|354:184,1,99.0000030212403,10|0,0:2|0:0,0:0:0:0:
114,230,143127,6,0,B|165:248|165:248|132:98,1,198.000006042481,2|12,1:2|0:0,0:0:0:0:
41,16,143627,2,0,P|33:69|64:112,1,99.0000030212403,2|0,0:0|1:0,0:0:0:0:
236,185,143960,2,0,P|260:228|251:275,1,99.0000030212403,2|8,0:0|0:0,0:0:0:0:
39,343,144294,6,0,B|68:370|104:360|104:360|156:300|110:240,1,198.000006042481,4|0,1:2|0:0,0:0:0:0:
338,264,144794,2,0,L|302:378,1,99.0000030212403,10|0,0:0|0:0,0:0:0:0:
390,380,145044,1,8,0:0:0:0:
408,384,145127,2,0,P|435:331|422:287,1,99.0000030212403,2|0,1:2|0:0,0:0:0:0:
345,190,145460,1,10,0:0:0:0:
329,156,145543,1,8,0:0:0:0:
331,120,145626,1,8,0:0:0:0:
351,89,145710,1,8,0:0:0:0:
383,71,145793,5,6,1:2:0:0:
254,207,145960,1,0,0:0:0:0:
433,245,146127,1,10,0:0:0:0:
268,93,146294,1,0,0:0:0:0:
207,287,146460,1,2,1:2:0:0:
268,93,146627,2,0,P|265:33|246:-11,1,99.0000030212403,2|8,0:0|0:0,0:0:0:0:
329,203,146960,6,0,P|276:124|181:128,1,198.000006042481,2|0,0:2|0:0,0:0:0:0:
96,239,147460,1,10,0:0:0:0:
236,192,147627,1,2,0:0:0:0:
125,77,147793,1,2,1:2:0:0:
236,192,147960,1,2,0:0:0:0:
122,324,148127,2,0,P|73:319|29:297,1,99.0000030212403,14|0,0:0|0:0,0:0:0:0:
158,174,148461,5,6,1:2:0:0:
225,334,148627,1,0,0:0:0:0:
305,256,148794,1,10,0:0:0:0:
162,177,148961,1,0,0:0:0:0:
352,104,149127,1,2,1:2:0:0:
162,177,149294,2,0,P|110:180|56:156,1,99.0000030212403,2|8,0:0|0:0,0:0:0:0:
276,2,149627,6,0,L|252:209,1,198.000006042481,4|0,1:2|1:0,0:0:0:0:
359,40,150127,1,10,0:0:0:0:
187,91,150294,2,0,L|133:82,2,49.5000015106202,0|8|0,0:0|0:0|1:0,0:0:0:0:
348,194,150627,1,0,1:0:0:0:
224,354,150794,5,10,0:0:0:0:
210,320,150877,1,8,0:0:0:0:
222,285,150960,1,10,0:0:0:0:
254,268,151044,1,8,0:0:0:0:
289,275,151127,2,0,P|337:246|347:199,1,99.0000030212403,10|0,0:0|1:0,0:0:0:0:
238,98,151460,5,10,0:0:0:0:
326,344,151627,1,0,1:0:0:0:
437,134,151794,5,10,0:0:0:0:
400,311,151960,1,0,1:0:0:0:
225,83,152127,5,10,0:0:0:0:
308,329,152294,1,0,1:0:0:0:
462,57,152460,1,6,0:2:0:0:
462,57,153294,1,0,1:0:0:0:
349,112,153460,2,0,P|302:101|261:73,1,90,8|0,0:0|0:0,0:0:0:0:
105,33,153794,6,0,P|157:21|161:119,1,180,4|8,1:2|0:0,0:0:0:0:
55,206,154294,1,0,1:0:0:0:
55,206,154377,1,0,1:0:0:0:
55,206,154460,2,1,B|29:218|1:211|1:211|32:234|60:221,1,116.999999999986,8|0,0:0|0:0,0:0:0:0:
116,164,154710,2,1,B|130:137|157:126|157:126|118:126|102:152,1,116.999999999986,0|0,1:0|0:0,0:0:0:0:
91,233,154960,2,1,B|93:247|85:260|85:260|101:248|101:232,1,58.4999999999932,8|0,0:0|0:0,0:0:0:0:
67,157,155127,6,1,B|45:131|42:99|42:99|29:141|51:168,1,134.999999999993,4|0,1:2|1:0,0:0:0:0:
188,224,155460,2,0,P|233:221|274:203,1,90,8|0,0:0|1:0,0:0:0:0:
362,108,155794,2,0,P|333:95|346:126,1,77.9999964294435,8|0,0:0|0:0,0:0:0:0:
451,175,156016,2,0,P|475:156|442:152,1,77.9999964294435,0|0,1:0|0:0,0:0:0:0:
354,207,156238,2,0,P|352:239|378:219,1,77.9999964294435,0|0,1:0|0:0,0:0:0:0:
212,136,156460,5,12,0:0:0:0:
212,136,156544,1,8,0:0:0:0:
212,136,156627,1,0,1:0:0:0:
126,111,156794,1,0,1:0:0:0:
148,234,156960,5,12,0:0:0:0:
148,234,157044,1,8,0:0:0:0:
148,234,157127,2,0,B|197:213|197:213|186:262,1,102.000001945496,0|0,1:0|0:0,0:0:0:0:
65,246,157349,2,0,B|22:213|22:213|70:198,1,102.000001945496,14|0,0:0|0:0,0:0:0:0:
118,302,157572,2,0,B|111:354|111:354|74:320,1,102.000001945496,12|0,0:0|0:0,0:0:0:0:
239,257,157794,5,12,0:0:0:0:
239,257,157877,1,8,0:0:0:0:
239,257,157960,1,0,1:0:0:0:
309,342,158127,1,0,1:0:0:0:
331,356,158210,1,0,1:0:0:0:
358,359,158293,1,8,0:0:0:0:
385,351,158377,2,0,L|400:284,1,53.9999983520508,8|0,0:0|0:0,0:0:0:0:
101,182,166460,22,1,B|59:169|59:169|121:116|121:116|154:246,1,257.618235167768,0|0,0:0|0:0,0:0:0:0:
220,286,167127,6,0,P|301:268|301:184,1,180,4|0,0:2|1:0,0:0:0:0:
348,305,167627,2,0,P|291:243|219:285,1,180,0|0,0:0|1:0,0:0:0:0:
301,184,168127,2,0,P|275:263|348:305,1,180,2|0,0:2|1:0,0:0:0:0:
358,118,168627,1,0,1:0:0:0:
358,118,168794,2,0,P|310:101|262:109,1,90,0|0,0:0|1:0,0:0:0:0:
188,167,169127,5,8,0:0:0:0:
335,32,169294,1,0,1:0:0:0:
394,309,169460,1,12,0:0:0:0:
394,309,169794,6,0,P|445:325|478:210,1,180,2|8,1:2|0:0,0:0:0:0:
360,206,170294,1,0,0:0:0:0:
312,374,170460,2,0,P|288:335|282:291,1,90,0|0,1:0|0:0,0:0:0:0:
364,186,170794,1,10,0:0:0:0:
201,311,170960,1,2,0:0:0:0:
214,104,171127,5,0,1:0:0:0:
158,172,171294,2,0,P|74:174|36:87,1,180,2|0,0:0|0:0,0:0:0:0:
228,23,171794,1,0,1:0:0:0:
311,178,171960,1,0,0:0:0:0:
444,107,172127,2,0,P|459:66|466:8,1,90,10|2,0:0|0:0,0:0:0:0:
451,228,172460,6,0,L|272:185,1,180,2|8,1:2|0:0,0:0:0:0:
382,286,172960,2,0,P|398:337|391:376,1,90,2|0,0:0|1:0,0:0:0:0:
322,111,173294,2,0,P|306:60|313:21,1,90,2|8,0:0|0:0,0:0:0:0:
206,242,173627,6,0,B|220:153|155:118|155:118|138:156,1,180,4|0,1:2|1:0,0:0:0:0:
203,321,174127,2,0,P|246:314|280:285,1,90,8|0,0:0|0:0,0:0:0:0:
298,217,174377,1,8,0:0:0:0:
296,204,174460,1,0,1:0:0:0:
300,368,174627,1,0,1:0:0:0:
113,264,174794,5,8,0:0:0:0:
80,257,174877,1,8,0:0:0:0:
49,269,174960,1,8,0:0:0:0:
29,296,175044,1,8,0:0:0:0:
27,329,175127,2,0,B|156:297|156:297|130:340,1,180,4|8,1:2|0:0,0:0:0:0:
60,169,175627,5,0,0:0:0:0:
60,169,175710,1,0,0:0:0:0:
60,169,175794,1,2,1:2:0:0:
192,206,175960,1,0,0:0:0:0:
167,65,176127,1,8,0:0:0:0:
279,226,176294,6,0,L|253:332,1,90,2|0,0:0|1:0,0:0:0:0:
192,206,176627,1,2,0:0:0:0:
356,163,176794,1,8,0:0:0:0:
192,206,176960,2,0,P|140:198|104:167,1,90,2|0,0:0|1:0,0:0:0:0:
212,54,177294,1,0,0:0:0:0:
350,256,177460,2,0,P|402:248|438:217,1,90,12|0,0:0|0:0,0:0:0:0:
285,353,177794,6,0,L|263:168,1,180,4|8,1:2|0:0,0:0:0:0:
255,60,178294,1,0,1:0:0:0:
255,60,178377,1,8,0:0:0:0:
255,60,178460,1,0,1:0:0:0:
127,214,178627,1,0,1:0:0:0:
338,273,178794,1,8,0:0:0:0:
127,214,178960,6,0,P|223:203|284:123,1,180,6|0,1:2|1:0,0:0:0:0:
190,12,179460,1,8,0:0:0:0:
88,148,179627,2,0,L|26:136,2,45,0|8|0,0:0|0:0|1:0,0:0:0:0:
195,93,179960,1,0,1:0:0:0:
317,278,180127,5,8,0:0:0:0:
317,278,180210,1,8,0:0:0:0:
317,278,180294,1,8,0:0:0:0:
317,278,180377,1,8,0:0:0:0:
317,278,180460,2,0,L|469:253,1,135,4|0,0:0|0:0,0:0:0:0:
466,186,180793,5,8,0:0:0:0:
390,347,180960,1,0,1:0:0:0:
356,140,181127,5,8,0:0:0:0:
301,353,181294,1,0,1:0:0:0:
240,104,181460,5,8,0:0:0:0:
222,347,181627,1,0,1:0:0:0:
298,40,181793,5,8,0:0:0:0:
176,277,181960,1,0,1:0:0:0:
327,122,182127,5,8,0:0:0:0:
87,316,182294,1,0,1:0:0:0:
315,218,182460,5,8,0:0:0:0:
26,264,182627,1,0,1:0:0:0:
343,325,182793,5,8,0:0:0:0:
344,326,182877,1,8,0:0:0:0:
344,326,182960,1,8,0:0:0:0:
166,140,183127,5,12,0:0:0:0:
315,218,183293,1,0,1:0:0:0:
306,61,183460,1,0,1:0:0:0:
243,316,183627,5,12,0:0:0:0:
409,77,183793,1,0,1:0:0:0:
165,31,183960,5,10,0:0:0:0:
460,230,184126,1,10,0:0:0:0:
130,346,184293,1,6,1:2:0:0:
130,346,184794,1,2,0:0:0:0:
202,261,185127,2,0,L|291:227,1,90,10|0,0:0|1:0,0:0:0:0:
97,197,185460,1,8,0:0:0:0:
97,197,185794,6,0,B|215:159|215:159|198:186,1,153.000002918243,4|0,1:2|1:0,0:0:0:0:
132,109,186294,1,0,0:0:0:0:
132,109,186460,2,0,P|108:64|113:23,1,76.5000014591217,2|0,1:2|0:0,0:0:0:0:
253,7,186794,2,0,P|232:38|229:76,1,76.5000014591217,0|0,1:0|0:0,0:0:0:0:
355,130,187127,2,0,P|419:96|413:24,1,153.000002918243,2|0,1:2|1:0,0:0:0:0:
338,24,187627,1,0,0:0:0:0:
439,88,187794,2,0,P|480:74|508:50,1,76.5000014591217,2|0,1:2|0:0,0:0:0:0:
355,130,188127,2,0,P|314:116|286:92,1,76.5000014591217,0|0,1:0|0:0,0:0:0:0:
427,187,188460,6,0,L|405:339,1,153.000002918243,6|0,1:2|1:0,0:0:0:0:
491,267,188960,1,0,0:0:0:0:
341,293,189127,2,0,P|314:254|310:214,1,76.5000014591217,2|0,1:2|0:0,0:0:0:0:
224,216,189460,1,0,1:0:0:0:
224,216,189627,2,0,P|256:150|329:140,1,153.000002918243,2|0,0:0|0:0,0:0:0:0:
178,133,190127,2,0,P|155:167|149:201,1,76.5000014591217,0|2,1:0|0:0,0:0:0:0:
307,227,190460,5,0,1:0:0:0:
307,227,190627,1,8,0:0:0:0:
234,79,190794,1,0,1:0:0:0:
401,44,190960,1,8,0:0:0:0:
234,79,191127,2,0,P|182:83|83:31,1,153.000002918243,2|0,1:2|1:0,0:0:0:0:
179,1,191627,1,0,0:0:0:0:
123,180,191794,2,0,P|161:193|176:105,1,153.000002918243,2|0,1:2|1:0,0:0:0:0:
72,123,192294,1,0,0:0:0:0:
93,251,192460,6,0,P|128:264|166:268,1,76.5000014591217,2|0,1:2|0:0,0:0:0:0:
258,223,192794,2,0,P|274:188|282:151,1,76.5000014591217,0|0,1:0|0:0,0:0:0:0:
358,331,193127,2,0,P|342:296|335:258,1,76.5000014591217,2|0,1:2|0:0,0:0:0:0:
389,203,193377,1,0,0:0:0:0:
389,203,193460,2,0,L|405:120,1,76.5000014591217,2|0,1:2|0:0,0:0:0:0:
336,28,193794,5,0,1:0:0:0:
480,98,193960,1,0,1:0:0:0:
312,174,194127,2,0,P|269:164|240:142,1,76.5000014591217,8|0,0:0|0:0,0:0:0:0:
219,80,194377,1,8,0:0:0:0:
221,71,194460,1,0,1:0:0:0:
303,248,194627,2,0,P|346:238|375:216,1,76.5000014591217,10|0,0:0|0:0,0:0:0:0:
481,86,194960,6,0,B|422:92|422:92|382:80|382:80|318:86,1,153.000002918243,6|0,1:2|1:0,0:0:0:0:
434,19,195460,1,8,0:0:0:0:
374,160,195627,1,0,1:0:0:0:
374,160,195710,1,8,0:0:0:0:
374,160,195794,1,0,1:0:0:0:
318,7,195960,1,0,1:0:0:0:
205,146,196127,5,10,0:0:0:0:
187,143,196210,1,8,0:0:0:0:
170,139,196293,1,10,0:0:0:0:
154,137,196377,1,8,0:0:0:0:
137,134,196460,2,0,P|178:114|197:215,1,180,4|8,1:2|0:0,0:0:0:0:
55,194,196960,2,0,P|21:162|70:55,1,180,2|0,0:0|0:0,0:0:0:0:
131,249,197460,5,8,0:0:0:0:
207,209,197627,2,0,P|253:193|327:287,1,180,2|0,0:0|0:0,0:0:0:0:
396,182,198127,2,0,P|365:143|328:119,1,90,10|0,0:0|0:0,0:0:0:0:
462,268,198460,2,0,P|480:227|485:182,1,90,0|0,1:0|0:0,0:0:0:0:
451,117,198710,1,0,0:0:0:0:
451,117,198794,2,0,P|432:76|427:31,1,90,10|0,0:0|0:0,0:0:0:0:
383,193,199127,6,0,P|298:196|255:121,1,180,6|8,1:2|0:0,0:0:0:0:
296,29,199627,1,0,0:0:0:0:
296,29,199710,1,8,0:0:0:0:
296,29,199794,1,0,1:0:0:0:
211,226,199960,1,0,1:0:0:0:
342,123,200127,1,8,0:0:0:0:
105,33,200294,6,0,L|132:214,1,180,6|0,1:2|1:0,0:0:0:0:
310,125,200794,2,0,L|220:114,1,90,8|0,0:0|0:0,0:0:0:0:
152,106,201044,1,8,0:0:0:0:
137,104,201127,1,0,1:0:0:0:
303,38,201294,1,2,1:2:0:0:
301,219,201460,1,8,0:0:0:0:
250,140,201627,1,2,0:0:0:0:
268,332,201794,6,0,P|212:285|139:287,1,148.50000453186,4|0,1:2|0:0,0:0:0:0:
90,340,202127,5,8,0:0:0:0:
248,181,202294,1,2,1:2:0:0:
187,365,202460,5,10,0:0:0:0:
270,133,202627,1,0,1:2:0:0:
289,339,202794,5,8,0:0:0:0:
265,84,202960,1,2,1:2:0:0:
374,333,203127,5,10,0:0:0:0:
222,46,203294,1,0,1:2:0:0:
206,355,203460,5,10,0:0:0:0:
364,53,203627,1,0,1:2:0:0:
387,354,203794,5,10,0:0:0:0:
215,34,203961,1,0,1:2:0:0:
196,368,204127,6,0,L|302:345,1,99.0000030212403,14|0,0:0|0:0,0:0:0:0:
423,232,204460,5,12,0:0:0:0:
248,141,204627,1,0,1:0:0:0:
408,40,204794,1,0,1:0:0:0:
266,295,204960,5,12,0:0:0:0:
179,96,205127,1,0,1:0:0:0:
416,305,205294,1,0,1:0:0:0:
446,23,205460,1,8,0:0:0:0:
140,332,205627,1,4,0:0:0:0:
140,332,206127,2,0,P|133:263|165:227,1,99.0000030212403,2|0,0:0|0:0,0:0:0:0:
323,256,206460,5,10,0:0:0:0:
347,252,206543,1,8,0:0:0:0:
372,249,206626,1,8,0:0:0:0:
396,245,206710,1,8,0:0:0:0:
421,244,206794,1,10,0:0:0:0:
455,210,206877,1,8,0:0:0:0:
450,163,206960,1,8,0:0:0:0:
409,137,207044,1,8,0:0:0:0:
364,154,207127,6,0,P|321:177|254:168,1,99.0000030212403,6|0,1:2|1:0,0:0:0:0:
109,63,207460,1,2,1:2:0:0:
186,266,207627,5,14,0:0:0:0:
247,45,207794,1,0,1:0:0:0:
281,322,207960,1,0,1:0:0:0:
33,213,208127,1,8,0:0:0:0:
281,322,208294,6,0,L|390:300,1,99.0000030212403,6|0,1:2|0:0,0:0:0:0:
119,185,208627,1,8,0:0:0:0:
269,237,208794,1,0,1:0:0:0:
237,103,208960,1,12,0:0:0:0:
118,269,209127,2,0,L|132:323,2,49.5000015106202,8|8|0,0:0|0:0|1:0,0:0:0:0:
387,229,209460,5,8,0:0:0:0:
419,191,209543,1,8,0:0:0:0:
424,142,209626,1,8,0:0:0:0:
401,99,209710,2,8,P|386:68|384:45,1,49.5000015106202,8|2,0:0|0:0,0:0:0:0:
273,112,210127,6,0,P|279:47|306:14,1,99.0000030212403,4|0,1:2|0:0,0:0:0:0:
386,21,210460,1,2,1:2:0:0:
226,171,210627,2,0,P|178:161|144:126,1,99.0000030212403,2|0,1:2|0:0,0:0:0:0:
306,266,210960,6,0,P|359:187|453:195,1,198.000006042481,4|0,0:0|0:0,0:0:0:0:
288,341,211460,1,2,0:0:0:0:
288,341,211572,2,0,L|213:322,1,66.0000020141602,2|2,0:0|0:0,0:0:0:0:
104,278,211794,2,0,P|51:290|12:321,1,99.0000030212403,2|0,1:2|1:0,0:0:0:0:
220,234,212127,5,10,0:0:0:0:
226,185,212210,1,8,0:0:0:0:
204,142,212293,1,10,0:0:0:0:
160,121,212377,1,8,0:0:0:0:
112,130,212460,2,0,L|143:346,1,198.000006042481,6|8,1:2|0:0,0:0:0:0:
40,164,212960,5,0,1:0:0:0:
40,164,213044,1,8,0:0:0:0:
40,164,213127,1,0,1:0:0:0:
220,234,213294,1,0,1:0:0:0:
181,45,213460,1,8,0:0:0:0:
220,234,213627,6,0,L|242:349,1,99.0000030212403,2|0,1:2|0:0,0:0:0:0:
141,153,213960,1,2,1:2:0:0:
316,217,214127,1,10,0:0:0:0:
150,312,214294,1,0,1:0:0:0:
150,312,214377,1,8,0:0:0:0:
150,312,214460,2,0,P|101:317|57:297,1,99.0000030212403,2|0,1:2|0:0,0:0:0:0:
280,149,214794,2,0,P|328:143|372:163,1,99.0000030212403,10|0,0:0|0:0,0:0:0:0:
481,339,215127,6,0,B|366:291|383:368|279:324,1,198.000006042481,2|10,1:2|0:0,0:0:0:0:
168,180,215627,2,0,P|210:175|202:217,1,99.0000030212403,2|0,0:0|1:0,0:0:0:0:
43,209,215960,2,0,P|22:246|64:255,1,99.0000030212403,10|0,0:0|1:0,0:0:0:0:
203,278,216294,6,0,P|159:248|136:103,1,198.000006042481,14|0,0:0|1:0,0:0:0:0:
266,16,216794,2,0,P|284:77|257:116,1,99.0000030212403,14|2,0:0|0:0,0:0:0:0:
334,294,217127,2,0,P|330:230|291:203,1,99.0000030212403,0|0,1:0|1:0,0:0:0:0:
152,294,217794,6,0,P|181:267|205:348,1,161.999995056153,4|0,1:2|0:0,0:0:0:0:
140,374,218294,1,0,1:0:0:0:
59,236,218460,2,0,P|77:180|101:155,1,80.9999975280763,8|2,0:0|0:0,0:0:0:0:
60,325,218960,6,0,P|131:289|211:280,1,161.999995056153,2|8,1:2|0:0,0:0:0:0:
318,316,219460,1,0,1:0:0:0:
318,316,219627,1,0,0:0:0:0:
230,357,219793,1,8,0:0:0:0:
287,222,219960,1,0,1:0:0:0:
157,244,220127,2,0,P|117:234|80:217,1,80.9999975280763,12|0,0:0|0:0,0:0:0:0:
54,116,220461,5,4,1:2:0:0:
54,116,220627,1,0,0:0:0:0:
151,147,220794,1,2,0:2:0:0:
80,217,220960,1,2,1:2:0:0:
187,147,221127,1,8,0:0:0:0:
272,265,221294,2,0,P|288:218|282:176,1,80.9999975280763,2|0,0:0|0:0,0:0:0:0:
197,248,221627,6,0,P|199:298|314:324,1,161.999995056153,4|8,1:2|0:0,0:0:0:0:
395,276,222127,1,0,1:0:0:0:
395,276,222294,6,0,L|407:226,2,40.4999987640381,0|0|8,0:0|0:0|0:0,0:0:0:0:
428,347,222627,1,0,1:0:0:0:
485,180,222794,2,0,P|444:151|396:148,1,99.0000030212403,12|0,0:0|0:0,0:0:0:0:
172,270,223127,5,12,0:0:0:0:
323,94,223294,1,0,1:2:0:0:
298,299,223460,5,10,0:0:0:0:
206,72,223627,1,0,1:2:0:0:
163,284,223794,5,10,0:0:0:0:
335,79,223961,1,0,1:2:0:0:
306,317,224127,5,10,0:0:0:0:
201,55,224294,1,0,1:2:0:0:
153,298,224460,5,10,0:0:0:0:
349,63,224627,1,0,1:2:0:0:
317,335,224793,5,10,0:0:0:0:
195,34,224960,1,0,1:2:0:0:
140,318,225127,5,10,0:0:0:0:
365,44,225294,1,0,1:2:0:0:
331,358,225460,5,12,0:0:0:0:
330,357,225544,1,8,0:0:0:0:
330,357,225627,1,8,0:0:0:0:
128,124,225794,5,12,0:0:0:0:
371,226,225960,1,0,1:0:0:0:
93,251,226127,1,0,1:0:0:0:
300,31,226294,5,12,0:0:0:0:
227,347,226460,1,0,1:0:0:0:
31,113,226627,5,10,0:0:0:0:
326,353,226793,1,10,0:0:0:0:
373,8,226960,1,14,0:0:0:0:
204,188,227460,6,0,P|256:167|313:161,1,107.999996704102,2|2,0:0|0:0,0:0:0:0:
297,139,228127,2,0,P|244:145|194:166,1,107.999996704102,2|2,0:0|0:0,0:0:0:0:
73,252,228960,1,2,0:0:0:0:
113,175,229127,1,2,0:0:0:0:
203,348,229294,1,2,0:0:0:0:
203,348,229460,2,0,P|169:307|265:309,1,198.000006042481,0|2,0:0|0:0,0:0:0:0:
263,287,230127,6,0,B|294:256|274:210|274:210|241:180|182:175|134:211,1,226.199991888886,12|0,0:0|1:0,0:0:0:0:
63,279,230627,1,0,0:0:0:0:
63,279,230794,1,8,0:0:0:0:
224,78,230961,6,0,P|198:119|158:148,1,99.0000030212403,2|0,0:0|1:0,0:0:0:0:
40,105,231294,1,2,0:0:0:0:
158,26,231461,1,10,0:0:0:0:
106,207,231627,1,0,0:0:0:0:
106,207,231794,1,2,1:2:0:0:
265,164,231961,1,0,0:0:0:0:
260,352,232127,2,0,P|237:308|232:259,1,99.0000030212403,10|0,0:0|0:0,0:0:0:0:
427,121,232460,6,0,B|397:126|367:148|367:148|338:200|369:277,1,198.000006042481,2|12,1:2|0:0,0:0:0:0:
293,123,232960,2,0,P|298:75|321:31,1,99.0000030212403,2|0,0:0|1:0,0:0:0:0:
455,191,233294,1,0,0:0:0:0:
269,233,233460,2,0,P|220:227|176:204,1,99.0000030212403,8|0,0:0|0:0,0:0:0:0:
34,100,233794,6,0,B|145:134|114:59|226:97,1,198.000006042481,2|8,1:2|0:0,0:0:0:0:
331,146,234294,1,0,1:0:0:0:
331,146,234377,1,8,0:0:0:0:
331,146,234461,1,0,1:0:0:0:
253,28,234627,1,2,0:3:0:0:
130,270,234794,2,0,P|89:278|95:237,1,99.0000030212403,12|0,0:0|0:0,0:0:0:0:
310,243,235127,6,0,P|361:297|348:368,1,148.50000453186,4|0,1:2|0:0,0:0:0:0:
350,365,235461,6,0,L|409:147,1,215.999993408203,12|0,0:0|1:0,0:0:0:0:
441,51,235961,1,0,0:0:0:0:
441,51,236127,1,8,0:0:0:0:
260,135,236294,6,0,P|205:134|171:108,1,99.0000030212403,2|0,0:0|1:0,0:0:0:0:
335,75,236627,1,2,0:0:0:0:
98,142,236794,2,0,P|91:85|121:21,1,99.0000030212403,10|0,0:0|0:0,0:0:0:0:
239,41,237127,1,2,1:2:0:0:
189,220,237294,1,0,0:0:0:0:
352,170,237461,1,10,0:2:0:0:
260,135,237627,1,0,0:0:0:0:
265,339,237794,6,0,B|263:273|322:243|322:243|356:270|337:318,1,198.000006042481,2|12,1:2|0:0,0:0:0:0:
179,261,238294,2,0,P|153:210|155:162,1,99.0000030212403,2|0,0:0|1:0,0:0:0:0:
331,337,238627,2,0,P|383:314|413:276,1,99.0000030212403,2|8,0:0|0:0,0:0:0:0:
362,133,238960,6,0,B|293:146|293:146|247:182|247:182|171:195,1,198.000006042481,4|0,1:2|0:0,0:0:0:0:
15,76,239461,2,0,L|119:58,1,99.0000030212403,10|0,0:0|0:0,0:0:0:0:
185,47,239711,1,8,0:0:0:0:
203,43,239794,2,0,P|230:96|217:140,1,99.0000030212403,2|0,1:2|0:0,0:0:0:0:
78,259,240127,1,10,0:0:0:0:
115,143,240293,1,8,0:0:0:0:
215,307,240460,5,6,1:2:0:0:
215,307,240627,1,0,0:0:0:0:
160,219,240794,1,10,0:0:0:0:
304,275,240961,1,0,0:0:0:0:
155,377,241127,1,2,1:2:0:0:
304,275,241294,2,0,P|364:256|420:261,1,99.0000030212403,2|8,0:0|0:0,0:0:0:0:
215,307,241627,6,0,P|191:245|255:132,1,198.000006042481,2|0,0:2|0:0,0:0:0:0:
379,182,242127,1,10,0:0:0:0:
379,182,242294,1,2,0:0:0:0:
339,34,242460,1,2,1:2:0:0:
481,98,242627,1,2,0:0:0:0:
248,135,242794,2,0,P|193:122|148:93,1,99.0000030212403,14|0,0:0|0:0,0:0:0:0:
258,42,243128,5,6,1:2:0:0:
304,212,243294,1,0,0:0:0:0:
424,96,243461,1,10,0:0:0:0:
335,132,243628,1,0,0:0:0:0:
405,15,243794,1,2,1:2:0:0:
248,135,243960,2,0,P|193:122|148:93,1,99.0000030212403,2|8,0:0|0:0,0:0:0:0:
329,17,244294,6,0,L|360:212,1,198.000006042481,4|0,1:2|1:0,0:0:0:0:
376,346,244794,1,10,0:0:0:0:
453,265,244961,2,0,L|504:279,2,49.5000015106202,0|8|0,0:0|0:0|1:0,0:0:0:0:
426,152,245294,1,0,1:0:0:0:
290,290,245460,5,10,0:0:0:0:
253,293,245543,1,8,0:0:0:0:
218,281,245626,1,10,0:0:0:0:
192,255,245710,1,8,0:0:0:0:
179,220,245793,5,10,0:0:0:0:
221,359,245960,1,0,1:0:0:0:
268,129,246127,5,10,0:0:0:0:
318,352,246294,1,0,1:0:0:0:
346,62,246461,5,10,0:0:0:0:
416,341,246627,1,0,1:0:0:0:
426,20,246794,5,10,0:0:0:0:
502,327,246961,1,0,1:0:0:0:
179,222,247127,1,6,0:2:0:0:
162,301,248460,1,0,0:0:0:0:
232,285,249794,6,1,B|260:271|282:249|282:249|317:257|340:257|340:257|337:227|321:201|321:201|339:176|346:148|346:148|317:145|286:149|286:149|273:129|244:112|244:112|232:139|227:166|227:166|208:173|178:194|178:194|201:220|225:227|225:227|226:255,1,555.307557433229,2|8,0:0|0:0,0:0:0:0:
55,207,251127,6,0,P|110:170|101:48,1,180,4|14,0:0|0:0,0:0:0:0:
31,56,251627,1,0,1:0:0:0:
31,56,251710,1,0,1:0:0:0:
31,56,251794,1,0,1:0:0:0:
179,207,251960,1,0,1:0:0:0:
195,20,252127,1,8,0:0:0:0:
179,207,252294,6,0,L|163:314,1,90,2|0,1:2|0:0,0:0:0:0:
108,132,252627,1,0,1:0:0:0:
258,222,252794,2,0,P|302:218|346:208,1,90,10|0,0:0|0:0,0:0:0:0:
396,154,253044,1,8,0:0:0:0:
402,144,253127,1,0,1:0:0:0:
432,291,253294,1,0,1:0:0:0:
315,101,253460,1,10,0:0:0:0:
315,101,253794,2,0,P|238:102|205:157,1,135,0|0,1:0|0:0,0:0:0:0:
207,144,254127,6,0,P|255:125|161:47,1,215.999993408203,14|0,0:0|1:0,0:0:0:0:
114,147,254627,1,0,1:0:0:0:
248,236,254794,1,8,0:0:0:0:
114,147,254960,2,0,P|68:147|7:265,1,180,2|0,1:2|1:0,0:0:0:0:
166,316,255460,5,8,0:0:0:0:
295,170,255627,1,0,1:0:0:0:
295,170,255710,1,8,0:0:0:0:
295,170,255794,1,0,1:0:0:0:
286,352,255960,1,2,0:3:0:0:
185,202,256127,6,0,P|142:201|90:225,1,90,14|0,0:0|0:0,0:0:0:0:
330,250,256460,2,0,P|385:243|415:163,1,135,0|0,1:2|0:0,0:0:0:0:
417,176,256794,6,0,B|457:302|358:266|398:396,1,215.999993408203,14|0,0:0|1:0,0:0:0:0:
308,154,257294,1,0,1:0:0:0:
508,195,257460,1,8,0:0:0:0:
308,154,257627,6,0,L|201:130,1,90,2|0,1:2|0:0,0:0:0:0:
395,85,257960,1,0,1:0:0:0:
158,197,258127,2,0,P|137:157|134:112,1,90,10|0,0:0|0:0,0:0:0:0:
177,52,258377,1,8,0:0:0:0:
188,42,258460,1,0,1:0:0:0:
252,243,258627,1,0,1:2:0:0:
45,213,258794,2,0,P|31:167|34:121,1,90,10|2,0:2|0:2,0:2:0:0:
140,381,259127,6,0,P|167:305|112:290,1,135,2|0,1:2|0:0,0:0:0:0:
132,287,259460,2,0,B|256:320|223:228|341:270,1,215.999993408203,14|0,0:0|1:0,0:0:0:0:
461,332,259960,1,2,1:2:0:0:
484,145,260127,1,8,0:0:0:0:
408,187,260294,6,0,P|352:165|351:58,1,180,6|0,1:2|1:0,0:0:0:0:
270,186,260794,2,0,P|223:194|180:188,1,90,10|0,0:2|0:0,0:0:0:0:
120,151,261044,1,8,0:0:0:0:
107,140,261127,1,2,1:2:0:0:
222,96,261294,1,0,1:0:0:0:
114,258,261460,1,8,0:0:0:0:
92,250,261543,1,8,0:0:0:0:
71,243,261626,1,8,0:0:0:0:
49,238,261710,1,8,0:0:0:0:
27,234,261794,6,0,B|101:182|181:205|181:205|151:207|127:202,1,215.999993408203,6|8,1:2|0:0,0:0:0:0:
21,143,262294,1,0,0:0:0:0:
21,143,262460,1,2,1:2:0:0:
149,27,262627,2,0,L|130:140,1,90,2|10,0:0|0:0,0:0:0:0:
255,228,262960,6,0,P|288:160|226:56,1,180,2|0,0:0|0:0,0:0:0:0:
127,32,263460,1,10,0:0:0:0:
313,9,263627,1,2,1:2:0:0:
313,9,263710,1,0,1:0:0:0:
313,9,263794,1,2,1:2:0:0:
218,153,263960,1,0,0:0:0:0:
393,221,264127,2,0,P|439:215|481:200,1,90,14|0,0:0|0:0,0:0:0:0:
351,305,264460,6,0,B|271:290|271:290|231:300|231:300|160:290,1,180,6|8,1:2|0:0,0:0:0:0:
76,199,264960,1,0,1:0:0:0:
76,199,265044,1,8,0:0:0:0:
76,199,265127,1,0,1:0:0:0:
232,271,265294,1,0,1:0:0:0:
69,336,265460,1,8,0:0:0:0:
221,159,265627,6,0,L|439:139,1,180,4|0,1:2|0:0,0:0:0:0:
266,52,266127,1,10,0:0:0:0:
346,227,266294,2,0,L|334:277,2,45,0|8|0,0:0|0:0|1:0,0:0:0:0:
395,50,266627,1,0,1:0:0:0:
458,214,266794,1,8,0:0:0:0:
458,214,266877,1,8,0:0:0:0:
458,214,266960,1,8,0:0:0:0:
221,159,267127,6,0,P|170:179|143:270,1,155.250002961159,6|0,1:2|0:0,0:0:0:0:
196,316,267460,5,10,0:0:0:0:
276,89,267627,1,2,1:2:0:0:
280,277,267794,5,8,0:0:0:0:
183,34,267960,1,2,1:2:0:0:
307,185,268127,5,8,0:0:0:0:
91,68,268294,1,2,1:2:0:0:
415,22,268460,5,4,0:0:0:0:
415,22,269127,2,0,P|464:71|461:141,1,144,2|4,0:0|0:3,0:0:0:0:
362,238,269794,6,0,L|173:210,1,180,4|8,0:0|0:0,0:0:0:0:
185,292,270294,1,0,1:0:0:0:
289,118,270460,2,1,B|301:92|294:64|294:64|317:95|303:123,1,116.999999999986,8|0,0:0|0:0,0:0:0:0:
245,178,270710,2,1,B|217:191|206:218|206:218|206:179|233:163,1,116.999999999986,0|0,1:0|0:0,0:0:0:0:
315,154,270960,2,1,B|328:156|342:148|342:148|329:164|313:163,1,58.4999999999932,10|0,0:0|0:0,0:0:0:0:
239,129,271127,6,1,B|213:106|181:102|181:102|223:90|250:113,1,134.999999999993,6|0,1:2|1:0,0:0:0:0:
424,164,271460,2,0,P|459:130|460:84,1,90,8|0,0:0|1:0,0:0:0:0:
340,277,271794,2,0,P|381:245|479:249,2,148.50000453186,10|0|8,0:0|1:0|0:0,0:0:0:0:
256,192,272794,12,0,275627,0:0:0:0:
